  0
SECTION
  2
HEADER
  9
$ACADVER
  1
AC1015
  9
$ACADMAINTVER
 70
    14
  9
$DWGCODEPAGE
  3
ANSI_932
  9
$INSBASE
 10
0.0
 20
0.0
 30
0.0
  9
$EXTMIN
 10
180.6836364272168
 20
137.5300923354177
 30
0.0
  9
$EXTMAX
 10
8580.683636427217
 20
6077.530092335418
 30
0.0
  9
$LIMMIN
 10
0.0
 20
0.0
  9
$LIMMAX
 10
420.0
 20
297.0
  9
$ORTHOMODE
 70
     1
  9
$REGENMODE
 70
     1
  9
$FILLMODE
 70
     1
  9
$QTEXTMODE
 70
     0
  9
$MIRRTEXT
 70
     1
  9
$LTSCALE
 40
50.0
  9
$ATTMODE
 70
     1
  9
$TEXTSIZE
 40
2.5
  9
$TRACEWID
 40
1.0
  9
$TEXTSTYLE
  7
Standard
  9
$CLAYER
  8
D-STR-DIM
  9
$CELTYPE
  6
ByLayer
  9
$CECOLOR
 62
   256
  9
$CELTSCALE
 40
1.0
  9
$DISPSILH
 70
     0
  9
$DIMSCALE
 40
10.0
  9
$DIMASZ
 40
2.0
  9
$DIMEXO
 40
1.0
  9
$DIMDLI
 40
10.0
  9
$DIMRND
 40
0.0
  9
$DIMDLE
 40
0.0
  9
$DIMEXE
 40
2.0
  9
$DIMTP
 40
0.0
  9
$DIMTM
 40
0.0
  9
$DIMTXT
 40
3.0
  9
$DIMCEN
 40
0.09
  9
$DIMTSZ
 40
0.0
  9
$DIMTOL
 70
     0
  9
$DIMLIM
 70
     0
  9
$DIMTIH
 70
     0
  9
$DIMTOH
 70
     0
  9
$DIMSE1
 70
     0
  9
$DIMSE2
 70
     0
  9
$DIMTAD
 70
     1
  9
$DIMZIN
 70
     0
  9
$DIMBLK
  1

  9
$DIMASO
 70
     1
  9
$DIMSHO
 70
     1
  9
$DIMPOST
  1

  9
$DIMAPOST
  1

  9
$DIMALT
 70
     0
  9
$DIMALTD
 70
     2
  9
$DIMALTF
 40
25.4
  9
$DIMLFAC
 40
1.0
  9
$DIMTOFL
 70
     1
  9
$DIMTVP
 40
0.0
  9
$DIMTIX
 70
     0
  9
$DIMSOXD
 70
     0
  9
$DIMSAH
 70
     1
  9
$DIMBLK1
  1
OPEN30
  9
$DIMBLK2
  1
OPEN30
  9
$DIMSTYLE
  2
STANDARD
  9
$DIMCLRD
 70
   256
  9
$DIMCLRE
 70
   256
  9
$DIMCLRT
 70
   256
  9
$DIMTFAC
 40
1.0
  9
$DIMGAP
 40
1.0
  9
$DIMJUST
 70
     0
  9
$DIMSD1
 70
     0
  9
$DIMSD2
 70
     0
  9
$DIMTOLJ
 70
     1
  9
$DIMTZIN
 70
     0
  9
$DIMALTZ
 70
     0
  9
$DIMALTTZ
 70
     0
  9
$DIMUPT
 70
     0
  9
$DIMDEC
 70
     0
  9
$DIMTDEC
 70
     0
  9
$DIMALTU
 70
     2
  9
$DIMALTTD
 70
     2
  9
$DIMTXSTY
  7
Standard
  9
$DIMAUNIT
 70
     0
  9
$DIMADEC
 70
     0
  9
$DIMALTRND
 40
0.0
  9
$DIMAZIN
 70
     0
  9
$DIMDSEP
 70
    46
  9
$DIMATFIT
 70
     3
  9
$DIMFRAC
 70
     0
  9
$DIMLDRBLK
  1
OPEN30
  9
$DIMLUNIT
 70
     2
  9
$DIMLWD
 70
    -2
  9
$DIMLWE
 70
    -2
  9
$DIMTMOVE
 70
     2
  9
$LUNITS
 70
     2
  9
$LUPREC
 70
     4
  9
$SKETCHINC
 40
1.0
  9
$FILLETRAD
 40
10.0
  9
$AUNITS
 70
     0
  9
$AUPREC
 70
     0
  9
$MENU
  1
.
  9
$ELEVATION
 40
0.0
  9
$PELEVATION
 40
0.0
  9
$THICKNESS
 40
0.0
  9
$LIMCHECK
 70
     0
  9
$CHAMFERA
 40
0.0
  9
$CHAMFERB
 40
0.0
  9
$CHAMFERC
 40
20.0
  9
$CHAMFERD
 40
0.0
  9
$SKPOLY
 70
     0
  9
$TDCREATE
 40
2454258.400533981
  9
$TDUCREATE
 40
2454258.025533981
  9
$TDUPDATE
 40
2454642.399152719
  9
$TDUUPDATE
 40
2454642.024152720
  9
$TDINDWG
 40
0.0415691667
  9
$TDUSRTIMER
 40
0.0415689815
  9
$USRTIMER
 70
     1
  9
$ANGBASE
 50
0.0
  9
$ANGDIR
 70
     0
  9
$PDMODE
 70
     0
  9
$PDSIZE
 40
0.0
  9
$PLINEWID
 40
0.0
  9
$SPLFRAME
 70
     0
  9
$SPLINETYPE
 70
     6
  9
$SPLINESEGS
 70
     8
  9
$HANDSEED
  5
198F
  9
$SURFTAB1
 70
     6
  9
$SURFTAB2
 70
     6
  9
$SURFTYPE
 70
     6
  9
$SURFU
 70
     6
  9
$SURFV
 70
     6
  9
$UCSBASE
  2

  9
$UCSNAME
  2

  9
$UCSORG
 10
0.0
 20
0.0
 30
0.0
  9
$UCSXDIR
 10
1.0
 20
0.0
 30
0.0
  9
$UCSYDIR
 10
0.0
 20
1.0
 30
0.0
  9
$UCSORTHOREF
  2

  9
$UCSORTHOVIEW
 70
     0
  9
$UCSORGTOP
 10
0.0
 20
0.0
 30
0.0
  9
$UCSORGBOTTOM
 10
0.0
 20
0.0
 30
0.0
  9
$UCSORGLEFT
 10
0.0
 20
0.0
 30
0.0
  9
$UCSORGRIGHT
 10
0.0
 20
0.0
 30
0.0
  9
$UCSORGFRONT
 10
0.0
 20
0.0
 30
0.0
  9
$UCSORGBACK
 10
0.0
 20
0.0
 30
0.0
  9
$PUCSBASE
  2

  9
$PUCSNAME
  2

  9
$PUCSORG
 10
0.0
 20
0.0
 30
0.0
  9
$PUCSXDIR
 10
1.0
 20
0.0
 30
0.0
  9
$PUCSYDIR
 10
0.0
 20
1.0
 30
0.0
  9
$PUCSORTHOREF
  2

  9
$PUCSORTHOVIEW
 70
     0
  9
$PUCSORGTOP
 10
0.0
 20
0.0
 30
0.0
  9
$PUCSORGBOTTOM
 10
0.0
 20
0.0
 30
0.0
  9
$PUCSORGLEFT
 10
0.0
 20
0.0
 30
0.0
  9
$PUCSORGRIGHT
 10
0.0
 20
0.0
 30
0.0
  9
$PUCSORGFRONT
 10
0.0
 20
0.0
 30
0.0
  9
$PUCSORGBACK
 10
0.0
 20
0.0
 30
0.0
  9
$USERI1
 70
     0
  9
$USERI2
 70
     0
  9
$USERI3
 70
     0
  9
$USERI4
 70
     0
  9
$USERI5
 70
     0
  9
$USERR1
 40
0.0
  9
$USERR2
 40
0.0
  9
$USERR3
 40
0.0
  9
$USERR4
 40
0.0
  9
$USERR5
 40
0.0
  9
$WORLDVIEW
 70
     1
  9
$SHADEDGE
 70
     3
  9
$SHADEDIF
 70
    70
  9
$TILEMODE
 70
     1
  9
$MAXACTVP
 70
    64
  9
$PINSBASE
 10
0.0
 20
0.0
 30
0.0
  9
$PLIMCHECK
 70
     0
  9
$PEXTMIN
 10
1.000000000000000E+20
 20
1.000000000000000E+20
 30
1.000000000000000E+20
  9
$PEXTMAX
 10
-1.000000000000000E+20
 20
-1.000000000000000E+20
 30
-1.000000000000000E+20
  9
$PLIMMIN
 10
0.0
 20
0.0
  9
$PLIMMAX
 10
420.0
 20
297.0
  9
$UNITMODE
 70
     0
  9
$VISRETAIN
 70
     1
  9
$PLINEGEN
 70
     0
  9
$PSLTSCALE
 70
     1
  9
$TREEDEPTH
 70
  3020
  9
$CMLSTYLE
  2
Standard
  9
$CMLJUST
 70
     0
  9
$CMLSCALE
 40
20.0
  9
$PROXYGRAPHICS
 70
     1
  9
$MEASUREMENT
 70
     1
  9
$CELWEIGHT
370
    -1
  9
$ENDCAPS
280
     0
  9
$JOINSTYLE
280
     0
  9
$LWDISPLAY
290
     0
  9
$INSUNITS
 70
     4
  9
$HYPERLINKBASE
  1

  9
$STYLESHEET
  1

  9
$XEDIT
290
     1
  9
$CEPSNTYPE
380
     0
  9
$PSTYLEMODE
290
     1
  9
$FINGERPRINTGUID
  2
{9EDA6CA7-8DF4-4B69-8CFA-3B8E3FCA5820}
  9
$VERSIONGUID
  2
{9DC69776-C474-4891-B0C9-20EC25FE1452}
  9
$EXTNAMES
290
     1
  9
$PSVPSCALE
 40
0.0
  9
$OLESTARTUP
290
     0
  0
ENDSEC
  0
SECTION
  2
CLASSES
  0
CLASS
  1
ACDBDICTIONARYWDFLT
  2
AcDbDictionaryWithDefault
  3
AutoCAD 2000
 90
        0
280
     0
281
     0
  0
CLASS
  1
ACDBPLACEHOLDER
  2
AcDbPlaceHolder
  3
AutoCAD 2000
 90
        0
280
     0
281
     0
  0
CLASS
  1
LAYOUT
  2
AcDbLayout
  3
AutoCAD 2000
 90
        0
280
     0
281
     0
  0
CLASS
  1
DICTIONARYVAR
  2
AcDbDictionaryVar
  3
AutoCAD 2000
 90
        0
280
     0
281
     0
  0
CLASS
  1
DIMASSOC
  2
AcDbDimAssoc
  3
"AcDbDimAssoc|Product Desc:     AcDim ARX App For Dimension|Company:          Autodesk, Inc.|WEB Address:      www.autodesk.com"
 90
        0
280
     0
281
     0
  0
ENDSEC
  0
SECTION
  2
TABLES
  0
TABLE
  2
VPORT
  5
8
330
0
100
AcDbSymbolTable
 70
     2
  0
VPORT
  5
198E
330
8
100
AcDbSymbolTableRecord
100
AcDbViewportTableRecord
  2
*Active
 70
     0
 10
0.0
 20
0.0
 11
1.0
 21
1.0
 12
5450.618482386108
 22
3038.857788992694
 13
0.0
 23
0.0
 14
10.0
 24
10.0
 15
10.0
 25
10.0
 16
0.0
 26
0.0
 36
1.0
 17
0.0
 27
0.0
 37
0.0
 40
6642.402965014063
 41
1.64931506849315
 42
50.0
 43
0.0
 44
0.0
 50
0.0
 51
0.0
 71
     0
 72
   100
 73
     1
 74
     3
 75
     0
 76
     0
 77
     0
 78
     0
281
     0
 65
     1
110
0.0
120
0.0
130
0.0
111
1.0
121
0.0
131
0.0
112
0.0
122
1.0
132
0.0
 79
     0
146
0.0
  0
ENDTAB
  0
TABLE
  2
LTYPE
  5
5
330
0
100
AcDbSymbolTable
 70
     2
  0
LTYPE
  5
14
330
5
100
AcDbSymbolTableRecord
100
AcDbLinetypeTableRecord
  2
ByBlock
 70
     0
  3

 72
    65
 73
     0
 40
0.0
  0
LTYPE
  5
15
330
5
100
AcDbSymbolTableRecord
100
AcDbLinetypeTableRecord
  2
ByLayer
 70
     0
  3

 72
    65
 73
     0
 40
0.0
  0
LTYPE
  5
16
330
5
100
AcDbSymbolTableRecord
100
AcDbLinetypeTableRecord
  2
Continuous
 70
     0
  3
Solid line
 72
    65
 73
     0
 40
0.0
  0
LTYPE
  5
FC0
330
5
100
AcDbSymbolTableRecord
100
AcDbLinetypeTableRecord
  2
HIDDEN
 70
     0
  3
_ _ _ _ _ _ _ _ _ _ _ _ _ _ _ _ _ _ _ _ _ _ _
 72
    65
 73
     2
 40
0.375
 49
0.25
 74
     0
 49
-0.125
 74
     0
  0
ENDTAB
  0
TABLE
  2
LAYER
  5
2
330
0
100
AcDbSymbolTable
 70
     6
  0
LAYER
  5
10
330
2
100
AcDbSymbolTableRecord
100
AcDbLayerTableRecord
  2
0
 70
     0
 62
     7
  6
Continuous
370
    -3
390
F
  0
LAYER
  5
3ED
330
2
100
AcDbSymbolTableRecord
100
AcDbLayerTableRecord
  2
DEFPOINTS
 70
     0
 62
     7
  6
Continuous
290
     0
370
    -3
390
F
  0
LAYER
  5
3EE
330
2
100
AcDbSymbolTableRecord
100
AcDbLayerTableRecord
  2
D-STR
 70
     0
 62
     1
  6
Continuous
370
    -3
390
F
  0
LAYER
  5
3EF
330
2
100
AcDbSymbolTableRecord
100
AcDbLayerTableRecord
  2
D-STR-TXT
 70
     0
 62
     7
  6
Continuous
370
    15
390
F
  0
LAYER
  5
3F0
330
2
100
AcDbSymbolTableRecord
100
AcDbLayerTableRecord
  2
D-STR-DIM
 70
     0
 62
     7
  6
Continuous
370
    15
390
F
  0
LAYER
  5
3F1
330
2
100
AcDbSymbolTableRecord
100
AcDbLayerTableRecord
  2
D-TTL
 70
     0
 62
     2
  6
Continuous
370
    -3
390
F
  0
ENDTAB
  0
TABLE
  2
STYLE
  5
3
330
0
100
AcDbSymbolTable
 70
     2
  0
STYLE
  5
11
330
3
100
AcDbSymbolTableRecord
100
AcDbTextStyleTableRecord
  2
Standard
 70
     0
 40
0.0
 41
0.8
 50
0.0
 71
     0
 42
2.5
  3
MS Gothic.ttf
  4

1001
ACAD
1000
MS Gothic
1071
    32817
  0
STYLE
  5
3F2
330
3
100
AcDbSymbolTableRecord
100
AcDbTextStyleTableRecord
  2
ｽﾀｲﾙ1
 70
     0
 40
30.0
 41
0.6
 50
0.0
 71
     0
 42
0.2
  3
MS Gothic.ttf
  4

1001
ACAD
1000
MS Gothic
1071
    32817
  0
ENDTAB
  0
TABLE
  2
VIEW
  5
6
330
0
100
AcDbSymbolTable
 70
     0
  0
ENDTAB
  0
TABLE
  2
UCS
  5
7
330
0
100
AcDbSymbolTable
 70
     0
  0
ENDTAB
  0
TABLE
  2
APPID
  5
9
330
0
100
AcDbSymbolTable
 70
     2
  0
APPID
  5
12
330
9
100
AcDbSymbolTableRecord
100
AcDbRegAppTableRecord
  2
ACAD
 70
     0
  0
APPID
  5
FB5
330
9
100
AcDbSymbolTableRecord
100
AcDbRegAppTableRecord
  2
DCO15
 70
     0
  0
ENDTAB
  0
TABLE
  2
DIMSTYLE
  5
A
330
0
100
AcDbSymbolTable
 70
     2
100
AcDbDimStyleTable
 71
     1
340
3F3
  0
DIMSTYLE
105
3F3
102
{ACAD_REACTORS
330
856
330
857
330
858
330
860
330
861
330
863
330
884
330
894
330
895
330
8A8
330
8DD
330
8DE
330
914
330
12BF
330
12BC
330
12C0
330
12C2
330
12C1
330
12BD
330
12C3
330
12BB
330
12BE
330
12BA
330
144D
330
1469
330
14A8
330
14C4
330
14AC
330
14B7
330
14C3
330
14C2
330
14D0
330
14B8
330
14B9
330
14BA
330
14AD
102
}
330
A
100
AcDbSymbolTableRecord
100
AcDbDimStyleTableRecord
  2
STANDARD
 70
     0
 40
10.0
 41
2.0
 42
1.0
 43
10.0
 44
2.0
 73
     0
 74
     0
 77
     1
140
3.0
147
1.0
172
     1
173
     1
176
   256
177
   256
178
   256
271
     0
272
     0
279
     2
340
11
341
2B
343
2B
344
2B
  0
DIMSTYLE
105
3F4
102
{ACAD_REACTORS
330
85F
330
896
330
8A5
102
}
330
A
100
AcDbSymbolTableRecord
100
AcDbDimStyleTableRecord
  2
S10
 70
     0
 40
10.0
 41
2.5
 42
1.0
 43
10.0
 44
2.0
 73
     0
 74
     0
 77
     1
 78
     8
140
3.0
141
2.5
143
0.03937007874016
147
1.0
171
     3
172
     1
176
   256
177
   256
178
   256
271
     0
272
     0
274
     3
283
     0
284
     8
340
11
341
2B
342
2B
  0
ENDTAB
  0
TABLE
  2
BLOCK_RECORD
  5
1
330
0
100
AcDbSymbolTable
 70
    41
  0
BLOCK_RECORD
  5
1F
330
1
100
AcDbSymbolTableRecord
100
AcDbBlockTableRecord
  2
*Model_Space
340
22
  0
BLOCK_RECORD
  5
1B
330
1
100
AcDbSymbolTableRecord
100
AcDbBlockTableRecord
  2
*Paper_Space
340
1E
  0
BLOCK_RECORD
  5
23
330
1
100
AcDbSymbolTableRecord
100
AcDbBlockTableRecord
  2
*Paper_Space0
340
26
  0
BLOCK_RECORD
  5
2B
330
1
100
AcDbSymbolTableRecord
100
AcDbBlockTableRecord
  2
_OPEN30
340
0
102
{BLKREFS
331
17E4
331
17E5
331
17ED
331
17EE
331
17F6
331
17F7
331
17FF
331
1800
331
180B
331
180C
331
1813
331
1814
331
181C
331
181D
331
1825
331
1826
331
182E
331
182F
331
1837
331
1838
331
1878
331
1879
331
1881
331
1882
331
188A
331
188B
331
1893
331
1894
331
189C
331
189D
331
18A8
331
18A9
331
18B3
331
18B4
331
18BB
331
18BC
331
18C4
331
18C5
331
18CF
331
18D0
331
18D8
331
18D9
331
18E4
331
18E5
331
18EC
331
18ED
331
18F8
331
18F9
331
1900
331
1901
331
1909
331
190A
331
1912
331
1913
331
191B
331
191C
331
1927
331
1928
331
192F
331
1930
331
193B
331
193C
331
1943
331
1944
331
194C
331
194D
331
1955
331
1956
331
195E
331
195F
331
196A
331
196B
331
1973
331
1974
331
197B
331
197C
331
1984
331
1985
102
}
  0
BLOCK_RECORD
  5
B0A
330
1
100
AcDbSymbolTableRecord
100
AcDbBlockTableRecord
  2
*D2
340
0
  0
BLOCK_RECORD
  5
B18
330
1
100
AcDbSymbolTableRecord
100
AcDbBlockTableRecord
  2
*D3
340
0
  0
BLOCK_RECORD
  5
B24
330
1
100
AcDbSymbolTableRecord
100
AcDbBlockTableRecord
  2
*D4
340
0
  0
BLOCK_RECORD
  5
B30
330
1
100
AcDbSymbolTableRecord
100
AcDbBlockTableRecord
  2
*D5
340
0
  0
BLOCK_RECORD
  5
B3C
330
1
100
AcDbSymbolTableRecord
100
AcDbBlockTableRecord
  2
*D6
340
0
  0
BLOCK_RECORD
  5
B48
330
1
100
AcDbSymbolTableRecord
100
AcDbBlockTableRecord
  2
*D7
340
0
  0
BLOCK_RECORD
  5
B60
330
1
100
AcDbSymbolTableRecord
100
AcDbBlockTableRecord
  2
*D8
340
0
  0
BLOCK_RECORD
  5
B6C
330
1
100
AcDbSymbolTableRecord
100
AcDbBlockTableRecord
  2
*D9
340
0
  0
BLOCK_RECORD
  5
B78
330
1
100
AcDbSymbolTableRecord
100
AcDbBlockTableRecord
  2
*D10
340
0
  0
BLOCK_RECORD
  5
B84
330
1
100
AcDbSymbolTableRecord
100
AcDbBlockTableRecord
  2
*D11
340
0
  0
BLOCK_RECORD
  5
B90
330
1
100
AcDbSymbolTableRecord
100
AcDbBlockTableRecord
  2
*D12
340
0
  0
BLOCK_RECORD
  5
BA8
330
1
100
AcDbSymbolTableRecord
100
AcDbBlockTableRecord
  2
*D13
340
0
  0
BLOCK_RECORD
  5
BC2
330
1
100
AcDbSymbolTableRecord
100
AcDbBlockTableRecord
  2
*D14
340
0
  0
BLOCK_RECORD
  5
CAC
330
1
100
AcDbSymbolTableRecord
100
AcDbBlockTableRecord
  2
*D15
340
0
  0
BLOCK_RECORD
  5
CB8
330
1
100
AcDbSymbolTableRecord
100
AcDbBlockTableRecord
  2
*D16
340
0
  0
BLOCK_RECORD
  5
CD2
330
1
100
AcDbSymbolTableRecord
100
AcDbBlockTableRecord
  2
*D17
340
0
  0
BLOCK_RECORD
  5
12C4
330
1
100
AcDbSymbolTableRecord
100
AcDbBlockTableRecord
  2
*D18
340
0
  0
BLOCK_RECORD
  5
12D2
330
1
100
AcDbSymbolTableRecord
100
AcDbBlockTableRecord
  2
*D19
340
0
  0
BLOCK_RECORD
  5
12DE
330
1
100
AcDbSymbolTableRecord
100
AcDbBlockTableRecord
  2
*D20
340
0
  0
BLOCK_RECORD
  5
12EA
330
1
100
AcDbSymbolTableRecord
100
AcDbBlockTableRecord
  2
*D21
340
0
  0
BLOCK_RECORD
  5
12F6
330
1
100
AcDbSymbolTableRecord
100
AcDbBlockTableRecord
  2
*D22
340
0
  0
BLOCK_RECORD
  5
1302
330
1
100
AcDbSymbolTableRecord
100
AcDbBlockTableRecord
  2
*D23
340
0
  0
BLOCK_RECORD
  5
130E
330
1
100
AcDbSymbolTableRecord
100
AcDbBlockTableRecord
  2
*D24
340
0
  0
BLOCK_RECORD
  5
131A
330
1
100
AcDbSymbolTableRecord
100
AcDbBlockTableRecord
  2
*D25
340
0
  0
BLOCK_RECORD
  5
1326
330
1
100
AcDbSymbolTableRecord
100
AcDbBlockTableRecord
  2
*D26
340
0
  0
BLOCK_RECORD
  5
1334
330
1
100
AcDbSymbolTableRecord
100
AcDbBlockTableRecord
  2
*D27
340
0
  0
BLOCK_RECORD
  5
144E
330
1
100
AcDbSymbolTableRecord
100
AcDbBlockTableRecord
  2
*D28
340
0
  0
BLOCK_RECORD
  5
146A
330
1
100
AcDbSymbolTableRecord
100
AcDbBlockTableRecord
  2
*D29
340
0
  0
BLOCK_RECORD
  5
14F4
330
1
100
AcDbSymbolTableRecord
100
AcDbBlockTableRecord
  2
*D30
340
0
  0
BLOCK_RECORD
  5
1500
330
1
100
AcDbSymbolTableRecord
100
AcDbBlockTableRecord
  2
*D31
340
0
  0
BLOCK_RECORD
  5
150C
330
1
100
AcDbSymbolTableRecord
100
AcDbBlockTableRecord
  2
*D32
340
0
  0
BLOCK_RECORD
  5
1518
330
1
100
AcDbSymbolTableRecord
100
AcDbBlockTableRecord
  2
*D33
340
0
  0
BLOCK_RECORD
  5
1524
330
1
100
AcDbSymbolTableRecord
100
AcDbBlockTableRecord
  2
*D34
340
0
  0
BLOCK_RECORD
  5
1532
330
1
100
AcDbSymbolTableRecord
100
AcDbBlockTableRecord
  2
*D35
340
0
  0
BLOCK_RECORD
  5
1540
330
1
100
AcDbSymbolTableRecord
100
AcDbBlockTableRecord
  2
*D36
340
0
  0
BLOCK_RECORD
  5
154C
330
1
100
AcDbSymbolTableRecord
100
AcDbBlockTableRecord
  2
*D37
340
0
  0
BLOCK_RECORD
  5
1558
330
1
100
AcDbSymbolTableRecord
100
AcDbBlockTableRecord
  2
*D38
340
0
  0
BLOCK_RECORD
  5
1564
330
1
100
AcDbSymbolTableRecord
100
AcDbBlockTableRecord
  2
*D39
340
0
  0
BLOCK_RECORD
  5
15CE
330
1
100
AcDbSymbolTableRecord
100
AcDbBlockTableRecord
  2
*D40
340
0
  0
ENDTAB
  0
ENDSEC
  0
SECTION
  2
BLOCKS
  0
BLOCK
  5
20
330
1F
100
AcDbEntity
  8
0
100
AcDbBlockBegin
  2
*Model_Space
 70
     0
 10
0.0
 20
0.0
 30
0.0
  3
*Model_Space
  1

  0
ENDBLK
  5
21
330
1F
100
AcDbEntity
  8
0
100
AcDbBlockEnd
  0
BLOCK
  5
1C
330
1B
100
AcDbEntity
 67
     1
  8
0
100
AcDbBlockBegin
  2
*Paper_Space
 70
     0
 10
0.0
 20
0.0
 30
0.0
  3
*Paper_Space
  1

  0
ENDBLK
  5
1D
330
1B
100
AcDbEntity
 67
     1
  8
0
100
AcDbBlockEnd
  0
BLOCK
  5
24
330
23
100
AcDbEntity
  8
0
100
AcDbBlockBegin
  2
*Paper_Space0
 70
     0
 10
0.0
 20
0.0
 30
0.0
  3
*Paper_Space0
  1

  0
ENDBLK
  5
25
330
23
100
AcDbEntity
  8
0
100
AcDbBlockEnd
  0
BLOCK
  5
2F
330
2B
100
AcDbEntity
  8
0
100
AcDbBlockBegin
  2
_OPEN30
 70
     0
 10
0.0
 20
0.0
 30
0.0
  3
_OPEN30
  1

  0
LINE
  5
2C
330
2B
100
AcDbEntity
  8
0
  6
ByBlock
 62
     0
100
AcDbLine
 10
-1.0
 20
0.26794919
 30
0.0
 11
0.0
 21
0.0
 31
0.0
  0
LINE
  5
2D
330
2B
100
AcDbEntity
  8
0
  6
ByBlock
 62
     0
100
AcDbLine
 10
0.0
 20
0.0
 30
0.0
 11
-1.0
 21
-0.26794919
 31
0.0
  0
LINE
  5
2E
330
2B
100
AcDbEntity
  8
0
  6
ByBlock
 62
     0
100
AcDbLine
 10
0.0
 20
0.0
 30
0.0
 11
-1.0
 21
0.0
 31
0.0
  0
ENDBLK
  5
30
330
2B
100
AcDbEntity
  8
0
100
AcDbBlockEnd
  0
BLOCK
  5
B16
330
B0A
100
AcDbEntity
  8
0
100
AcDbBlockBegin
  2
*D2
 70
     1
 10
0.0
 20
0.0
 30
0.0
  3
*D2
  1

  0
LINE
  5
1935
330
B0A
100
AcDbEntity
  8
D-STR-DIM
370
    -2
100
AcDbLine
 10
4503.128017472609
 20
4144.081924507516
 30
0.0
 11
4503.128017472609
 21
4484.259863048413
 31
0.0
  0
LINE
  5
1936
330
B0A
100
AcDbEntity
  8
D-STR-DIM
370
    -2
100
AcDbLine
 10
4523.1282251674
 20
4344.081924487515
 30
0.0
 11
4523.1282251674
 21
4484.259863048413
 31
0.0
  0
LINE
  5
1937
330
B0A
100
AcDbEntity
  8
D-STR-DIM
370
    -2
100
AcDbLine
 10
4483.128017472608
 20
4464.259863048414
 30
0.0
 11
4463.128017472609
 21
4464.259863048414
 31
0.0
  0
LINE
  5
1938
330
B0A
100
AcDbEntity
  8
D-STR-DIM
370
    -2
100
AcDbLine
 10
4543.128225167399
 20
4464.259863048414
 30
0.0
 11
4563.128225167399
 21
4464.259863048414
 31
0.0
  0
MTEXT
  5
1939
330
B0A
100
AcDbEntity
  8
D-STR-DIM
100
AcDbMText
 10
4513.128121320003
 20
4514.259863048414
 30
0.0
 40
30.0
 41
0.0
 71
     5
 72
     1
  1
\A1;20
 73
     1
 44
1.0
  0
LINE
  5
193A
330
B0A
100
AcDbEntity
  8
D-STR-DIM
370
    -2
100
AcDbLine
 10
4503.128017472609
 20
4464.259863048414
 30
0.0
 11
4523.1282251674
 21
4464.259863048414
 31
0.0
  0
INSERT
  5
193B
330
B0A
100
AcDbEntity
  8
D-STR-DIM
370
    -2
100
AcDbBlockReference
  2
_OPEN30
 10
4503.128017472609
 20
4464.259863048414
 30
0.0
 41
20.0
 42
20.0
 43
20.0
  0
INSERT
  5
193C
330
B0A
100
AcDbEntity
  8
D-STR-DIM
370
    -2
100
AcDbBlockReference
  2
_OPEN30
 10
4523.1282251674
 20
4464.259863048414
 30
0.0
 41
20.0
 42
20.0
 43
20.0
 50
180.0
  0
POINT
  5
193D
330
B0A
100
AcDbEntity
  8
DEFPOINTS
 62
     0
100
AcDbPoint
 10
4503.128017472609
 20
4134.081924507516
 30
0.0
  0
POINT
  5
193E
330
B0A
100
AcDbEntity
  8
DEFPOINTS
 62
     0
100
AcDbPoint
 10
4523.1282251674
 20
4334.081924487516
 30
0.0
  0
POINT
  5
193F
330
B0A
100
AcDbEntity
  8
DEFPOINTS
 62
     0
100
AcDbPoint
 10
4523.1282251674
 20
4464.259863048414
 30
0.0
  0
ENDBLK
  5
B17
330
B0A
100
AcDbEntity
  8
0
100
AcDbBlockEnd
  0
BLOCK
  5
B22
330
B18
100
AcDbEntity
  8
0
100
AcDbBlockBegin
  2
*D3
 70
     1
 10
0.0
 20
0.0
 30
0.0
  3
*D3
  1

  0
LINE
  5
1918
330
B18
100
AcDbEntity
  8
D-STR-DIM
370
    -2
100
AcDbLine
 10
4413.128017481608
 20
4144.081924507516
 30
0.0
 11
4413.128017481608
 21
4614.437901609313
 31
0.0
  0
LINE
  5
1919
330
B18
100
AcDbEntity
  8
D-STR-DIM
370
    -2
100
AcDbLine
 10
4813.128017441609
 20
4144.081924507516
 30
0.0
 11
4813.128017441609
 21
4614.437901609313
 31
0.0
  0
LINE
  5
191A
330
B18
100
AcDbEntity
  8
D-STR-DIM
370
    -2
100
AcDbLine
 10
4433.128017481609
 20
4594.437901609313
 30
0.0
 11
4793.128017441609
 21
4594.437901609313
 31
0.0
  0
INSERT
  5
191B
330
B18
100
AcDbEntity
  8
D-STR-DIM
370
    -2
100
AcDbBlockReference
  2
_OPEN30
 10
4413.128017481608
 20
4594.437901609313
 30
0.0
 41
20.0
 42
20.0
 43
20.0
 50
180.0
  0
INSERT
  5
191C
330
B18
100
AcDbEntity
  8
D-STR-DIM
370
    -2
100
AcDbBlockReference
  2
_OPEN30
 10
4813.128017441609
 20
4594.437901609313
 30
0.0
 41
20.0
 42
20.0
 43
20.0
  0
MTEXT
  5
191D
330
B18
100
AcDbEntity
  8
D-STR-DIM
100
AcDbMText
 10
4613.128017461608
 20
4619.437901609313
 30
0.0
 40
30.0
 41
0.0
 71
     5
 72
     1
  1
\A1;400
 73
     1
 44
1.0
  0
POINT
  5
191E
330
B18
100
AcDbEntity
  8
DEFPOINTS
 62
     0
100
AcDbPoint
 10
4413.128017481608
 20
4134.081924507516
 30
0.0
  0
POINT
  5
191F
330
B18
100
AcDbEntity
  8
DEFPOINTS
 62
     0
100
AcDbPoint
 10
4813.128017441609
 20
4134.081924507516
 30
0.0
  0
POINT
  5
1920
330
B18
100
AcDbEntity
  8
DEFPOINTS
 62
     0
100
AcDbPoint
 10
4813.128017441609
 20
4594.437901609313
 30
0.0
  0
ENDBLK
  5
B23
330
B18
100
AcDbEntity
  8
0
100
AcDbBlockEnd
  0
BLOCK
  5
B2E
330
B24
100
AcDbEntity
  8
0
100
AcDbBlockBegin
  2
*D4
 70
     1
 10
0.0
 20
0.0
 30
0.0
  3
*D4
  1

  0
LINE
  5
1949
330
B24
100
AcDbEntity
  8
D-STR-DIM
370
    -2
100
AcDbLine
 10
4523.1282251674
 20
4344.081924487515
 30
0.0
 11
4523.1282251674
 21
4484.259863048413
 31
0.0
  0
LINE
  5
194A
330
B24
100
AcDbEntity
  8
D-STR-DIM
370
    -2
100
AcDbLine
 10
4703.127891061763
 20
4344.081924487515
 30
0.0
 11
4703.127891061763
 21
4484.259863048413
 31
0.0
  0
LINE
  5
194B
330
B24
100
AcDbEntity
  8
D-STR-DIM
370
    -2
100
AcDbLine
 10
4543.128225167399
 20
4464.259863048414
 30
0.0
 11
4683.127891061763
 21
4464.259863048414
 31
0.0
  0
INSERT
  5
194C
330
B24
100
AcDbEntity
  8
D-STR-DIM
370
    -2
100
AcDbBlockReference
  2
_OPEN30
 10
4523.1282251674
 20
4464.259863048414
 30
0.0
 41
20.0
 42
20.0
 43
20.0
 50
180.0
  0
INSERT
  5
194D
330
B24
100
AcDbEntity
  8
D-STR-DIM
370
    -2
100
AcDbBlockReference
  2
_OPEN30
 10
4703.127891061763
 20
4464.259863048414
 30
0.0
 41
20.0
 42
20.0
 43
20.0
  0
MTEXT
  5
194E
330
B24
100
AcDbEntity
  8
D-STR-DIM
100
AcDbMText
 10
4613.128058114581
 20
4489.259863048413
 30
0.0
 40
30.0
 41
0.0
 71
     5
 72
     1
  1
\A1;180
 73
     1
 44
1.0
  0
POINT
  5
194F
330
B24
100
AcDbEntity
  8
DEFPOINTS
 62
     0
100
AcDbPoint
 10
4523.1282251674
 20
4334.081924487516
 30
0.0
  0
POINT
  5
1950
330
B24
100
AcDbEntity
  8
DEFPOINTS
 62
     0
100
AcDbPoint
 10
4703.127891061763
 20
4334.081924487516
 30
0.0
  0
POINT
  5
1951
330
B24
100
AcDbEntity
  8
DEFPOINTS
 62
     0
100
AcDbPoint
 10
4703.127891061763
 20
4464.259863048414
 30
0.0
  0
ENDBLK
  5
B2F
330
B24
100
AcDbEntity
  8
0
100
AcDbBlockEnd
  0
BLOCK
  5
B3A
330
B30
100
AcDbEntity
  8
0
100
AcDbBlockBegin
  2
*D5
 70
     1
 10
0.0
 20
0.0
 30
0.0
  3
*D5
  1

  0
LINE
  5
1978
330
B30
100
AcDbEntity
  8
D-STR-DIM
370
    -2
100
AcDbLine
 10
2020.543615938771
 20
3791.881302319519
 30
0.0
 11
2020.543615938771
 21
3631.881302319519
 31
0.0
  0
LINE
  5
1979
330
B30
100
AcDbEntity
  8
D-STR-DIM
370
    -2
100
AcDbLine
 10
2430.543615897772
 20
3791.881302319519
 30
0.0
 11
2430.543615897772
 21
3631.881302319519
 31
0.0
  0
LINE
  5
197A
330
B30
100
AcDbEntity
  8
D-STR-DIM
370
    -2
100
AcDbLine
 10
2045.543615938771
 20
3651.881302319519
 30
0.0
 11
2405.543615897772
 21
3651.881302319519
 31
0.0
  0
INSERT
  5
197B
330
B30
100
AcDbEntity
  8
D-STR-DIM
370
    -2
100
AcDbBlockReference
  2
_OPEN30
 10
2020.543615938771
 20
3651.881302319519
 30
0.0
 41
25.0
 42
25.0
 43
25.0
 50
180.0
  0
INSERT
  5
197C
330
B30
100
AcDbEntity
  8
D-STR-DIM
370
    -2
100
AcDbBlockReference
  2
_OPEN30
 10
2430.543615897772
 20
3651.881302319519
 30
0.0
 41
25.0
 42
25.0
 43
25.0
  0
MTEXT
  5
197D
330
B30
100
AcDbEntity
  8
D-STR-DIM
100
AcDbMText
 10
2225.543615918271
 20
3676.881302319519
 30
0.0
 40
30.0
 41
0.0
 71
     5
 72
     1
  1
410
 73
     1
 44
1.0
  0
POINT
  5
197E
330
B30
100
AcDbEntity
  8
DEFPOINTS
 62
     0
100
AcDbPoint
 10
2020.543615938771
 20
3801.881302319519
 30
0.0
  0
POINT
  5
197F
330
B30
100
AcDbEntity
  8
DEFPOINTS
 62
     0
100
AcDbPoint
 10
2430.543615897772
 20
3801.881302319519
 30
0.0
  0
POINT
  5
1980
330
B30
100
AcDbEntity
  8
DEFPOINTS
 62
     0
100
AcDbPoint
 10
2430.543615897772
 20
3651.881302319519
 30
0.0
  0
ENDBLK
  5
B3B
330
B30
100
AcDbEntity
  8
0
100
AcDbBlockEnd
  0
BLOCK
  5
B46
330
B3C
100
AcDbEntity
  8
0
100
AcDbBlockBegin
  2
*D6
 70
     1
 10
0.0
 20
0.0
 30
0.0
  3
*D6
  1

  0
LINE
  5
17EA
330
B3C
100
AcDbEntity
  8
D-STR-DIM
370
    -2
100
AcDbLine
 10
4513.128225167399
 20
4334.081924487516
 30
0.0
 11
4123.709085951785
 21
4334.081924487516
 31
0.0
  0
LINE
  5
17EB
330
B3C
100
AcDbEntity
  8
D-STR-DIM
370
    -2
100
AcDbLine
 10
4398.128017482108
 20
3984.081924522516
 30
0.0
 11
4123.709085951785
 21
3984.081924522516
 31
0.0
  0
LINE
  5
17EC
330
B3C
100
AcDbEntity
  8
D-STR-DIM
370
    -2
100
AcDbLine
 10
4143.709085951786
 20
4314.081924487515
 30
0.0
 11
4143.709085951786
 21
4004.081924522516
 31
0.0
  0
INSERT
  5
17ED
330
B3C
100
AcDbEntity
  8
D-STR-DIM
370
    -2
100
AcDbBlockReference
  2
_OPEN30
 10
4143.709085951786
 20
4334.081924487516
 30
0.0
 41
20.0
 42
20.0
 43
20.0
 50
90.0
  0
INSERT
  5
17EE
330
B3C
100
AcDbEntity
  8
D-STR-DIM
370
    -2
100
AcDbBlockReference
  2
_OPEN30
 10
4143.709085951786
 20
3984.081924522516
 30
0.0
 41
20.0
 42
20.0
 43
20.0
 50
270.0
  0
MTEXT
  5
17EF
330
B3C
100
AcDbEntity
  8
D-STR-DIM
100
AcDbMText
 10
4118.709085951785
 20
4159.081924505017
 30
0.0
 40
30.0
 41
0.0
 71
     5
 72
     1
  1
\A1;350
 11
0.0000000000000001
 21
1.0
 31
0.0
 73
     1
 44
1.0
  0
POINT
  5
17F0
330
B3C
100
AcDbEntity
  8
DEFPOINTS
 62
     0
100
AcDbPoint
 10
4523.1282251674
 20
4334.081924487516
 30
0.0
  0
POINT
  5
17F1
330
B3C
100
AcDbEntity
  8
DEFPOINTS
 62
     0
100
AcDbPoint
 10
4408.128017482108
 20
3984.081924522516
 30
0.0
  0
POINT
  5
17F2
330
B3C
100
AcDbEntity
  8
DEFPOINTS
 62
     0
100
AcDbPoint
 10
4143.709085951786
 20
3984.081924522516
 30
0.0
  0
ENDBLK
  5
B47
330
B3C
100
AcDbEntity
  8
0
100
AcDbBlockEnd
  0
BLOCK
  5
B52
330
B48
100
AcDbEntity
  8
0
100
AcDbBlockBegin
  2
*D7
 70
     1
 10
0.0
 20
0.0
 30
0.0
  3
*D7
  1

  0
LINE
  5
17F3
330
B48
100
AcDbEntity
  8
D-STR-DIM
370
    -2
100
AcDbLine
 10
4513.128225167399
 20
4334.081924487516
 30
0.0
 11
4228.128017482108
 21
4334.081924487516
 31
0.0
  0
LINE
  5
17F4
330
B48
100
AcDbEntity
  8
D-STR-DIM
370
    -2
100
AcDbLine
 10
4403.128017481608
 20
4134.081924507516
 30
0.0
 11
4228.128017482108
 21
4134.081924507516
 31
0.0
  0
LINE
  5
17F5
330
B48
100
AcDbEntity
  8
D-STR-DIM
370
    -2
100
AcDbLine
 10
4248.128017482108
 20
4314.081924487515
 30
0.0
 11
4248.128017482108
 21
4154.081924507516
 31
0.0
  0
INSERT
  5
17F6
330
B48
100
AcDbEntity
  8
D-STR-DIM
370
    -2
100
AcDbBlockReference
  2
_OPEN30
 10
4248.128017482108
 20
4334.081924487516
 30
0.0
 41
20.0
 42
20.0
 43
20.0
 50
90.0
  0
INSERT
  5
17F7
330
B48
100
AcDbEntity
  8
D-STR-DIM
370
    -2
100
AcDbBlockReference
  2
_OPEN30
 10
4248.128017482108
 20
4134.081924507516
 30
0.0
 41
20.0
 42
20.0
 43
20.0
 50
270.0
  0
MTEXT
  5
17F8
330
B48
100
AcDbEntity
  8
D-STR-DIM
100
AcDbMText
 10
4223.128017482108
 20
4234.081924497517
 30
0.0
 40
30.0
 41
0.0
 71
     5
 72
     1
  1
\A1;200
 11
0.0000000000000001
 21
1.0
 31
0.0
 73
     1
 44
1.0
  0
POINT
  5
17F9
330
B48
100
AcDbEntity
  8
DEFPOINTS
 62
     0
100
AcDbPoint
 10
4523.1282251674
 20
4334.081924487516
 30
0.0
  0
POINT
  5
17FA
330
B48
100
AcDbEntity
  8
DEFPOINTS
 62
     0
100
AcDbPoint
 10
4413.128017481608
 20
4134.081924507516
 30
0.0
  0
POINT
  5
17FB
330
B48
100
AcDbEntity
  8
DEFPOINTS
 62
     0
100
AcDbPoint
 10
4248.128017482108
 20
4134.081924507516
 30
0.0
  0
ENDBLK
  5
B53
330
B48
100
AcDbEntity
  8
0
100
AcDbBlockEnd
  0
BLOCK
  5
B6A
330
B60
100
AcDbEntity
  8
0
100
AcDbBlockBegin
  2
*D8
 70
     1
 10
0.0
 20
0.0
 30
0.0
  3
*D8
  1

  0
LINE
  5
1940
330
B60
100
AcDbEntity
  8
D-STR-DIM
370
    -2
100
AcDbLine
 10
4413.128017481608
 20
4144.081924507516
 30
0.0
 11
4413.128017481608
 21
4484.259863048413
 31
0.0
  0
LINE
  5
1941
330
B60
100
AcDbEntity
  8
D-STR-DIM
370
    -2
100
AcDbLine
 10
4503.128017472609
 20
4144.081924507516
 30
0.0
 11
4503.128017472609
 21
4484.259863048413
 31
0.0
  0
LINE
  5
1942
330
B60
100
AcDbEntity
  8
D-STR-DIM
370
    -2
100
AcDbLine
 10
4433.128017481609
 20
4464.259863048414
 30
0.0
 11
4483.128017472608
 21
4464.259863048414
 31
0.0
  0
INSERT
  5
1943
330
B60
100
AcDbEntity
  8
D-STR-DIM
370
    -2
100
AcDbBlockReference
  2
_OPEN30
 10
4413.128017481608
 20
4464.259863048414
 30
0.0
 41
20.0
 42
20.0
 43
20.0
 50
180.0
  0
INSERT
  5
1944
330
B60
100
AcDbEntity
  8
D-STR-DIM
370
    -2
100
AcDbBlockReference
  2
_OPEN30
 10
4503.128017472609
 20
4464.259863048414
 30
0.0
 41
20.0
 42
20.0
 43
20.0
  0
MTEXT
  5
1945
330
B60
100
AcDbEntity
  8
D-STR-DIM
100
AcDbMText
 10
4458.128017477109
 20
4489.259863048413
 30
0.0
 40
30.0
 41
0.0
 71
     5
 72
     1
  1
\A1;90
 73
     1
 44
1.0
  0
POINT
  5
1946
330
B60
100
AcDbEntity
  8
DEFPOINTS
 62
     0
100
AcDbPoint
 10
4413.128017481608
 20
4134.081924507516
 30
0.0
  0
POINT
  5
1947
330
B60
100
AcDbEntity
  8
DEFPOINTS
 62
     0
100
AcDbPoint
 10
4503.128017472609
 20
4134.081924507516
 30
0.0
  0
POINT
  5
1948
330
B60
100
AcDbEntity
  8
DEFPOINTS
 62
     0
100
AcDbPoint
 10
4503.128017472609
 20
4464.259863048414
 30
0.0
  0
ENDBLK
  5
B6B
330
B60
100
AcDbEntity
  8
0
100
AcDbBlockEnd
  0
BLOCK
  5
B76
330
B6C
100
AcDbEntity
  8
0
100
AcDbBlockBegin
  2
*D9
 70
     1
 10
0.0
 20
0.0
 30
0.0
  3
*D9
  1

  0
LINE
  5
17E1
330
B6C
100
AcDbEntity
  8
D-STR-DIM
370
    -2
100
AcDbLine
 10
4403.128017481608
 20
4134.081924507516
 30
0.0
 11
4228.128017482108
 21
4134.081924507516
 31
0.0
  0
LINE
  5
17E2
330
B6C
100
AcDbEntity
  8
D-STR-DIM
370
    -2
100
AcDbLine
 10
4398.128017482108
 20
3984.081924522516
 30
0.0
 11
4228.128017482108
 21
3984.081924522516
 31
0.0
  0
LINE
  5
17E3
330
B6C
100
AcDbEntity
  8
D-STR-DIM
370
    -2
100
AcDbLine
 10
4248.128017482108
 20
4114.081924507516
 30
0.0
 11
4248.128017482108
 21
4004.081924522516
 31
0.0
  0
INSERT
  5
17E4
330
B6C
100
AcDbEntity
  8
D-STR-DIM
370
    -2
100
AcDbBlockReference
  2
_OPEN30
 10
4248.128017482108
 20
4134.081924507516
 30
0.0
 41
20.0
 42
20.0
 43
20.0
 50
90.0
  0
INSERT
  5
17E5
330
B6C
100
AcDbEntity
  8
D-STR-DIM
370
    -2
100
AcDbBlockReference
  2
_OPEN30
 10
4248.128017482108
 20
3984.081924522516
 30
0.0
 41
20.0
 42
20.0
 43
20.0
 50
270.0
  0
MTEXT
  5
17E6
330
B6C
100
AcDbEntity
  8
D-STR-DIM
100
AcDbMText
 10
4223.128017482108
 20
4059.081924515017
 30
0.0
 40
30.0
 41
0.0
 71
     5
 72
     1
  1
\A1;150
 11
0.0000000000000001
 21
1.0
 31
0.0
 73
     1
 44
1.0
  0
POINT
  5
17E7
330
B6C
100
AcDbEntity
  8
DEFPOINTS
 62
     0
100
AcDbPoint
 10
4413.128017481608
 20
4134.081924507516
 30
0.0
  0
POINT
  5
17E8
330
B6C
100
AcDbEntity
  8
DEFPOINTS
 62
     0
100
AcDbPoint
 10
4408.128017482108
 20
3984.081924522516
 30
0.0
  0
POINT
  5
17E9
330
B6C
100
AcDbEntity
  8
DEFPOINTS
 62
     0
100
AcDbPoint
 10
4248.128017482108
 20
3984.081924522516
 30
0.0
  0
ENDBLK
  5
B77
330
B6C
100
AcDbEntity
  8
0
100
AcDbBlockEnd
  0
BLOCK
  5
B82
330
B78
100
AcDbEntity
  8
0
100
AcDbBlockBegin
  2
*D10
 70
     1
 10
0.0
 20
0.0
 30
0.0
  3
*D10
  1

  0
LINE
  5
1981
330
B78
100
AcDbEntity
  8
D-STR-DIM
370
    -2
100
AcDbLine
 10
2025.543615938271
 20
4081.881302304519
 30
0.0
 11
2025.543615938271
 21
4411.836856988419
 31
0.0
  0
LINE
  5
1982
330
B78
100
AcDbEntity
  8
D-STR-DIM
370
    -2
100
AcDbLine
 10
2425.543615898272
 20
4081.881302304519
 30
0.0
 11
2425.543615898272
 21
4411.836856988419
 31
0.0
  0
LINE
  5
1983
330
B78
100
AcDbEntity
  8
D-STR-DIM
370
    -2
100
AcDbLine
 10
2045.543615938271
 20
4391.836856988419
 30
0.0
 11
2405.543615898272
 21
4391.836856988419
 31
0.0
  0
INSERT
  5
1984
330
B78
100
AcDbEntity
  8
D-STR-DIM
370
    -2
100
AcDbBlockReference
  2
_OPEN30
 10
2025.543615938271
 20
4391.836856988419
 30
0.0
 41
20.0
 42
20.0
 43
20.0
 50
180.0
  0
INSERT
  5
1985
330
B78
100
AcDbEntity
  8
D-STR-DIM
370
    -2
100
AcDbBlockReference
  2
_OPEN30
 10
2425.543615898272
 20
4391.836856988419
 30
0.0
 41
20.0
 42
20.0
 43
20.0
  0
MTEXT
  5
1986
330
B78
100
AcDbEntity
  8
D-STR-DIM
100
AcDbMText
 10
2225.543615918271
 20
4416.836856988419
 30
0.0
 40
30.0
 41
0.0
 71
     5
 72
     1
  1
\A1;400
 73
     1
 44
1.0
  0
POINT
  5
1987
330
B78
100
AcDbEntity
  8
DEFPOINTS
 62
     0
100
AcDbPoint
 10
2025.543615938271
 20
4071.881302304518
 30
0.0
  0
POINT
  5
1988
330
B78
100
AcDbEntity
  8
DEFPOINTS
 62
     0
100
AcDbPoint
 10
2425.543615898272
 20
4071.881302304518
 30
0.0
  0
POINT
  5
1989
330
B78
100
AcDbEntity
  8
DEFPOINTS
 62
     0
100
AcDbPoint
 10
2425.543615898272
 20
4391.836856988419
 30
0.0
  0
ENDBLK
  5
B83
330
B78
100
AcDbEntity
  8
0
100
AcDbBlockEnd
  0
BLOCK
  5
B8E
330
B84
100
AcDbEntity
  8
0
100
AcDbBlockBegin
  2
*D11
 70
     1
 10
0.0
 20
0.0
 30
0.0
  3
*D11
  1

  0
LINE
  5
195B
330
B84
100
AcDbEntity
  8
D-STR-DIM
370
    -2
100
AcDbLine
 10
2010.543615938771
 20
3921.881292319519
 30
0.0
 11
1838.043545938773
 21
3921.881292319519
 31
0.0
  0
LINE
  5
195C
330
B84
100
AcDbEntity
  8
D-STR-DIM
370
    -2
100
AcDbLine
 10
2015.543615938271
 20
4271.881302284518
 30
0.0
 11
1838.043545938773
 21
4271.881302284518
 31
0.0
  0
LINE
  5
195D
330
B84
100
AcDbEntity
  8
D-STR-DIM
370
    -2
100
AcDbLine
 10
1858.043545938773
 20
3941.881292319519
 30
0.0
 11
1858.043545938773
 21
4251.881302284519
 31
0.0
  0
INSERT
  5
195E
330
B84
100
AcDbEntity
  8
D-STR-DIM
370
    -2
100
AcDbBlockReference
  2
_OPEN30
 10
1858.043545938773
 20
3921.881292319519
 30
0.0
 41
20.0
 42
20.0
 43
20.0
 50
270.0
  0
INSERT
  5
195F
330
B84
100
AcDbEntity
  8
D-STR-DIM
370
    -2
100
AcDbBlockReference
  2
_OPEN30
 10
1858.043545938773
 20
4271.881302284518
 30
0.0
 41
20.0
 42
20.0
 43
20.0
 50
90.0
  0
MTEXT
  5
1960
330
B84
100
AcDbEntity
  8
D-STR-DIM
100
AcDbMText
 10
1833.043545938773
 20
4096.881297302019
 30
0.0
 40
30.0
 41
0.0
 71
     5
 72
     1
  1
\A1;350
 11
0.0000000000000001
 21
1.0
 31
0.0
 73
     1
 44
1.0
  0
POINT
  5
1961
330
B84
100
AcDbEntity
  8
DEFPOINTS
 62
     0
100
AcDbPoint
 10
2020.543615938771
 20
3921.881292319519
 30
0.0
  0
POINT
  5
1962
330
B84
100
AcDbEntity
  8
DEFPOINTS
 62
     0
100
AcDbPoint
 10
2025.543615938271
 20
4271.881302284518
 30
0.0
  0
POINT
  5
1963
330
B84
100
AcDbEntity
  8
DEFPOINTS
 62
     0
100
AcDbPoint
 10
1858.043545938773
 20
4271.881302284518
 30
0.0
  0
ENDBLK
  5
B8F
330
B84
100
AcDbEntity
  8
0
100
AcDbBlockEnd
  0
BLOCK
  5
B9A
330
B90
100
AcDbEntity
  8
0
100
AcDbBlockBegin
  2
*D12
 70
     1
 10
0.0
 20
0.0
 30
0.0
  3
*D12
  1

  0
LINE
  5
1952
330
B90
100
AcDbEntity
  8
D-STR-DIM
370
    -2
100
AcDbLine
 10
2015.543615938271
 20
4271.881302284518
 30
0.0
 11
1763.043545938773
 21
4271.881302284518
 31
0.0
  0
LINE
  5
1953
330
B90
100
AcDbEntity
  8
D-STR-DIM
370
    -2
100
AcDbLine
 10
2010.543615938771
 20
3801.881292319519
 30
0.0
 11
1763.043545938773
 21
3801.881292319519
 31
0.0
  0
LINE
  5
1954
330
B90
100
AcDbEntity
  8
D-STR-DIM
370
    -2
100
AcDbLine
 10
1783.043545938773
 20
4246.881302284519
 30
0.0
 11
1783.043545938773
 21
3826.881292319519
 31
0.0
  0
INSERT
  5
1955
330
B90
100
AcDbEntity
  8
D-STR-DIM
370
    -2
100
AcDbBlockReference
  2
_OPEN30
 10
1783.043545938773
 20
4271.881302284518
 30
0.0
 41
25.0
 42
25.0
 43
25.0
 50
90.0
  0
INSERT
  5
1956
330
B90
100
AcDbEntity
  8
D-STR-DIM
370
    -2
100
AcDbBlockReference
  2
_OPEN30
 10
1783.043545938773
 20
3801.881292319519
 30
0.0
 41
25.0
 42
25.0
 43
25.0
 50
270.0
  0
MTEXT
  5
1957
330
B90
100
AcDbEntity
  8
D-STR-DIM
100
AcDbMText
 10
1758.043545938773
 20
4036.881297302019
 30
0.0
 40
30.0
 41
0.0
 71
     5
 72
     1
  1
470
 11
0.0000000000000001
 21
1.0
 31
0.0
 73
     1
 44
1.0
  0
POINT
  5
1958
330
B90
100
AcDbEntity
  8
DEFPOINTS
 62
     0
100
AcDbPoint
 10
2025.543615938271
 20
4271.881302284518
 30
0.0
  0
POINT
  5
1959
330
B90
100
AcDbEntity
  8
DEFPOINTS
 62
     0
100
AcDbPoint
 10
2020.543615938771
 20
3801.881292319519
 30
0.0
  0
POINT
  5
195A
330
B90
100
AcDbEntity
  8
DEFPOINTS
 62
     0
100
AcDbPoint
 10
1783.043545938773
 20
3801.881292319519
 30
0.0
  0
ENDBLK
  5
B9B
330
B90
100
AcDbEntity
  8
0
100
AcDbBlockEnd
  0
BLOCK
  5
BB2
330
BA8
100
AcDbEntity
  8
0
100
AcDbBlockBegin
  2
*D13
 70
     1
 10
0.0
 20
0.0
 30
0.0
  3
*D13
  1

  0
LINE
  5
196F
330
BA8
100
AcDbEntity
  8
D-STR-DIM
370
    -2
100
AcDbLine
 10
2010.543615938771
 20
3901.881302319519
 30
0.0
 11
1838.043545938773
 21
3901.881302319519
 31
0.0
  0
LINE
  5
1970
330
BA8
100
AcDbEntity
  8
D-STR-DIM
370
    -2
100
AcDbLine
 10
2010.543615938771
 20
3801.881292319519
 30
0.0
 11
1838.043545938773
 21
3801.881292319519
 31
0.0
  0
LINE
  5
1971
330
BA8
100
AcDbEntity
  8
D-STR-DIM
370
    -2
100
AcDbLine
 10
1858.043545938773
 20
3876.881302319519
 30
0.0
 11
1858.043545938773
 21
3826.881292319519
 31
0.0
  0
MTEXT
  5
1972
330
BA8
100
AcDbEntity
  8
D-STR-DIM
100
AcDbMText
 10
1833.043545938773
 20
3851.881297319518
 30
0.0
 40
30.0
 41
0.0
 71
     5
 72
     1
  1
100
 11
0.0000000000000001
 21
1.0
 31
0.0
 73
     1
 44
1.0
  0
INSERT
  5
1973
330
BA8
100
AcDbEntity
  8
D-STR-DIM
370
    -2
100
AcDbBlockReference
  2
_OPEN30
 10
1858.043545938773
 20
3901.881302319519
 30
0.0
 41
25.0
 42
25.0
 43
25.0
 50
90.0
  0
INSERT
  5
1974
330
BA8
100
AcDbEntity
  8
D-STR-DIM
370
    -2
100
AcDbBlockReference
  2
_OPEN30
 10
1858.043545938773
 20
3801.881292319519
 30
0.0
 41
25.0
 42
25.0
 43
25.0
 50
270.0
  0
POINT
  5
1975
330
BA8
100
AcDbEntity
  8
DEFPOINTS
 62
     0
100
AcDbPoint
 10
2020.543615938771
 20
3901.881302319519
 30
0.0
  0
POINT
  5
1976
330
BA8
100
AcDbEntity
  8
DEFPOINTS
 62
     0
100
AcDbPoint
 10
2020.543615938771
 20
3801.881292319519
 30
0.0
  0
POINT
  5
1977
330
BA8
100
AcDbEntity
  8
DEFPOINTS
 62
     0
100
AcDbPoint
 10
1858.043545938773
 20
3801.881292319519
 30
0.0
  0
ENDBLK
  5
BB3
330
BA8
100
AcDbEntity
  8
0
100
AcDbBlockEnd
  0
BLOCK
  5
BCE
330
BC2
100
AcDbEntity
  8
0
100
AcDbBlockBegin
  2
*D14
 70
     1
 10
0.0
 20
0.0
 30
0.0
  3
*D14
  1

  0
LINE
  5
1964
330
BC2
100
AcDbEntity
  8
D-STR-DIM
370
    -2
100
AcDbLine
 10
2010.543615938771
 20
3901.881302319519
 30
0.0
 11
1838.043545938773
 21
3901.881302319519
 31
0.0
  0
LINE
  5
1965
330
BC2
100
AcDbEntity
  8
D-STR-DIM
370
    -2
100
AcDbLine
 10
2010.543615938771
 20
3921.881292319519
 30
0.0
 11
1838.043545938773
 21
3921.881292319519
 31
0.0
  0
LINE
  5
1966
330
BC2
100
AcDbEntity
  8
D-STR-DIM
370
    -2
100
AcDbLine
 10
1858.043545938773
 20
3881.881302319519
 30
0.0
 11
1858.043545938773
 21
3861.881302319519
 31
0.0
  0
LINE
  5
1967
330
BC2
100
AcDbEntity
  8
D-STR-DIM
370
    -2
100
AcDbLine
 10
1858.043545938773
 20
3941.881292319519
 30
0.0
 11
1858.043545938773
 21
3961.881292319519
 31
0.0
  0
MTEXT
  5
1968
330
BC2
100
AcDbEntity
  8
D-STR-DIM
100
AcDbMText
 10
1833.043545938773
 20
3911.881297319519
 30
0.0
 40
30.0
 41
0.0
 71
     5
 72
     1
  1
\A1;20
 11
0.0000000000000001
 21
1.0
 31
0.0
 73
     1
 44
1.0
  0
LINE
  5
1969
330
BC2
100
AcDbEntity
  8
D-STR-DIM
370
    -2
100
AcDbLine
 10
1858.043545938773
 20
3901.881302319519
 30
0.0
 11
1858.043545938773
 21
3921.881292319519
 31
0.0
  0
INSERT
  5
196A
330
BC2
100
AcDbEntity
  8
D-STR-DIM
370
    -2
100
AcDbBlockReference
  2
_OPEN30
 10
1858.043545938773
 20
3901.881302319519
 30
0.0
 41
20.0
 42
20.0
 43
20.0
 50
90.0
  0
INSERT
  5
196B
330
BC2
100
AcDbEntity
  8
D-STR-DIM
370
    -2
100
AcDbBlockReference
  2
_OPEN30
 10
1858.043545938773
 20
3921.881292319519
 30
0.0
 41
20.0
 42
20.0
 43
20.0
 50
270.0
  0
POINT
  5
196C
330
BC2
100
AcDbEntity
  8
DEFPOINTS
 62
     0
100
AcDbPoint
 10
2020.543615938771
 20
3901.881302319519
 30
0.0
  0
POINT
  5
196D
330
BC2
100
AcDbEntity
  8
DEFPOINTS
 62
     0
100
AcDbPoint
 10
2020.543615938771
 20
3921.881292319519
 30
0.0
  0
POINT
  5
196E
330
BC2
100
AcDbEntity
  8
DEFPOINTS
 62
     0
100
AcDbPoint
 10
1858.043545938773
 20
3921.881292319519
 30
0.0
  0
ENDBLK
  5
BCF
330
BC2
100
AcDbEntity
  8
0
100
AcDbBlockEnd
  0
BLOCK
  5
CB6
330
CAC
100
AcDbEntity
  8
0
100
AcDbBlockBegin
  2
*D15
 70
     1
 10
0.0
 20
0.0
 30
0.0
  3
*D15
  1

  0
LINE
  5
192C
330
CAC
100
AcDbEntity
  8
D-STR-DIM
370
    -2
100
AcDbLine
 10
4723.128017450608
 20
4144.081924507516
 30
0.0
 11
4723.128017450608
 21
4484.259863048413
 31
0.0
  0
LINE
  5
192D
330
CAC
100
AcDbEntity
  8
D-STR-DIM
370
    -2
100
AcDbLine
 10
4813.128017441609
 20
4144.081924507516
 30
0.0
 11
4813.128017441609
 21
4484.259863048413
 31
0.0
  0
LINE
  5
192E
330
CAC
100
AcDbEntity
  8
D-STR-DIM
370
    -2
100
AcDbLine
 10
4743.128017450608
 20
4464.259863048414
 30
0.0
 11
4793.128017441609
 21
4464.259863048414
 31
0.0
  0
INSERT
  5
192F
330
CAC
100
AcDbEntity
  8
D-STR-DIM
370
    -2
100
AcDbBlockReference
  2
_OPEN30
 10
4723.128017450608
 20
4464.259863048414
 30
0.0
 41
20.0
 42
20.0
 43
20.0
 50
180.0
  0
INSERT
  5
1930
330
CAC
100
AcDbEntity
  8
D-STR-DIM
370
    -2
100
AcDbBlockReference
  2
_OPEN30
 10
4813.128017441609
 20
4464.259863048414
 30
0.0
 41
20.0
 42
20.0
 43
20.0
  0
MTEXT
  5
1931
330
CAC
100
AcDbEntity
  8
D-STR-DIM
100
AcDbMText
 10
4768.128017446108
 20
4489.259863048413
 30
0.0
 40
30.0
 41
0.0
 71
     5
 72
     1
  1
\A1;90
 73
     1
 44
1.0
  0
POINT
  5
1932
330
CAC
100
AcDbEntity
  8
DEFPOINTS
 62
     0
100
AcDbPoint
 10
4723.128017450608
 20
4134.081924507516
 30
0.0
  0
POINT
  5
1933
330
CAC
100
AcDbEntity
  8
DEFPOINTS
 62
     0
100
AcDbPoint
 10
4813.128017441609
 20
4134.081924507516
 30
0.0
  0
POINT
  5
1934
330
CAC
100
AcDbEntity
  8
DEFPOINTS
 62
     0
100
AcDbPoint
 10
4813.128017441609
 20
4464.259863048414
 30
0.0
  0
ENDBLK
  5
CB7
330
CAC
100
AcDbEntity
  8
0
100
AcDbBlockEnd
  0
BLOCK
  5
CC4
330
CB8
100
AcDbEntity
  8
0
100
AcDbBlockBegin
  2
*D16
 70
     1
 10
0.0
 20
0.0
 30
0.0
  3
*D16
  1

  0
LINE
  5
1921
330
CB8
100
AcDbEntity
  8
D-STR-DIM
370
    -2
100
AcDbLine
 10
4703.127891061763
 20
4344.081924487515
 30
0.0
 11
4703.127891061763
 21
4484.259863048413
 31
0.0
  0
LINE
  5
1922
330
CB8
100
AcDbEntity
  8
D-STR-DIM
370
    -2
100
AcDbLine
 10
4723.128017450608
 20
4144.081924507516
 30
0.0
 11
4723.128017450608
 21
4484.259863048413
 31
0.0
  0
LINE
  5
1923
330
CB8
100
AcDbEntity
  8
D-STR-DIM
370
    -2
100
AcDbLine
 10
4683.127891061763
 20
4464.259863048414
 30
0.0
 11
4663.127891061763
 21
4464.259863048414
 31
0.0
  0
LINE
  5
1924
330
CB8
100
AcDbEntity
  8
D-STR-DIM
370
    -2
100
AcDbLine
 10
4743.128017450608
 20
4464.259863048414
 30
0.0
 11
4763.128017450608
 21
4464.259863048414
 31
0.0
  0
MTEXT
  5
1925
330
CB8
100
AcDbEntity
  8
D-STR-DIM
100
AcDbMText
 10
4713.127954256186
 20
4514.259863048414
 30
0.0
 40
30.0
 41
0.0
 71
     5
 72
     1
  1
\A1;20
 73
     1
 44
1.0
  0
LINE
  5
1926
330
CB8
100
AcDbEntity
  8
D-STR-DIM
370
    -2
100
AcDbLine
 10
4703.127891061763
 20
4464.259863048414
 30
0.0
 11
4723.128017450608
 21
4464.259863048414
 31
0.0
  0
INSERT
  5
1927
330
CB8
100
AcDbEntity
  8
D-STR-DIM
370
    -2
100
AcDbBlockReference
  2
_OPEN30
 10
4703.127891061763
 20
4464.259863048414
 30
0.0
 41
20.0
 42
20.0
 43
20.0
  0
INSERT
  5
1928
330
CB8
100
AcDbEntity
  8
D-STR-DIM
370
    -2
100
AcDbBlockReference
  2
_OPEN30
 10
4723.128017450608
 20
4464.259863048414
 30
0.0
 41
20.0
 42
20.0
 43
20.0
 50
180.0
  0
POINT
  5
1929
330
CB8
100
AcDbEntity
  8
DEFPOINTS
 62
     0
100
AcDbPoint
 10
4703.127891061763
 20
4334.081924487516
 30
0.0
  0
POINT
  5
192A
330
CB8
100
AcDbEntity
  8
DEFPOINTS
 62
     0
100
AcDbPoint
 10
4723.128017450608
 20
4134.081924507516
 30
0.0
  0
POINT
  5
192B
330
CB8
100
AcDbEntity
  8
DEFPOINTS
 62
     0
100
AcDbPoint
 10
4723.128017450608
 20
4464.259863048414
 30
0.0
  0
ENDBLK
  5
CC5
330
CB8
100
AcDbEntity
  8
0
100
AcDbBlockEnd
  0
BLOCK
  5
CDC
330
CD2
100
AcDbEntity
  8
0
100
AcDbBlockBegin
  2
*D17
 70
     1
 10
0.0
 20
0.0
 30
0.0
  3
*D17
  1

  0
LINE
  5
190F
330
CD2
100
AcDbEntity
  8
D-STR-DIM
370
    -2
100
AcDbLine
 10
7222.127889264907
 20
4344.081924522516
 30
0.0
 11
7222.127889264907
 21
4599.43783907306
 31
0.0
  0
LINE
  5
1910
330
CD2
100
AcDbEntity
  8
D-STR-DIM
370
    -2
100
AcDbLine
 10
5222.127889264907
 20
4344.081924522516
 30
0.0
 11
5222.127889264907
 21
4599.43783907306
 31
0.0
  0
LINE
  5
1911
330
CD2
100
AcDbEntity
  8
D-STR-DIM
370
    -2
100
AcDbLine
 10
7202.127889264907
 20
4579.437839073061
 30
0.0
 11
5242.127889264907
 21
4579.437839073061
 31
0.0
  0
INSERT
  5
1912
330
CD2
100
AcDbEntity
  8
D-STR-DIM
370
    -2
100
AcDbBlockReference
  2
_OPEN30
 10
7222.127889264907
 20
4579.437839073061
 30
0.0
 41
20.0
 42
20.0
 43
20.0
  0
INSERT
  5
1913
330
CD2
100
AcDbEntity
  8
D-STR-DIM
370
    -2
100
AcDbBlockReference
  2
_OPEN30
 10
5222.127889264907
 20
4579.437839073061
 30
0.0
 41
20.0
 42
20.0
 43
20.0
 50
180.0
  0
MTEXT
  5
1914
330
CD2
100
AcDbEntity
  8
D-STR-DIM
100
AcDbMText
 10
6222.127889264907
 20
4604.43783907306
 30
0.0
 40
30.0
 41
0.0
 71
     5
 72
     1
  1
\A1;2000
 73
     1
 44
1.0
  0
POINT
  5
1915
330
CD2
100
AcDbEntity
  8
DEFPOINTS
 62
     0
100
AcDbPoint
 10
7222.127889264907
 20
4334.081924522517
 30
0.0
  0
POINT
  5
1916
330
CD2
100
AcDbEntity
  8
DEFPOINTS
 62
     0
100
AcDbPoint
 10
5222.127889264907
 20
4334.081924522517
 30
0.0
  0
POINT
  5
1917
330
CD2
100
AcDbEntity
  8
DEFPOINTS
 62
     0
100
AcDbPoint
 10
5222.127889264907
 20
4579.437839073061
 30
0.0
  0
ENDBLK
  5
CDD
330
CD2
100
AcDbEntity
  8
0
100
AcDbBlockEnd
  0
BLOCK
  5
12D0
330
12C4
100
AcDbEntity
  8
0
100
AcDbBlockBegin
  2
*D18
 70
     1
 10
0.0
 20
0.0
 30
0.0
  3
*D18
  1

  0
LINE
  5
18DE
330
12C4
100
AcDbEntity
  8
D-STR-DIM
370
    -2
100
AcDbLine
 10
4503.128017472607
 20
2846.567814931273
 30
0.0
 11
4503.128017472607
 21
3186.745753472171
 31
0.0
  0
LINE
  5
18DF
330
12C4
100
AcDbEntity
  8
D-STR-DIM
370
    -2
100
AcDbLine
 10
4523.1282251674
 20
3046.567814911273
 30
0.0
 11
4523.1282251674
 21
3186.745753472171
 31
0.0
  0
LINE
  5
18E0
330
12C4
100
AcDbEntity
  8
D-STR-DIM
370
    -2
100
AcDbLine
 10
4483.128017472608
 20
3166.745753472171
 30
0.0
 11
4463.128017472608
 21
3166.745753472171
 31
0.0
  0
LINE
  5
18E1
330
12C4
100
AcDbEntity
  8
D-STR-DIM
370
    -2
100
AcDbLine
 10
4543.128225167399
 20
3166.745753472171
 30
0.0
 11
4563.128225167399
 21
3166.745753472171
 31
0.0
  0
MTEXT
  5
18E2
330
12C4
100
AcDbEntity
  8
D-STR-DIM
100
AcDbMText
 10
4513.128121320003
 20
3216.74575347217
 30
0.0
 40
30.0
 41
0.0
 71
     5
 72
     1
  1
\A1;20
 73
     1
 44
1.0
  0
LINE
  5
18E3
330
12C4
100
AcDbEntity
  8
D-STR-DIM
370
    -2
100
AcDbLine
 10
4503.128017472607
 20
3166.745753472171
 30
0.0
 11
4523.1282251674
 21
3166.745753472171
 31
0.0
  0
INSERT
  5
18E4
330
12C4
100
AcDbEntity
  8
D-STR-DIM
370
    -2
100
AcDbBlockReference
  2
_OPEN30
 10
4503.128017472607
 20
3166.745753472171
 30
0.0
 41
20.0
 42
20.0
 43
20.0
  0
INSERT
  5
18E5
330
12C4
100
AcDbEntity
  8
D-STR-DIM
370
    -2
100
AcDbBlockReference
  2
_OPEN30
 10
4523.1282251674
 20
3166.745753472171
 30
0.0
 41
20.0
 42
20.0
 43
20.0
 50
180.0
  0
POINT
  5
18E6
330
12C4
100
AcDbEntity
  8
DEFPOINTS
 62
     0
100
AcDbPoint
 10
4503.128017472607
 20
2836.567814931273
 30
0.0
  0
POINT
  5
18E7
330
12C4
100
AcDbEntity
  8
DEFPOINTS
 62
     0
100
AcDbPoint
 10
4523.1282251674
 20
3036.567814911272
 30
0.0
  0
POINT
  5
18E8
330
12C4
100
AcDbEntity
  8
DEFPOINTS
 62
     0
100
AcDbPoint
 10
4523.1282251674
 20
3166.745753472171
 30
0.0
  0
ENDBLK
  5
12D1
330
12C4
100
AcDbEntity
  8
0
100
AcDbBlockEnd
  0
BLOCK
  5
12DC
330
12D2
100
AcDbEntity
  8
0
100
AcDbBlockBegin
  2
*D19
 70
     1
 10
0.0
 20
0.0
 30
0.0
  3
*D19
  1

  0
LINE
  5
1875
330
12D2
100
AcDbEntity
  8
D-STR-DIM
370
    -2
100
AcDbLine
 10
4413.128017481608
 20
2846.567814931273
 30
0.0
 11
4413.128017481608
 21
3316.92379203307
 31
0.0
  0
LINE
  5
1876
330
12D2
100
AcDbEntity
  8
D-STR-DIM
370
    -2
100
AcDbLine
 10
4813.128017441609
 20
2846.567814931273
 30
0.0
 11
4813.128017441609
 21
3316.92379203307
 31
0.0
  0
LINE
  5
1877
330
12D2
100
AcDbEntity
  8
D-STR-DIM
370
    -2
100
AcDbLine
 10
4433.128017481609
 20
3296.923792033069
 30
0.0
 11
4793.128017441609
 21
3296.923792033069
 31
0.0
  0
INSERT
  5
1878
330
12D2
100
AcDbEntity
  8
D-STR-DIM
370
    -2
100
AcDbBlockReference
  2
_OPEN30
 10
4413.128017481608
 20
3296.923792033069
 30
0.0
 41
20.0
 42
20.0
 43
20.0
 50
180.0
  0
INSERT
  5
1879
330
12D2
100
AcDbEntity
  8
D-STR-DIM
370
    -2
100
AcDbBlockReference
  2
_OPEN30
 10
4813.128017441609
 20
3296.923792033069
 30
0.0
 41
20.0
 42
20.0
 43
20.0
  0
MTEXT
  5
187A
330
12D2
100
AcDbEntity
  8
D-STR-DIM
100
AcDbMText
 10
4613.128017461608
 20
3321.92379203307
 30
0.0
 40
30.0
 41
0.0
 71
     5
 72
     1
  1
\A1;400
 73
     1
 44
1.0
  0
POINT
  5
187B
330
12D2
100
AcDbEntity
  8
DEFPOINTS
 62
     0
100
AcDbPoint
 10
4413.128017481608
 20
2836.567814931273
 30
0.0
  0
POINT
  5
187C
330
12D2
100
AcDbEntity
  8
DEFPOINTS
 62
     0
100
AcDbPoint
 10
4813.128017441609
 20
2836.567814931273
 30
0.0
  0
POINT
  5
187D
330
12D2
100
AcDbEntity
  8
DEFPOINTS
 62
     0
100
AcDbPoint
 10
4813.128017441609
 20
3296.923792033069
 30
0.0
  0
ENDBLK
  5
12DD
330
12D2
100
AcDbEntity
  8
0
100
AcDbBlockEnd
  0
BLOCK
  5
12E8
330
12DE
100
AcDbEntity
  8
0
100
AcDbBlockBegin
  2
*D20
 70
     1
 10
0.0
 20
0.0
 30
0.0
  3
*D20
  1

  0
LINE
  5
18D5
330
12DE
100
AcDbEntity
  8
D-STR-DIM
370
    -2
100
AcDbLine
 10
4523.1282251674
 20
3046.567814911273
 30
0.0
 11
4523.1282251674
 21
3186.745753472171
 31
0.0
  0
LINE
  5
18D6
330
12DE
100
AcDbEntity
  8
D-STR-DIM
370
    -2
100
AcDbLine
 10
4703.127891061763
 20
3046.567814911273
 30
0.0
 11
4703.127891061763
 21
3186.745753472171
 31
0.0
  0
LINE
  5
18D7
330
12DE
100
AcDbEntity
  8
D-STR-DIM
370
    -2
100
AcDbLine
 10
4543.128225167399
 20
3166.745753472171
 30
0.0
 11
4683.127891061763
 21
3166.745753472171
 31
0.0
  0
INSERT
  5
18D8
330
12DE
100
AcDbEntity
  8
D-STR-DIM
370
    -2
100
AcDbBlockReference
  2
_OPEN30
 10
4523.1282251674
 20
3166.745753472171
 30
0.0
 41
20.0
 42
20.0
 43
20.0
 50
180.0
  0
INSERT
  5
18D9
330
12DE
100
AcDbEntity
  8
D-STR-DIM
370
    -2
100
AcDbBlockReference
  2
_OPEN30
 10
4703.127891061763
 20
3166.745753472171
 30
0.0
 41
20.0
 42
20.0
 43
20.0
  0
MTEXT
  5
18DA
330
12DE
100
AcDbEntity
  8
D-STR-DIM
100
AcDbMText
 10
4613.128058114581
 20
3191.74575347217
 30
0.0
 40
30.0
 41
0.0
 71
     5
 72
     1
  1
\A1;180
 73
     1
 44
1.0
  0
POINT
  5
18DB
330
12DE
100
AcDbEntity
  8
DEFPOINTS
 62
     0
100
AcDbPoint
 10
4523.1282251674
 20
3036.567814911272
 30
0.0
  0
POINT
  5
18DC
330
12DE
100
AcDbEntity
  8
DEFPOINTS
 62
     0
100
AcDbPoint
 10
4703.127891061763
 20
3036.567814911272
 30
0.0
  0
POINT
  5
18DD
330
12DE
100
AcDbEntity
  8
DEFPOINTS
 62
     0
100
AcDbPoint
 10
4703.127891061763
 20
3166.745753472171
 30
0.0
  0
ENDBLK
  5
12E9
330
12DE
100
AcDbEntity
  8
0
100
AcDbBlockEnd
  0
BLOCK
  5
12F4
330
12EA
100
AcDbEntity
  8
0
100
AcDbBlockBegin
  2
*D21
 70
     1
 10
0.0
 20
0.0
 30
0.0
  3
*D21
  1

  0
LINE
  5
1819
330
12EA
100
AcDbEntity
  8
D-STR-DIM
370
    -2
100
AcDbLine
 10
4513.128225167399
 20
3036.567814911272
 30
0.0
 11
4123.709085951785
 21
3036.567814911272
 31
0.0
  0
LINE
  5
181A
330
12EA
100
AcDbEntity
  8
D-STR-DIM
370
    -2
100
AcDbLine
 10
4398.128017482108
 20
2686.567814946274
 30
0.0
 11
4123.709085951785
 21
2686.567814946274
 31
0.0
  0
LINE
  5
181B
330
12EA
100
AcDbEntity
  8
D-STR-DIM
370
    -2
100
AcDbLine
 10
4143.709085951786
 20
3016.567814911272
 30
0.0
 11
4143.709085951786
 21
2706.567814946273
 31
0.0
  0
INSERT
  5
181C
330
12EA
100
AcDbEntity
  8
D-STR-DIM
370
    -2
100
AcDbBlockReference
  2
_OPEN30
 10
4143.709085951786
 20
3036.567814911272
 30
0.0
 41
20.0
 42
20.0
 43
20.0
 50
90.0
  0
INSERT
  5
181D
330
12EA
100
AcDbEntity
  8
D-STR-DIM
370
    -2
100
AcDbBlockReference
  2
_OPEN30
 10
4143.709085951786
 20
2686.567814946274
 30
0.0
 41
20.0
 42
20.0
 43
20.0
 50
270.0
  0
MTEXT
  5
181E
330
12EA
100
AcDbEntity
  8
D-STR-DIM
100
AcDbMText
 10
4118.709085951785
 20
2861.567814928774
 30
0.0
 40
30.0
 41
0.0
 71
     5
 72
     1
  1
\A1;350
 11
0.0000000000000001
 21
1.0
 31
0.0
 73
     1
 44
1.0
  0
POINT
  5
181F
330
12EA
100
AcDbEntity
  8
DEFPOINTS
 62
     0
100
AcDbPoint
 10
4523.1282251674
 20
3036.567814911272
 30
0.0
  0
POINT
  5
1820
330
12EA
100
AcDbEntity
  8
DEFPOINTS
 62
     0
100
AcDbPoint
 10
4408.128017482108
 20
2686.567814946274
 30
0.0
  0
POINT
  5
1821
330
12EA
100
AcDbEntity
  8
DEFPOINTS
 62
     0
100
AcDbPoint
 10
4143.709085951786
 20
2686.567814946274
 30
0.0
  0
ENDBLK
  5
12F5
330
12EA
100
AcDbEntity
  8
0
100
AcDbBlockEnd
  0
BLOCK
  5
1300
330
12F6
100
AcDbEntity
  8
0
100
AcDbBlockBegin
  2
*D22
 70
     1
 10
0.0
 20
0.0
 30
0.0
  3
*D22
  1

  0
LINE
  5
1822
330
12F6
100
AcDbEntity
  8
D-STR-DIM
370
    -2
100
AcDbLine
 10
4513.128225167399
 20
3036.567814911272
 30
0.0
 11
4228.128017482108
 21
3036.567814911272
 31
0.0
  0
LINE
  5
1823
330
12F6
100
AcDbEntity
  8
D-STR-DIM
370
    -2
100
AcDbLine
 10
4403.128017481608
 20
2836.567814931273
 30
0.0
 11
4228.128017482108
 21
2836.567814931273
 31
0.0
  0
LINE
  5
1824
330
12F6
100
AcDbEntity
  8
D-STR-DIM
370
    -2
100
AcDbLine
 10
4248.128017482108
 20
3016.567814911272
 30
0.0
 11
4248.128017482108
 21
2856.567814931273
 31
0.0
  0
INSERT
  5
1825
330
12F6
100
AcDbEntity
  8
D-STR-DIM
370
    -2
100
AcDbBlockReference
  2
_OPEN30
 10
4248.128017482108
 20
3036.567814911272
 30
0.0
 41
20.0
 42
20.0
 43
20.0
 50
90.0
  0
INSERT
  5
1826
330
12F6
100
AcDbEntity
  8
D-STR-DIM
370
    -2
100
AcDbBlockReference
  2
_OPEN30
 10
4248.128017482108
 20
2836.567814931273
 30
0.0
 41
20.0
 42
20.0
 43
20.0
 50
270.0
  0
MTEXT
  5
1827
330
12F6
100
AcDbEntity
  8
D-STR-DIM
100
AcDbMText
 10
4223.128017482108
 20
2936.567814921273
 30
0.0
 40
30.0
 41
0.0
 71
     5
 72
     1
  1
\A1;200
 11
0.0000000000000001
 21
1.0
 31
0.0
 73
     1
 44
1.0
  0
POINT
  5
1828
330
12F6
100
AcDbEntity
  8
DEFPOINTS
 62
     0
100
AcDbPoint
 10
4523.1282251674
 20
3036.567814911272
 30
0.0
  0
POINT
  5
1829
330
12F6
100
AcDbEntity
  8
DEFPOINTS
 62
     0
100
AcDbPoint
 10
4413.128017481608
 20
2836.567814931273
 30
0.0
  0
POINT
  5
182A
330
12F6
100
AcDbEntity
  8
DEFPOINTS
 62
     0
100
AcDbPoint
 10
4248.128017482108
 20
2836.567814931273
 30
0.0
  0
ENDBLK
  5
1301
330
12F6
100
AcDbEntity
  8
0
100
AcDbBlockEnd
  0
BLOCK
  5
130C
330
1302
100
AcDbEntity
  8
0
100
AcDbBlockBegin
  2
*D23
 70
     1
 10
0.0
 20
0.0
 30
0.0
  3
*D23
  1

  0
LINE
  5
18E9
330
1302
100
AcDbEntity
  8
D-STR-DIM
370
    -2
100
AcDbLine
 10
4413.128017481608
 20
2846.567814931273
 30
0.0
 11
4413.128017481608
 21
3186.745753472171
 31
0.0
  0
LINE
  5
18EA
330
1302
100
AcDbEntity
  8
D-STR-DIM
370
    -2
100
AcDbLine
 10
4503.128017472607
 20
2846.567814931273
 30
0.0
 11
4503.128017472607
 21
3186.745753472171
 31
0.0
  0
LINE
  5
18EB
330
1302
100
AcDbEntity
  8
D-STR-DIM
370
    -2
100
AcDbLine
 10
4433.128017481609
 20
3166.745753472171
 30
0.0
 11
4483.128017472608
 21
3166.745753472171
 31
0.0
  0
INSERT
  5
18EC
330
1302
100
AcDbEntity
  8
D-STR-DIM
370
    -2
100
AcDbBlockReference
  2
_OPEN30
 10
4413.128017481608
 20
3166.745753472171
 30
0.0
 41
20.0
 42
20.0
 43
20.0
 50
180.0
  0
INSERT
  5
18ED
330
1302
100
AcDbEntity
  8
D-STR-DIM
370
    -2
100
AcDbBlockReference
  2
_OPEN30
 10
4503.128017472607
 20
3166.745753472171
 30
0.0
 41
20.0
 42
20.0
 43
20.0
  0
MTEXT
  5
18EE
330
1302
100
AcDbEntity
  8
D-STR-DIM
100
AcDbMText
 10
4458.128017477108
 20
3191.74575347217
 30
0.0
 40
30.0
 41
0.0
 71
     5
 72
     1
  1
\A1;90
 73
     1
 44
1.0
  0
POINT
  5
18EF
330
1302
100
AcDbEntity
  8
DEFPOINTS
 62
     0
100
AcDbPoint
 10
4413.128017481608
 20
2836.567814931273
 30
0.0
  0
POINT
  5
18F0
330
1302
100
AcDbEntity
  8
DEFPOINTS
 62
     0
100
AcDbPoint
 10
4503.128017472607
 20
2836.567814931273
 30
0.0
  0
POINT
  5
18F1
330
1302
100
AcDbEntity
  8
DEFPOINTS
 62
     0
100
AcDbPoint
 10
4503.128017472607
 20
3166.745753472171
 30
0.0
  0
ENDBLK
  5
130D
330
1302
100
AcDbEntity
  8
0
100
AcDbBlockEnd
  0
BLOCK
  5
1318
330
130E
100
AcDbEntity
  8
0
100
AcDbBlockBegin
  2
*D24
 70
     1
 10
0.0
 20
0.0
 30
0.0
  3
*D24
  1

  0
LINE
  5
17FC
330
130E
100
AcDbEntity
  8
D-STR-DIM
370
    -2
100
AcDbLine
 10
4403.128017481608
 20
2836.567814931273
 30
0.0
 11
4228.128017482108
 21
2836.567814931273
 31
0.0
  0
LINE
  5
17FD
330
130E
100
AcDbEntity
  8
D-STR-DIM
370
    -2
100
AcDbLine
 10
4398.128017482108
 20
2686.567814946274
 30
0.0
 11
4228.128017482108
 21
2686.567814946274
 31
0.0
  0
LINE
  5
17FE
330
130E
100
AcDbEntity
  8
D-STR-DIM
370
    -2
100
AcDbLine
 10
4248.128017482108
 20
2816.567814931273
 30
0.0
 11
4248.128017482108
 21
2706.567814946273
 31
0.0
  0
INSERT
  5
17FF
330
130E
100
AcDbEntity
  8
D-STR-DIM
370
    -2
100
AcDbBlockReference
  2
_OPEN30
 10
4248.128017482108
 20
2836.567814931273
 30
0.0
 41
20.0
 42
20.0
 43
20.0
 50
90.0
  0
INSERT
  5
1800
330
130E
100
AcDbEntity
  8
D-STR-DIM
370
    -2
100
AcDbBlockReference
  2
_OPEN30
 10
4248.128017482108
 20
2686.567814946274
 30
0.0
 41
20.0
 42
20.0
 43
20.0
 50
270.0
  0
MTEXT
  5
1801
330
130E
100
AcDbEntity
  8
D-STR-DIM
100
AcDbMText
 10
4223.128017482108
 20
2761.567814938774
 30
0.0
 40
30.0
 41
0.0
 71
     5
 72
     1
  1
\A1;150
 11
0.0000000000000001
 21
1.0
 31
0.0
 73
     1
 44
1.0
  0
POINT
  5
1802
330
130E
100
AcDbEntity
  8
DEFPOINTS
 62
     0
100
AcDbPoint
 10
4413.128017481608
 20
2836.567814931273
 30
0.0
  0
POINT
  5
1803
330
130E
100
AcDbEntity
  8
DEFPOINTS
 62
     0
100
AcDbPoint
 10
4408.128017482108
 20
2686.567814946274
 30
0.0
  0
POINT
  5
1804
330
130E
100
AcDbEntity
  8
DEFPOINTS
 62
     0
100
AcDbPoint
 10
4248.128017482108
 20
2686.567814946274
 30
0.0
  0
ENDBLK
  5
1319
330
130E
100
AcDbEntity
  8
0
100
AcDbBlockEnd
  0
BLOCK
  5
1324
330
131A
100
AcDbEntity
  8
0
100
AcDbBlockBegin
  2
*D25
 70
     1
 10
0.0
 20
0.0
 30
0.0
  3
*D25
  1

  0
LINE
  5
18FD
330
131A
100
AcDbEntity
  8
D-STR-DIM
370
    -2
100
AcDbLine
 10
4723.128017450608
 20
2846.567814931273
 30
0.0
 11
4723.128017450608
 21
3186.745753472171
 31
0.0
  0
LINE
  5
18FE
330
131A
100
AcDbEntity
  8
D-STR-DIM
370
    -2
100
AcDbLine
 10
4813.128017441609
 20
2846.567814931273
 30
0.0
 11
4813.128017441609
 21
3186.745753472171
 31
0.0
  0
LINE
  5
18FF
330
131A
100
AcDbEntity
  8
D-STR-DIM
370
    -2
100
AcDbLine
 10
4743.128017450609
 20
3166.745753472171
 30
0.0
 11
4793.128017441609
 21
3166.745753472171
 31
0.0
  0
INSERT
  5
1900
330
131A
100
AcDbEntity
  8
D-STR-DIM
370
    -2
100
AcDbBlockReference
  2
_OPEN30
 10
4723.128017450608
 20
3166.745753472171
 30
0.0
 41
20.0
 42
20.0
 43
20.0
 50
180.0
  0
INSERT
  5
1901
330
131A
100
AcDbEntity
  8
D-STR-DIM
370
    -2
100
AcDbBlockReference
  2
_OPEN30
 10
4813.128017441609
 20
3166.745753472171
 30
0.0
 41
20.0
 42
20.0
 43
20.0
  0
MTEXT
  5
1902
330
131A
100
AcDbEntity
  8
D-STR-DIM
100
AcDbMText
 10
4768.128017446109
 20
3191.74575347217
 30
0.0
 40
30.0
 41
0.0
 71
     5
 72
     1
  1
\A1;90
 73
     1
 44
1.0
  0
POINT
  5
1903
330
131A
100
AcDbEntity
  8
DEFPOINTS
 62
     0
100
AcDbPoint
 10
4723.128017450608
 20
2836.567814931273
 30
0.0
  0
POINT
  5
1904
330
131A
100
AcDbEntity
  8
DEFPOINTS
 62
     0
100
AcDbPoint
 10
4813.128017441609
 20
2836.567814931273
 30
0.0
  0
POINT
  5
1905
330
131A
100
AcDbEntity
  8
DEFPOINTS
 62
     0
100
AcDbPoint
 10
4813.128017441609
 20
3166.745753472171
 30
0.0
  0
ENDBLK
  5
1325
330
131A
100
AcDbEntity
  8
0
100
AcDbBlockEnd
  0
BLOCK
  5
1332
330
1326
100
AcDbEntity
  8
0
100
AcDbBlockBegin
  2
*D26
 70
     1
 10
0.0
 20
0.0
 30
0.0
  3
*D26
  1

  0
LINE
  5
18F2
330
1326
100
AcDbEntity
  8
D-STR-DIM
370
    -2
100
AcDbLine
 10
4703.127891061763
 20
3046.567814911273
 30
0.0
 11
4703.127891061763
 21
3186.745753472171
 31
0.0
  0
LINE
  5
18F3
330
1326
100
AcDbEntity
  8
D-STR-DIM
370
    -2
100
AcDbLine
 10
4723.128017450608
 20
2846.567814931273
 30
0.0
 11
4723.128017450608
 21
3186.745753472171
 31
0.0
  0
LINE
  5
18F4
330
1326
100
AcDbEntity
  8
D-STR-DIM
370
    -2
100
AcDbLine
 10
4683.127891061763
 20
3166.745753472171
 30
0.0
 11
4663.127891061763
 21
3166.745753472171
 31
0.0
  0
LINE
  5
18F5
330
1326
100
AcDbEntity
  8
D-STR-DIM
370
    -2
100
AcDbLine
 10
4743.128017450609
 20
3166.745753472171
 30
0.0
 11
4763.128017450609
 21
3166.745753472171
 31
0.0
  0
MTEXT
  5
18F6
330
1326
100
AcDbEntity
  8
D-STR-DIM
100
AcDbMText
 10
4713.127954256186
 20
3216.74575347217
 30
0.0
 40
30.0
 41
0.0
 71
     5
 72
     1
  1
\A1;20
 73
     1
 44
1.0
  0
LINE
  5
18F7
330
1326
100
AcDbEntity
  8
D-STR-DIM
370
    -2
100
AcDbLine
 10
4703.127891061763
 20
3166.745753472171
 30
0.0
 11
4723.128017450608
 21
3166.745753472171
 31
0.0
  0
INSERT
  5
18F8
330
1326
100
AcDbEntity
  8
D-STR-DIM
370
    -2
100
AcDbBlockReference
  2
_OPEN30
 10
4703.127891061763
 20
3166.745753472171
 30
0.0
 41
20.0
 42
20.0
 43
20.0
  0
INSERT
  5
18F9
330
1326
100
AcDbEntity
  8
D-STR-DIM
370
    -2
100
AcDbBlockReference
  2
_OPEN30
 10
4723.128017450608
 20
3166.745753472171
 30
0.0
 41
20.0
 42
20.0
 43
20.0
 50
180.0
  0
POINT
  5
18FA
330
1326
100
AcDbEntity
  8
DEFPOINTS
 62
     0
100
AcDbPoint
 10
4703.127891061763
 20
3036.567814911272
 30
0.0
  0
POINT
  5
18FB
330
1326
100
AcDbEntity
  8
DEFPOINTS
 62
     0
100
AcDbPoint
 10
4723.128017450608
 20
2836.567814931273
 30
0.0
  0
POINT
  5
18FC
330
1326
100
AcDbEntity
  8
DEFPOINTS
 62
     0
100
AcDbPoint
 10
4723.128017450608
 20
3166.745753472171
 30
0.0
  0
ENDBLK
  5
1333
330
1326
100
AcDbEntity
  8
0
100
AcDbBlockEnd
  0
BLOCK
  5
133E
330
1334
100
AcDbEntity
  8
0
100
AcDbBlockBegin
  2
*D27
 70
     1
 10
0.0
 20
0.0
 30
0.0
  3
*D27
  1

  0
LINE
  5
187E
330
1334
100
AcDbEntity
  8
D-STR-DIM
370
    -2
100
AcDbLine
 10
7222.127889264907
 20
3046.567814946274
 30
0.0
 11
7222.127889264907
 21
3301.923729496818
 31
0.0
  0
LINE
  5
187F
330
1334
100
AcDbEntity
  8
D-STR-DIM
370
    -2
100
AcDbLine
 10
5222.127889264907
 20
3046.567814946274
 30
0.0
 11
5222.127889264907
 21
3301.923729496818
 31
0.0
  0
LINE
  5
1880
330
1334
100
AcDbEntity
  8
D-STR-DIM
370
    -2
100
AcDbLine
 10
7202.127889264907
 20
3281.923729496818
 30
0.0
 11
5242.127889264907
 21
3281.923729496818
 31
0.0
  0
INSERT
  5
1881
330
1334
100
AcDbEntity
  8
D-STR-DIM
370
    -2
100
AcDbBlockReference
  2
_OPEN30
 10
7222.127889264907
 20
3281.923729496818
 30
0.0
 41
20.0
 42
20.0
 43
20.0
  0
INSERT
  5
1882
330
1334
100
AcDbEntity
  8
D-STR-DIM
370
    -2
100
AcDbBlockReference
  2
_OPEN30
 10
5222.127889264907
 20
3281.923729496818
 30
0.0
 41
20.0
 42
20.0
 43
20.0
 50
180.0
  0
MTEXT
  5
1883
330
1334
100
AcDbEntity
  8
D-STR-DIM
100
AcDbMText
 10
6222.127889264907
 20
3306.923729496818
 30
0.0
 40
30.0
 41
0.0
 71
     5
 72
     1
  1
\A1;2000
 73
     1
 44
1.0
  0
POINT
  5
1884
330
1334
100
AcDbEntity
  8
DEFPOINTS
 62
     0
100
AcDbPoint
 10
7222.127889264907
 20
3036.567814946273
 30
0.0
  0
POINT
  5
1885
330
1334
100
AcDbEntity
  8
DEFPOINTS
 62
     0
100
AcDbPoint
 10
5222.127889264907
 20
3036.567814946273
 30
0.0
  0
POINT
  5
1886
330
1334
100
AcDbEntity
  8
DEFPOINTS
 62
     0
100
AcDbPoint
 10
5222.127889264907
 20
3281.923729496818
 30
0.0
  0
ENDBLK
  5
133F
330
1334
100
AcDbEntity
  8
0
100
AcDbBlockEnd
  0
BLOCK
  5
145A
330
144E
100
AcDbEntity
  8
0
100
AcDbBlockBegin
  2
*D28
 70
     1
 10
0.0
 20
0.0
 30
0.0
  3
*D28
  1

  0
LINE
  5
18CA
330
144E
100
AcDbEntity
  8
D-STR-DIM
370
    -2
100
AcDbLine
 10
4403.128017481608
 20
2836.567814931273
 30
0.0
 11
4321.802985779046
 21
2836.567814931273
 31
0.0
  0
LINE
  5
18CB
330
144E
100
AcDbEntity
  8
D-STR-DIM
370
    -2
100
AcDbLine
 10
4499.128017436983
 20
2896.567814921873
 30
0.0
 11
4321.802985779046
 21
2896.567814921873
 31
0.0
  0
LINE
  5
18CC
330
144E
100
AcDbEntity
  8
D-STR-DIM
370
    -2
100
AcDbLine
 10
4341.802985779047
 20
2816.567814931273
 30
0.0
 11
4341.802985779047
 21
2796.567814931274
 31
0.0
  0
LINE
  5
18CD
330
144E
100
AcDbEntity
  8
D-STR-DIM
370
    -2
100
AcDbLine
 10
4341.802985779047
 20
2916.567814921873
 30
0.0
 11
4341.802985779047
 21
2936.567814921873
 31
0.0
  0
LINE
  5
18CE
330
144E
100
AcDbEntity
  8
D-STR-DIM
370
    -2
100
AcDbLine
 10
4341.802985779047
 20
2836.567814931273
 30
0.0
 11
4341.802985779047
 21
2896.567814921873
 31
0.0
  0
INSERT
  5
18CF
330
144E
100
AcDbEntity
  8
D-STR-DIM
370
    -2
100
AcDbBlockReference
  2
_OPEN30
 10
4341.802985779047
 20
2836.567814931273
 30
0.0
 41
20.0
 42
20.0
 43
20.0
 50
90.0
  0
INSERT
  5
18D0
330
144E
100
AcDbEntity
  8
D-STR-DIM
370
    -2
100
AcDbBlockReference
  2
_OPEN30
 10
4341.802985779047
 20
2896.567814921873
 30
0.0
 41
20.0
 42
20.0
 43
20.0
 50
270.0
  0
MTEXT
  5
18D1
330
144E
100
AcDbEntity
  8
D-STR-DIM
100
AcDbMText
 10
4316.802985779046
 20
2866.567814926574
 30
0.0
 40
30.0
 41
0.0
 71
     5
 72
     1
  1
\A1;60
 11
0.0000000000000001
 21
1.0
 31
0.0
 73
     1
 44
1.0
  0
POINT
  5
18D2
330
144E
100
AcDbEntity
  8
DEFPOINTS
 62
     0
100
AcDbPoint
 10
4413.128017481608
 20
2836.567814931273
 30
0.0
  0
POINT
  5
18D3
330
144E
100
AcDbEntity
  8
DEFPOINTS
 62
     0
100
AcDbPoint
 10
4509.128017436983
 20
2896.567814921873
 30
0.0
  0
POINT
  5
18D4
330
144E
100
AcDbEntity
  8
DEFPOINTS
 62
     0
100
AcDbPoint
 10
4341.802985779047
 20
2896.567814921873
 30
0.0
  0
ENDBLK
  5
145B
330
144E
100
AcDbEntity
  8
0
100
AcDbBlockEnd
  0
BLOCK
  5
1474
330
146A
100
AcDbEntity
  8
0
100
AcDbBlockBegin
  2
*D29
 70
     1
 10
0.0
 20
0.0
 30
0.0
  3
*D29
  1

  0
LINE
  5
1906
330
146A
100
AcDbEntity
  8
D-STR-DIM
370
    -2
100
AcDbLine
 10
4725.128017497211
 20
2916.56781492772
 30
0.0
 11
4935.704548333719
 21
2916.56781492772
 31
0.0
  0
LINE
  5
1907
330
146A
100
AcDbEntity
  8
D-STR-DIM
370
    -2
100
AcDbLine
 10
4823.12801744161
 20
2836.567814931273
 30
0.0
 11
4935.704548333719
 21
2836.567814931273
 31
0.0
  0
LINE
  5
1908
330
146A
100
AcDbEntity
  8
D-STR-DIM
370
    -2
100
AcDbLine
 10
4915.704548333718
 20
2896.56781492772
 30
0.0
 11
4915.704548333718
 21
2856.567814931273
 31
0.0
  0
INSERT
  5
1909
330
146A
100
AcDbEntity
  8
D-STR-DIM
370
    -2
100
AcDbBlockReference
  2
_OPEN30
 10
4915.704548333718
 20
2916.56781492772
 30
0.0
 41
20.0
 42
20.0
 43
20.0
 50
90.0
  0
INSERT
  5
190A
330
146A
100
AcDbEntity
  8
D-STR-DIM
370
    -2
100
AcDbBlockReference
  2
_OPEN30
 10
4915.704548333718
 20
2836.567814931273
 30
0.0
 41
20.0
 42
20.0
 43
20.0
 50
270.0
  0
MTEXT
  5
190B
330
146A
100
AcDbEntity
  8
D-STR-DIM
100
AcDbMText
 10
4890.704548333718
 20
2876.567814929497
 30
0.0
 40
30.0
 41
0.0
 71
     5
 72
     1
  1
\A1;80
 11
0.0000000000000001
 21
1.0
 31
0.0
 73
     1
 44
1.0
  0
POINT
  5
190C
330
146A
100
AcDbEntity
  8
DEFPOINTS
 62
     0
100
AcDbPoint
 10
4715.128017497211
 20
2916.56781492772
 30
0.0
  0
POINT
  5
190D
330
146A
100
AcDbEntity
  8
DEFPOINTS
 62
     0
100
AcDbPoint
 10
4813.128017441609
 20
2836.567814931273
 30
0.0
  0
POINT
  5
190E
330
146A
100
AcDbEntity
  8
DEFPOINTS
 62
     0
100
AcDbPoint
 10
4915.704548333718
 20
2836.567814931273
 30
0.0
  0
ENDBLK
  5
1475
330
146A
100
AcDbEntity
  8
0
100
AcDbBlockEnd
  0
BLOCK
  5
14FE
330
14F4
100
AcDbEntity
  8
0
100
AcDbBlockBegin
  2
*D30
 70
     1
 10
0.0
 20
0.0
 30
0.0
  3
*D30
  1

  0
LINE
  5
1887
330
14F4
100
AcDbEntity
  8
D-STR-DIM
370
    -2
100
AcDbLine
 10
7222.127889264907
 20
1749.05370537003
 30
0.0
 11
7222.127889264907
 21
2004.409619920575
 31
0.0
  0
LINE
  5
1888
330
14F4
100
AcDbEntity
  8
D-STR-DIM
370
    -2
100
AcDbLine
 10
5222.127889264907
 20
1749.05370537003
 30
0.0
 11
5222.127889264907
 21
2004.409619920575
 31
0.0
  0
LINE
  5
1889
330
14F4
100
AcDbEntity
  8
D-STR-DIM
370
    -2
100
AcDbLine
 10
7202.127889264907
 20
1984.409619920575
 30
0.0
 11
5242.127889264907
 21
1984.409619920575
 31
0.0
  0
INSERT
  5
188A
330
14F4
100
AcDbEntity
  8
D-STR-DIM
370
    -2
100
AcDbBlockReference
  2
_OPEN30
 10
7222.127889264907
 20
1984.409619920575
 30
0.0
 41
20.0
 42
20.0
 43
20.0
  0
INSERT
  5
188B
330
14F4
100
AcDbEntity
  8
D-STR-DIM
370
    -2
100
AcDbBlockReference
  2
_OPEN30
 10
5222.127889264907
 20
1984.409619920575
 30
0.0
 41
20.0
 42
20.0
 43
20.0
 50
180.0
  0
MTEXT
  5
188C
330
14F4
100
AcDbEntity
  8
D-STR-DIM
100
AcDbMText
 10
6222.127889264907
 20
2009.409619920575
 30
0.0
 40
30.0
 41
0.0
 71
     5
 72
     1
  1
\A1;2000
 73
     1
 44
1.0
  0
POINT
  5
188D
330
14F4
100
AcDbEntity
  8
DEFPOINTS
 62
     0
100
AcDbPoint
 10
7222.127889264907
 20
1739.053705370031
 30
0.0
  0
POINT
  5
188E
330
14F4
100
AcDbEntity
  8
DEFPOINTS
 62
     0
100
AcDbPoint
 10
5222.127889264907
 20
1739.053705370031
 30
0.0
  0
POINT
  5
188F
330
14F4
100
AcDbEntity
  8
DEFPOINTS
 62
     0
100
AcDbPoint
 10
5222.127889264907
 20
1984.409619920575
 30
0.0
  0
ENDBLK
  5
14FF
330
14F4
100
AcDbEntity
  8
0
100
AcDbBlockEnd
  0
BLOCK
  5
150A
330
1500
100
AcDbEntity
  8
0
100
AcDbBlockBegin
  2
*D31
 70
     1
 10
0.0
 20
0.0
 30
0.0
  3
*D31
  1

  0
LINE
  5
1899
330
1500
100
AcDbEntity
  8
D-STR-DIM
370
    -2
100
AcDbLine
 10
4723.128017450608
 20
1549.05370535503
 30
0.0
 11
4723.128017450608
 21
1889.231643895928
 31
0.0
  0
LINE
  5
189A
330
1500
100
AcDbEntity
  8
D-STR-DIM
370
    -2
100
AcDbLine
 10
4813.128017441609
 20
1549.05370535503
 30
0.0
 11
4813.128017441609
 21
1889.231643895928
 31
0.0
  0
LINE
  5
189B
330
1500
100
AcDbEntity
  8
D-STR-DIM
370
    -2
100
AcDbLine
 10
4743.128017450609
 20
1869.231643895927
 30
0.0
 11
4793.128017441609
 21
1869.231643895927
 31
0.0
  0
INSERT
  5
189C
330
1500
100
AcDbEntity
  8
D-STR-DIM
370
    -2
100
AcDbBlockReference
  2
_OPEN30
 10
4723.128017450608
 20
1869.231643895927
 30
0.0
 41
20.0
 42
20.0
 43
20.0
 50
180.0
  0
INSERT
  5
189D
330
1500
100
AcDbEntity
  8
D-STR-DIM
370
    -2
100
AcDbBlockReference
  2
_OPEN30
 10
4813.128017441609
 20
1869.231643895927
 30
0.0
 41
20.0
 42
20.0
 43
20.0
  0
MTEXT
  5
189E
330
1500
100
AcDbEntity
  8
D-STR-DIM
100
AcDbMText
 10
4768.128017446109
 20
1894.231643895927
 30
0.0
 40
30.0
 41
0.0
 71
     5
 72
     1
  1
\A1;90
 73
     1
 44
1.0
  0
POINT
  5
189F
330
1500
100
AcDbEntity
  8
DEFPOINTS
 62
     0
100
AcDbPoint
 10
4723.128017450608
 20
1539.05370535503
 30
0.0
  0
POINT
  5
18A0
330
1500
100
AcDbEntity
  8
DEFPOINTS
 62
     0
100
AcDbPoint
 10
4813.128017441609
 20
1539.05370535503
 30
0.0
  0
POINT
  5
18A1
330
1500
100
AcDbEntity
  8
DEFPOINTS
 62
     0
100
AcDbPoint
 10
4813.128017441609
 20
1869.231643895927
 30
0.0
  0
ENDBLK
  5
150B
330
1500
100
AcDbEntity
  8
0
100
AcDbBlockEnd
  0
BLOCK
  5
1516
330
150C
100
AcDbEntity
  8
0
100
AcDbBlockBegin
  2
*D32
 70
     1
 10
0.0
 20
0.0
 30
0.0
  3
*D32
  1

  0
LINE
  5
18B8
330
150C
100
AcDbEntity
  8
D-STR-DIM
370
    -2
100
AcDbLine
 10
4413.128017481608
 20
1549.05370535503
 30
0.0
 11
4413.128017481608
 21
2019.409682456827
 31
0.0
  0
LINE
  5
18B9
330
150C
100
AcDbEntity
  8
D-STR-DIM
370
    -2
100
AcDbLine
 10
4813.128017441609
 20
1549.05370535503
 30
0.0
 11
4813.128017441609
 21
2019.409682456827
 31
0.0
  0
LINE
  5
18BA
330
150C
100
AcDbEntity
  8
D-STR-DIM
370
    -2
100
AcDbLine
 10
4433.128017481609
 20
1999.409682456827
 30
0.0
 11
4793.128017441609
 21
1999.409682456827
 31
0.0
  0
INSERT
  5
18BB
330
150C
100
AcDbEntity
  8
D-STR-DIM
370
    -2
100
AcDbBlockReference
  2
_OPEN30
 10
4413.128017481608
 20
1999.409682456827
 30
0.0
 41
20.0
 42
20.0
 43
20.0
 50
180.0
  0
INSERT
  5
18BC
330
150C
100
AcDbEntity
  8
D-STR-DIM
370
    -2
100
AcDbBlockReference
  2
_OPEN30
 10
4813.128017441609
 20
1999.409682456827
 30
0.0
 41
20.0
 42
20.0
 43
20.0
  0
MTEXT
  5
18BD
330
150C
100
AcDbEntity
  8
D-STR-DIM
100
AcDbMText
 10
4613.128017461608
 20
2024.409682456826
 30
0.0
 40
30.0
 41
0.0
 71
     5
 72
     1
  1
\A1;400
 73
     1
 44
1.0
  0
POINT
  5
18BE
330
150C
100
AcDbEntity
  8
DEFPOINTS
 62
     0
100
AcDbPoint
 10
4413.128017481608
 20
1539.05370535503
 30
0.0
  0
POINT
  5
18BF
330
150C
100
AcDbEntity
  8
DEFPOINTS
 62
     0
100
AcDbPoint
 10
4813.128017441609
 20
1539.05370535503
 30
0.0
  0
POINT
  5
18C0
330
150C
100
AcDbEntity
  8
DEFPOINTS
 62
     0
100
AcDbPoint
 10
4813.128017441609
 20
1999.409682456827
 30
0.0
  0
ENDBLK
  5
1517
330
150C
100
AcDbEntity
  8
0
100
AcDbBlockEnd
  0
BLOCK
  5
1522
330
1518
100
AcDbEntity
  8
0
100
AcDbBlockBegin
  2
*D33
 70
     1
 10
0.0
 20
0.0
 30
0.0
  3
*D33
  1

  0
LINE
  5
18C1
330
1518
100
AcDbEntity
  8
D-STR-DIM
370
    -2
100
AcDbLine
 10
4413.128017481608
 20
1549.05370535503
 30
0.0
 11
4413.128017481608
 21
1889.231643895928
 31
0.0
  0
LINE
  5
18C2
330
1518
100
AcDbEntity
  8
D-STR-DIM
370
    -2
100
AcDbLine
 10
4503.128017472607
 20
1549.05370535503
 30
0.0
 11
4503.128017472607
 21
1889.231643895928
 31
0.0
  0
LINE
  5
18C3
330
1518
100
AcDbEntity
  8
D-STR-DIM
370
    -2
100
AcDbLine
 10
4433.128017481609
 20
1869.231643895927
 30
0.0
 11
4483.128017472608
 21
1869.231643895927
 31
0.0
  0
INSERT
  5
18C4
330
1518
100
AcDbEntity
  8
D-STR-DIM
370
    -2
100
AcDbBlockReference
  2
_OPEN30
 10
4413.128017481608
 20
1869.231643895927
 30
0.0
 41
20.0
 42
20.0
 43
20.0
 50
180.0
  0
INSERT
  5
18C5
330
1518
100
AcDbEntity
  8
D-STR-DIM
370
    -2
100
AcDbBlockReference
  2
_OPEN30
 10
4503.128017472607
 20
1869.231643895927
 30
0.0
 41
20.0
 42
20.0
 43
20.0
  0
MTEXT
  5
18C6
330
1518
100
AcDbEntity
  8
D-STR-DIM
100
AcDbMText
 10
4458.128017477108
 20
1894.231643895927
 30
0.0
 40
30.0
 41
0.0
 71
     5
 72
     1
  1
\A1;90
 73
     1
 44
1.0
  0
POINT
  5
18C7
330
1518
100
AcDbEntity
  8
DEFPOINTS
 62
     0
100
AcDbPoint
 10
4413.128017481608
 20
1539.05370535503
 30
0.0
  0
POINT
  5
18C8
330
1518
100
AcDbEntity
  8
DEFPOINTS
 62
     0
100
AcDbPoint
 10
4503.128017472607
 20
1539.05370535503
 30
0.0
  0
POINT
  5
18C9
330
1518
100
AcDbEntity
  8
DEFPOINTS
 62
     0
100
AcDbPoint
 10
4503.128017472607
 20
1869.231643895927
 30
0.0
  0
ENDBLK
  5
1523
330
1518
100
AcDbEntity
  8
0
100
AcDbBlockEnd
  0
BLOCK
  5
1530
330
1524
100
AcDbEntity
  8
0
100
AcDbBlockBegin
  2
*D34
 70
     1
 10
0.0
 20
0.0
 30
0.0
  3
*D34
  1

  0
LINE
  5
18A2
330
1524
100
AcDbEntity
  8
D-STR-DIM
370
    -2
100
AcDbLine
 10
4703.127891061763
 20
1749.053705335029
 30
0.0
 11
4703.127891061763
 21
1889.231643895928
 31
0.0
  0
LINE
  5
18A3
330
1524
100
AcDbEntity
  8
D-STR-DIM
370
    -2
100
AcDbLine
 10
4723.128017450608
 20
1549.05370535503
 30
0.0
 11
4723.128017450608
 21
1889.231643895928
 31
0.0
  0
LINE
  5
18A4
330
1524
100
AcDbEntity
  8
D-STR-DIM
370
    -2
100
AcDbLine
 10
4683.127891061763
 20
1869.231643895927
 30
0.0
 11
4663.127891061763
 21
1869.231643895927
 31
0.0
  0
LINE
  5
18A5
330
1524
100
AcDbEntity
  8
D-STR-DIM
370
    -2
100
AcDbLine
 10
4743.128017450609
 20
1869.231643895927
 30
0.0
 11
4763.128017450609
 21
1869.231643895927
 31
0.0
  0
MTEXT
  5
18A6
330
1524
100
AcDbEntity
  8
D-STR-DIM
100
AcDbMText
 10
4713.127954256186
 20
1919.231643895927
 30
0.0
 40
30.0
 41
0.0
 71
     5
 72
     1
  1
\A1;20
 73
     1
 44
1.0
  0
LINE
  5
18A7
330
1524
100
AcDbEntity
  8
D-STR-DIM
370
    -2
100
AcDbLine
 10
4703.127891061763
 20
1869.231643895927
 30
0.0
 11
4723.128017450608
 21
1869.231643895927
 31
0.0
  0
INSERT
  5
18A8
330
1524
100
AcDbEntity
  8
D-STR-DIM
370
    -2
100
AcDbBlockReference
  2
_OPEN30
 10
4703.127891061763
 20
1869.231643895927
 30
0.0
 41
20.0
 42
20.0
 43
20.0
  0
INSERT
  5
18A9
330
1524
100
AcDbEntity
  8
D-STR-DIM
370
    -2
100
AcDbBlockReference
  2
_OPEN30
 10
4723.128017450608
 20
1869.231643895927
 30
0.0
 41
20.0
 42
20.0
 43
20.0
 50
180.0
  0
POINT
  5
18AA
330
1524
100
AcDbEntity
  8
DEFPOINTS
 62
     0
100
AcDbPoint
 10
4703.127891061763
 20
1739.05370533503
 30
0.0
  0
POINT
  5
18AB
330
1524
100
AcDbEntity
  8
DEFPOINTS
 62
     0
100
AcDbPoint
 10
4723.128017450608
 20
1539.05370535503
 30
0.0
  0
POINT
  5
18AC
330
1524
100
AcDbEntity
  8
DEFPOINTS
 62
     0
100
AcDbPoint
 10
4723.128017450608
 20
1869.231643895927
 30
0.0
  0
ENDBLK
  5
1531
330
1524
100
AcDbEntity
  8
0
100
AcDbBlockEnd
  0
BLOCK
  5
153E
330
1532
100
AcDbEntity
  8
0
100
AcDbBlockBegin
  2
*D35
 70
     1
 10
0.0
 20
0.0
 30
0.0
  3
*D35
  1

  0
LINE
  5
18AD
330
1532
100
AcDbEntity
  8
D-STR-DIM
370
    -2
100
AcDbLine
 10
4503.128017472607
 20
1549.05370535503
 30
0.0
 11
4503.128017472607
 21
1889.231643895928
 31
0.0
  0
LINE
  5
18AE
330
1532
100
AcDbEntity
  8
D-STR-DIM
370
    -2
100
AcDbLine
 10
4523.1282251674
 20
1749.053705335029
 30
0.0
 11
4523.1282251674
 21
1889.231643895928
 31
0.0
  0
LINE
  5
18AF
330
1532
100
AcDbEntity
  8
D-STR-DIM
370
    -2
100
AcDbLine
 10
4483.128017472608
 20
1869.231643895927
 30
0.0
 11
4463.128017472608
 21
1869.231643895927
 31
0.0
  0
LINE
  5
18B0
330
1532
100
AcDbEntity
  8
D-STR-DIM
370
    -2
100
AcDbLine
 10
4543.128225167399
 20
1869.231643895927
 30
0.0
 11
4563.128225167399
 21
1869.231643895927
 31
0.0
  0
MTEXT
  5
18B1
330
1532
100
AcDbEntity
  8
D-STR-DIM
100
AcDbMText
 10
4513.128121320003
 20
1919.231643895927
 30
0.0
 40
30.0
 41
0.0
 71
     5
 72
     1
  1
\A1;20
 73
     1
 44
1.0
  0
LINE
  5
18B2
330
1532
100
AcDbEntity
  8
D-STR-DIM
370
    -2
100
AcDbLine
 10
4503.128017472607
 20
1869.231643895927
 30
0.0
 11
4523.1282251674
 21
1869.231643895927
 31
0.0
  0
INSERT
  5
18B3
330
1532
100
AcDbEntity
  8
D-STR-DIM
370
    -2
100
AcDbBlockReference
  2
_OPEN30
 10
4503.128017472607
 20
1869.231643895927
 30
0.0
 41
20.0
 42
20.0
 43
20.0
  0
INSERT
  5
18B4
330
1532
100
AcDbEntity
  8
D-STR-DIM
370
    -2
100
AcDbBlockReference
  2
_OPEN30
 10
4523.1282251674
 20
1869.231643895927
 30
0.0
 41
20.0
 42
20.0
 43
20.0
 50
180.0
  0
POINT
  5
18B5
330
1532
100
AcDbEntity
  8
DEFPOINTS
 62
     0
100
AcDbPoint
 10
4503.128017472607
 20
1539.05370535503
 30
0.0
  0
POINT
  5
18B6
330
1532
100
AcDbEntity
  8
DEFPOINTS
 62
     0
100
AcDbPoint
 10
4523.1282251674
 20
1739.05370533503
 30
0.0
  0
POINT
  5
18B7
330
1532
100
AcDbEntity
  8
DEFPOINTS
 62
     0
100
AcDbPoint
 10
4523.1282251674
 20
1869.231643895927
 30
0.0
  0
ENDBLK
  5
153F
330
1532
100
AcDbEntity
  8
0
100
AcDbBlockEnd
  0
BLOCK
  5
154A
330
1540
100
AcDbEntity
  8
0
100
AcDbBlockBegin
  2
*D36
 70
     1
 10
0.0
 20
0.0
 30
0.0
  3
*D36
  1

  0
LINE
  5
1890
330
1540
100
AcDbEntity
  8
D-STR-DIM
370
    -2
100
AcDbLine
 10
4523.1282251674
 20
1749.053705335029
 30
0.0
 11
4523.1282251674
 21
1889.231643895928
 31
0.0
  0
LINE
  5
1891
330
1540
100
AcDbEntity
  8
D-STR-DIM
370
    -2
100
AcDbLine
 10
4703.127891061763
 20
1749.053705335029
 30
0.0
 11
4703.127891061763
 21
1889.231643895928
 31
0.0
  0
LINE
  5
1892
330
1540
100
AcDbEntity
  8
D-STR-DIM
370
    -2
100
AcDbLine
 10
4543.128225167399
 20
1869.231643895927
 30
0.0
 11
4683.127891061763
 21
1869.231643895927
 31
0.0
  0
INSERT
  5
1893
330
1540
100
AcDbEntity
  8
D-STR-DIM
370
    -2
100
AcDbBlockReference
  2
_OPEN30
 10
4523.1282251674
 20
1869.231643895927
 30
0.0
 41
20.0
 42
20.0
 43
20.0
 50
180.0
  0
INSERT
  5
1894
330
1540
100
AcDbEntity
  8
D-STR-DIM
370
    -2
100
AcDbBlockReference
  2
_OPEN30
 10
4703.127891061763
 20
1869.231643895927
 30
0.0
 41
20.0
 42
20.0
 43
20.0
  0
MTEXT
  5
1895
330
1540
100
AcDbEntity
  8
D-STR-DIM
100
AcDbMText
 10
4613.128058114581
 20
1894.231643895927
 30
0.0
 40
30.0
 41
0.0
 71
     5
 72
     1
  1
\A1;180
 73
     1
 44
1.0
  0
POINT
  5
1896
330
1540
100
AcDbEntity
  8
DEFPOINTS
 62
     0
100
AcDbPoint
 10
4523.1282251674
 20
1739.05370533503
 30
0.0
  0
POINT
  5
1897
330
1540
100
AcDbEntity
  8
DEFPOINTS
 62
     0
100
AcDbPoint
 10
4703.127891061763
 20
1739.05370533503
 30
0.0
  0
POINT
  5
1898
330
1540
100
AcDbEntity
  8
DEFPOINTS
 62
     0
100
AcDbPoint
 10
4703.127891061763
 20
1869.231643895927
 30
0.0
  0
ENDBLK
  5
154B
330
1540
100
AcDbEntity
  8
0
100
AcDbBlockEnd
  0
BLOCK
  5
1556
330
154C
100
AcDbEntity
  8
0
100
AcDbBlockBegin
  2
*D37
 70
     1
 10
0.0
 20
0.0
 30
0.0
  3
*D37
  1

  0
LINE
  5
182B
330
154C
100
AcDbEntity
  8
D-STR-DIM
370
    -2
100
AcDbLine
 10
4513.128225167399
 20
1739.05370533503
 30
0.0
 11
4228.128017482108
 21
1739.05370533503
 31
0.0
  0
LINE
  5
182C
330
154C
100
AcDbEntity
  8
D-STR-DIM
370
    -2
100
AcDbLine
 10
4403.128017481608
 20
1539.05370535503
 30
0.0
 11
4228.128017482108
 21
1539.05370535503
 31
0.0
  0
LINE
  5
182D
330
154C
100
AcDbEntity
  8
D-STR-DIM
370
    -2
100
AcDbLine
 10
4248.128017482108
 20
1719.05370533503
 30
0.0
 11
4248.128017482108
 21
1559.05370535503
 31
0.0
  0
INSERT
  5
182E
330
154C
100
AcDbEntity
  8
D-STR-DIM
370
    -2
100
AcDbBlockReference
  2
_OPEN30
 10
4248.128017482108
 20
1739.05370533503
 30
0.0
 41
20.0
 42
20.0
 43
20.0
 50
90.0
  0
INSERT
  5
182F
330
154C
100
AcDbEntity
  8
D-STR-DIM
370
    -2
100
AcDbBlockReference
  2
_OPEN30
 10
4248.128017482108
 20
1539.05370535503
 30
0.0
 41
20.0
 42
20.0
 43
20.0
 50
270.0
  0
MTEXT
  5
1830
330
154C
100
AcDbEntity
  8
D-STR-DIM
100
AcDbMText
 10
4223.128017482109
 20
1639.05370534503
 30
0.0
 40
30.0
 41
0.0
 71
     5
 72
     1
  1
\A1;200
 11
0.0000000000000001
 21
1.0
 31
0.0
 73
     1
 44
1.0
  0
POINT
  5
1831
330
154C
100
AcDbEntity
  8
DEFPOINTS
 62
     0
100
AcDbPoint
 10
4523.1282251674
 20
1739.05370533503
 30
0.0
  0
POINT
  5
1832
330
154C
100
AcDbEntity
  8
DEFPOINTS
 62
     0
100
AcDbPoint
 10
4413.128017481608
 20
1539.05370535503
 30
0.0
  0
POINT
  5
1833
330
154C
100
AcDbEntity
  8
DEFPOINTS
 62
     0
100
AcDbPoint
 10
4248.128017482108
 20
1539.05370535503
 30
0.0
  0
ENDBLK
  5
1557
330
154C
100
AcDbEntity
  8
0
100
AcDbBlockEnd
  0
BLOCK
  5
1562
330
1558
100
AcDbEntity
  8
0
100
AcDbBlockBegin
  2
*D38
 70
     1
 10
0.0
 20
0.0
 30
0.0
  3
*D38
  1

  0
LINE
  5
1834
330
1558
100
AcDbEntity
  8
D-STR-DIM
370
    -2
100
AcDbLine
 10
4513.128225167399
 20
1739.05370533503
 30
0.0
 11
4123.709085951785
 21
1739.05370533503
 31
0.0
  0
LINE
  5
1835
330
1558
100
AcDbEntity
  8
D-STR-DIM
370
    -2
100
AcDbLine
 10
4398.128017482108
 20
1389.053705370031
 30
0.0
 11
4123.709085951785
 21
1389.053705370031
 31
0.0
  0
LINE
  5
1836
330
1558
100
AcDbEntity
  8
D-STR-DIM
370
    -2
100
AcDbLine
 10
4143.709085951786
 20
1719.05370533503
 30
0.0
 11
4143.709085951786
 21
1409.05370537003
 31
0.0
  0
INSERT
  5
1837
330
1558
100
AcDbEntity
  8
D-STR-DIM
370
    -2
100
AcDbBlockReference
  2
_OPEN30
 10
4143.709085951786
 20
1739.05370533503
 30
0.0
 41
20.0
 42
20.0
 43
20.0
 50
90.0
  0
INSERT
  5
1838
330
1558
100
AcDbEntity
  8
D-STR-DIM
370
    -2
100
AcDbBlockReference
  2
_OPEN30
 10
4143.709085951786
 20
1389.053705370031
 30
0.0
 41
20.0
 42
20.0
 43
20.0
 50
270.0
  0
MTEXT
  5
1839
330
1558
100
AcDbEntity
  8
D-STR-DIM
100
AcDbMText
 10
4118.709085951786
 20
1564.053705352531
 30
0.0
 40
30.0
 41
0.0
 71
     5
 72
     1
  1
\A1;350
 11
0.0000000000000001
 21
1.0
 31
0.0
 73
     1
 44
1.0
  0
POINT
  5
183A
330
1558
100
AcDbEntity
  8
DEFPOINTS
 62
     0
100
AcDbPoint
 10
4523.1282251674
 20
1739.05370533503
 30
0.0
  0
POINT
  5
183B
330
1558
100
AcDbEntity
  8
DEFPOINTS
 62
     0
100
AcDbPoint
 10
4408.128017482108
 20
1389.053705370031
 30
0.0
  0
POINT
  5
183C
330
1558
100
AcDbEntity
  8
DEFPOINTS
 62
     0
100
AcDbPoint
 10
4143.709085951786
 20
1389.053705370031
 30
0.0
  0
ENDBLK
  5
1563
330
1558
100
AcDbEntity
  8
0
100
AcDbBlockEnd
  0
BLOCK
  5
156E
330
1564
100
AcDbEntity
  8
0
100
AcDbBlockBegin
  2
*D39
 70
     1
 10
0.0
 20
0.0
 30
0.0
  3
*D39
  1

  0
LINE
  5
1810
330
1564
100
AcDbEntity
  8
D-STR-DIM
370
    -2
100
AcDbLine
 10
4403.128017481608
 20
1539.05370535503
 30
0.0
 11
4228.128017482108
 21
1539.05370535503
 31
0.0
  0
LINE
  5
1811
330
1564
100
AcDbEntity
  8
D-STR-DIM
370
    -2
100
AcDbLine
 10
4398.128017482108
 20
1389.053705370031
 30
0.0
 11
4228.128017482108
 21
1389.053705370031
 31
0.0
  0
LINE
  5
1812
330
1564
100
AcDbEntity
  8
D-STR-DIM
370
    -2
100
AcDbLine
 10
4248.128017482108
 20
1519.05370535503
 30
0.0
 11
4248.128017482108
 21
1409.05370537003
 31
0.0
  0
INSERT
  5
1813
330
1564
100
AcDbEntity
  8
D-STR-DIM
370
    -2
100
AcDbBlockReference
  2
_OPEN30
 10
4248.128017482108
 20
1539.05370535503
 30
0.0
 41
20.0
 42
20.0
 43
20.0
 50
90.0
  0
INSERT
  5
1814
330
1564
100
AcDbEntity
  8
D-STR-DIM
370
    -2
100
AcDbBlockReference
  2
_OPEN30
 10
4248.128017482108
 20
1389.053705370031
 30
0.0
 41
20.0
 42
20.0
 43
20.0
 50
270.0
  0
MTEXT
  5
1815
330
1564
100
AcDbEntity
  8
D-STR-DIM
100
AcDbMText
 10
4223.128017482109
 20
1464.053705362531
 30
0.0
 40
30.0
 41
0.0
 71
     5
 72
     1
  1
\A1;150
 11
0.0000000000000001
 21
1.0
 31
0.0
 73
     1
 44
1.0
  0
POINT
  5
1816
330
1564
100
AcDbEntity
  8
DEFPOINTS
 62
     0
100
AcDbPoint
 10
4413.128017481608
 20
1539.05370535503
 30
0.0
  0
POINT
  5
1817
330
1564
100
AcDbEntity
  8
DEFPOINTS
 62
     0
100
AcDbPoint
 10
4408.128017482108
 20
1389.053705370031
 30
0.0
  0
POINT
  5
1818
330
1564
100
AcDbEntity
  8
DEFPOINTS
 62
     0
100
AcDbPoint
 10
4248.128017482108
 20
1389.053705370031
 30
0.0
  0
ENDBLK
  5
156F
330
1564
100
AcDbEntity
  8
0
100
AcDbBlockEnd
  0
BLOCK
  5
15DA
330
15CE
100
AcDbEntity
  8
0
100
AcDbBlockBegin
  2
*D40
 70
     1
 10
0.0
 20
0.0
 30
0.0
  3
*D40
  1

  0
LINE
  5
1805
330
15CE
100
AcDbEntity
  8
D-STR-DIM
370
    -2
100
AcDbLine
 10
4403.128017481608
 20
1539.05370535503
 30
0.0
 11
4321.802985779046
 21
1539.05370535503
 31
0.0
  0
LINE
  5
1806
330
15CE
100
AcDbEntity
  8
D-STR-DIM
370
    -2
100
AcDbLine
 10
4403.128017481608
 20
1559.053705353031
 30
0.0
 11
4321.802985779046
 21
1559.053705353031
 31
0.0
  0
LINE
  5
1807
330
15CE
100
AcDbEntity
  8
D-STR-DIM
370
    -2
100
AcDbLine
 10
4341.802985779047
 20
1519.05370535503
 30
0.0
 11
4341.802985779047
 21
1499.05370535503
 31
0.0
  0
LINE
  5
1808
330
15CE
100
AcDbEntity
  8
D-STR-DIM
370
    -2
100
AcDbLine
 10
4341.802985779047
 20
1579.053705353031
 30
0.0
 11
4341.802985779047
 21
1599.053705353031
 31
0.0
  0
MTEXT
  5
1809
330
15CE
100
AcDbEntity
  8
D-STR-DIM
100
AcDbMText
 10
4291.802985779047
 20
1549.053705354031
 30
0.0
 40
30.0
 41
0.0
 71
     5
 72
     1
  1
\A1;20
 11
0.0000000000000001
 21
1.0
 31
0.0
 73
     1
 44
1.0
  0
LINE
  5
180A
330
15CE
100
AcDbEntity
  8
D-STR-DIM
370
    -2
100
AcDbLine
 10
4341.802985779047
 20
1539.05370535503
 30
0.0
 11
4341.802985779047
 21
1559.053705353031
 31
0.0
  0
INSERT
  5
180B
330
15CE
100
AcDbEntity
  8
D-STR-DIM
370
    -2
100
AcDbBlockReference
  2
_OPEN30
 10
4341.802985779047
 20
1539.05370535503
 30
0.0
 41
20.0
 42
20.0
 43
20.0
 50
90.0
  0
INSERT
  5
180C
330
15CE
100
AcDbEntity
  8
D-STR-DIM
370
    -2
100
AcDbBlockReference
  2
_OPEN30
 10
4341.802985779047
 20
1559.053705353031
 30
0.0
 41
20.0
 42
20.0
 43
20.0
 50
270.0
  0
POINT
  5
180D
330
15CE
100
AcDbEntity
  8
DEFPOINTS
 62
     0
100
AcDbPoint
 10
4413.128017481608
 20
1539.05370535503
 30
0.0
  0
POINT
  5
180E
330
15CE
100
AcDbEntity
  8
DEFPOINTS
 62
     0
100
AcDbPoint
 10
4413.128017481608
 20
1559.053705353031
 30
0.0
  0
POINT
  5
180F
330
15CE
100
AcDbEntity
  8
DEFPOINTS
 62
     0
100
AcDbPoint
 10
4341.802985779047
 20
1559.053705353031
 30
0.0
  0
ENDBLK
  5
15DB
330
15CE
100
AcDbEntity
  8
0
100
AcDbBlockEnd
  0
ENDSEC
  0
SECTION
  2
ENTITIES
  0
LINE
  5
68E
330
1F
100
AcDbEntity
  8
D-TTL
100
AcDbLine
 10
8580.683636427217
 20
6077.530092335418
 30
0.0
 11
8580.683636427217
 21
137.5300923354177
 31
0.0
  0
LINE
  5
68F
330
1F
100
AcDbEntity
  8
D-TTL
100
AcDbLine
 10
180.6836364272168
 20
6077.530092335418
 30
0.0
 11
180.6836364272168
 21
137.5300923354177
 31
0.0
  0
LINE
  5
690
330
1F
100
AcDbEntity
  8
D-TTL
100
AcDbLine
 10
180.6836364272168
 20
137.5300923354177
 30
0.0
 11
8580.683636427217
 21
137.5300923354177
 31
0.0
  0
LINE
  5
69B
330
1F
100
AcDbEntity
  8
D-TTL
100
AcDbLine
 10
180.6836364272168
 20
6077.530092335418
 30
0.0
 11
8580.683636427217
 21
6077.530092335418
 31
0.0
  0
LINE
  5
6BB
330
1F
100
AcDbEntity
  8
D-STR-DIM
100
AcDbLine
 10
2205.170957405596
 20
3200.979792152785
 30
0.0
 11
2205.170957405596
 21
2540.979792152785
 31
0.0
  0
LINE
  5
6BC
330
1F
100
AcDbEntity
  8
D-STR-DIM
100
AcDbLine
 10
2105.170957405596
 20
3200.979792152785
 30
0.0
 11
2105.170957405596
 21
2540.979792152785
 31
0.0
  0
LINE
  5
6BD
330
1F
100
AcDbEntity
  8
D-STR-DIM
100
AcDbLine
 10
1805.170957405596
 20
3200.979792152785
 30
0.0
 11
1805.170957405596
 21
2540.979792152785
 31
0.0
  0
LINE
  5
6BE
330
1F
100
AcDbEntity
  8
D-STR-DIM
100
AcDbLine
 10
2805.170957405596
 20
3200.979792152785
 30
0.0
 11
2805.170957405596
 21
2540.979792152786
 31
0.0
  0
LINE
  5
6BF
330
1F
100
AcDbEntity
  8
D-STR-DIM
100
AcDbLine
 10
2505.170957405596
 20
3200.979792152785
 30
0.0
 11
2505.170957405596
 21
2540.979792152785
 31
0.0
  0
LINE
  5
6C0
330
1F
100
AcDbEntity
  8
D-STR-DIM
100
AcDbLine
 10
1505.170957405596
 20
3200.979792152785
 30
0.0
 11
1505.170957405596
 21
2540.979792152785
 31
0.0
  0
MTEXT
  5
7E0
330
1F
100
AcDbEntity
  8
D-STR-TXT
370
    -3
100
AcDbMText
 10
5053.363818267623
 20
3646.014061062161
 30
0.0
 40
50.0
 41
0.0
 71
     5
 72
     1
  1
{\L水抜き}
 73
     1
 44
1.0
  0
MTEXT
  5
7E1
330
1F
100
AcDbEntity
  8
D-STR-TXT
370
    -3
100
AcDbMText
 10
5150.317018954062
 20
3572.932717520147
 30
0.0
 40
50.0
 41
0.0
 71
     5
 72
     1
  1
S=1/10
 73
     1
 44
1.0
  0
LINE
  5
7E2
330
1F
100
AcDbEntity
  8
D-STR-DIM
100
AcDbLine
 10
1505.170957405596
 20
2780.979792152785
 30
0.0
 11
2805.170957405596
 21
2780.979792152784
 31
0.0
  0
LINE
  5
7E3
330
1F
100
AcDbEntity
  8
D-STR-DIM
100
AcDbLine
 10
1505.170957405596
 20
2700.979792152785
 30
0.0
 11
2805.170957405596
 21
2700.979792152786
 31
0.0
  0
LINE
  5
7E4
330
1F
100
AcDbEntity
  8
D-STR-DIM
100
AcDbLine
 10
1505.170957405596
 20
2620.979792152785
 30
0.0
 11
2805.170957405596
 21
2620.979792152786
 31
0.0
  0
LINE
  5
7E5
330
1F
100
AcDbEntity
  8
D-STR-DIM
100
AcDbLine
 10
1505.170957405596
 20
2540.979792152785
 30
0.0
 11
2805.170957405596
 21
2540.979792152786
 31
0.0
  0
DIMENSION
  5
856
330
1F
100
AcDbEntity
  8
D-STR-DIM
 48
10.0
100
AcDbDimension
  2
*D2
 10
4523.1282251674
 20
4464.259863048414
 30
0.0
 11
4513.128121320003
 21
4514.259863048414
 31
0.0
 70
    32
 71
     5
 42
20.00020769479033
  3
STANDARD
100
AcDbAlignedDimension
 13
4503.128017472609
 23
4134.081924507516
 33
0.0
 14
4523.1282251674
 24
4334.081924487516
 34
0.0
100
AcDbRotatedDimension
  0
DIMENSION
  5
857
330
1F
100
AcDbEntity
  8
D-STR-DIM
 48
10.0
100
AcDbDimension
  2
*D3
 10
4813.128017441609
 20
4594.437901609313
 30
0.0
 11
4613.128017461608
 21
4619.437901609313
 31
0.0
 70
    32
 71
     5
 42
399.9999999600004
  3
STANDARD
100
AcDbAlignedDimension
 13
4413.128017481608
 23
4134.081924507516
 33
0.0
 14
4813.128017441609
 24
4134.081924507516
 34
0.0
100
AcDbRotatedDimension
  0
DIMENSION
  5
858
330
1F
100
AcDbEntity
  8
D-STR-DIM
 48
10.0
100
AcDbDimension
  2
*D4
 10
4703.127891061763
 20
4464.259863048414
 30
0.0
 11
4613.128058114581
 21
4489.259863048413
 31
0.0
 70
    32
 71
     5
 42
179.9996658943637
  3
STANDARD
100
AcDbAlignedDimension
 13
4523.1282251674
 23
4334.081924487516
 33
0.0
 14
4703.127891061763
 24
4334.081924487516
 34
0.0
100
AcDbRotatedDimension
  0
DIMENSION
  5
85F
330
1F
100
AcDbEntity
  8
D-STR-DIM
100
AcDbDimension
  2
*D5
 10
2430.543615897772
 20
3651.881302319519
 30
0.0
 11
2225.543615918271
 21
3676.881302319519
 31
0.0
 70
    32
 71
     5
 42
409.9999999589999
  3
S10
100
AcDbAlignedDimension
 13
2020.543615938771
 23
3801.881302319519
 33
0.0
 14
2430.543615897772
 24
3801.881302319519
 34
0.0
100
AcDbRotatedDimension
  0
DIMENSION
  5
860
330
1F
100
AcDbEntity
  8
D-STR-DIM
 48
10.0
100
AcDbDimension
  2
*D6
 10
4143.709085951786
 20
3984.081924522516
 30
0.0
 11
4118.709085951785
 21
4159.081924505017
 31
0.0
 70
    32
 71
     5
 42
349.999999964999
  3
STANDARD
100
AcDbAlignedDimension
 13
4523.1282251674
 23
4334.081924487516
 33
0.0
 14
4408.128017482108
 24
3984.081924522516
 34
0.0
 50
90.0
100
AcDbRotatedDimension
  0
DIMENSION
  5
861
330
1F
100
AcDbEntity
  8
D-STR-DIM
 48
10.0
100
AcDbDimension
  2
*D7
 10
4248.128017482108
 20
4134.081924507516
 30
0.0
 11
4223.128017482108
 21
4234.081924497517
 31
0.0
 70
    32
 71
     5
 42
199.9999999799993
  3
STANDARD
100
AcDbAlignedDimension
 13
4523.1282251674
 23
4334.081924487516
 33
0.0
 14
4413.128017481608
 24
4134.081924507516
 34
0.0
 50
90.0
100
AcDbRotatedDimension
  0
DIMENSION
  5
863
330
1F
100
AcDbEntity
  8
D-STR-DIM
 48
10.0
100
AcDbDimension
  2
*D8
 10
4503.128017472609
 20
4464.259863048414
 30
0.0
 11
4458.128017477109
 21
4489.259863048413
 31
0.0
 70
    32
 71
     5
 42
89.99999999100054
  3
STANDARD
100
AcDbAlignedDimension
 13
4413.128017481608
 23
4134.081924507516
 33
0.0
 14
4503.128017472609
 24
4134.081924507516
 34
0.0
100
AcDbRotatedDimension
  0
MTEXT
  5
868
330
1F
100
AcDbEntity
  8
D-STR-DIM
100
AcDbMText
 10
1574.268513118691
 20
3234.519787253884
 30
0.0
 40
30.0
 41
0.0
 71
     5
 72
     1
  1
材料表
 73
     1
 44
1.0
  0
MTEXT
  5
869
330
1F
100
AcDbEntity
  8
D-STR-DIM
100
AcDbMText
 10
2714.060867632342
 20
3234.519787253884
 30
0.0
 40
30.0
 41
0.0
 71
     5
 72
     1
  1
10m当り
 73
     1
 44
1.0
  0
LINE
  5
86A
330
1F
100
AcDbEntity
  8
D-STR-DIM
100
AcDbLine
 10
1505.170957405596
 20
3200.979792152785
 30
0.0
 11
2805.170957405596
 21
3200.979792152785
 31
0.0
  0
LINE
  5
86B
330
1F
100
AcDbEntity
  8
D-STR-DIM
100
AcDbLine
 10
1505.170957405596
 20
3100.979792152785
 30
0.0
 11
2805.170957405596
 21
3100.979792152785
 31
0.0
  0
LINE
  5
86C
330
1F
100
AcDbEntity
  8
D-STR-DIM
100
AcDbLine
 10
1505.170957405596
 20
3020.979792152785
 30
0.0
 11
2805.170957405596
 21
3020.979792152785
 31
0.0
  0
LINE
  5
86D
330
1F
100
AcDbEntity
  8
D-STR-DIM
100
AcDbLine
 10
1505.170957405596
 20
2940.979792152785
 30
0.0
 11
2805.170957405596
 21
2940.979792152785
 31
0.0
  0
LINE
  5
86E
330
1F
100
AcDbEntity
  8
D-STR-DIM
100
AcDbLine
 10
1505.170957405596
 20
2860.979792152785
 30
0.0
 11
2805.170957405596
 21
2860.979792152785
 31
0.0
  0
MTEXT
  5
86F
330
1F
100
AcDbEntity
  8
D-STR-DIM
100
AcDbMText
 10
1655.170957405596
 20
2980.979792152785
 30
0.0
 40
30.0
 41
0.0
 71
     5
 72
     1
  1
敷モルタル
 73
     1
 44
1.0
  0
MTEXT
  5
870
330
1F
100
AcDbEntity
  8
D-STR-DIM
100
AcDbMText
 10
1655.170957405596
 20
2900.979792152785
 30
0.0
 40
30.0
 41
0.0
 71
     5
 72
     1
  1
基礎材
 73
     1
 44
1.0
  0
MTEXT
  5
871
330
1F
100
AcDbEntity
  8
D-STR-DIM
100
AcDbMText
 10
1955.170957405596
 20
2980.979792152785
 30
0.0
 40
30.0
 41
0.0
 71
     5
 72
     1
  1
C:S=1:3
 73
     1
 44
1.0
  0
MTEXT
  5
872
330
1F
100
AcDbEntity
  8
D-STR-DIM
100
AcDbMText
 10
1955.170957405596
 20
2900.979792152785
 30
0.0
 40
30.0
 41
0.0
 71
     5
 72
     1
  1
RC-40
 73
     1
 44
1.0
  0
MTEXT
  5
873
330
1F
100
AcDbEntity
  8
D-STR-DIM
100
AcDbMText
 10
1655.170957405596
 20
3060.979792152785
 30
0.0
 40
30.0
 41
0.0
 71
     5
 72
     1
  1
ベース付歩車道境界ブロック
  7
ｽﾀｲﾙ1
 73
     1
 44
1.0
  0
MTEXT
  5
874
330
1F
100
AcDbEntity
  8
D-STR-DIM
100
AcDbMText
 10
1655.170957405596
 20
3150.979792152785
 30
0.0
 40
30.0
 41
0.0
 71
     5
 72
     1
  1
名　称
 73
     1
 44
1.0
  0
MTEXT
  5
875
330
1F
100
AcDbEntity
  8
D-STR-DIM
100
AcDbMText
 10
1955.170957405596
 20
3150.979792152785
 30
0.0
 40
30.0
 41
0.0
 71
     5
 72
     1
  1
規　格
 73
     1
 44
1.0
  0
MTEXT
  5
876
330
1F
100
AcDbEntity
  8
D-STR-DIM
100
AcDbMText
 10
1955.170957405596
 20
3060.979792152785
 30
0.0
 40
30.0
 41
0.0
 71
     5
 72
     1
  1
標準
 73
     1
 44
1.0
  0
MTEXT
  5
877
330
1F
100
AcDbEntity
  8
D-STR-DIM
100
AcDbMText
 10
2155.170957405596
 20
2980.979792152785
 30
0.0
 40
30.0
 41
0.0
 71
     5
 72
     1
  1
m3
 73
     1
 44
1.0
  0
MTEXT
  5
878
330
1F
100
AcDbEntity
  8
D-STR-DIM
100
AcDbMText
 10
2355.170957405596
 20
2980.979792152785
 30
0.0
 40
30.0
 41
0.0
 71
     5
 72
     1
  1
0.1
 73
     1
 44
1.0
  0
MTEXT
  5
879
330
1F
100
AcDbEntity
  8
D-STR-DIM
100
AcDbMText
 10
2155.170957405596
 20
2900.979792152785
 30
0.0
 40
30.0
 41
0.0
 71
     5
 72
     1
  1
m3
 73
     1
 44
1.0
  0
MTEXT
  5
87A
330
1F
100
AcDbEntity
  8
D-STR-DIM
100
AcDbMText
 10
2355.170957405596
 20
2900.979792152785
 30
0.0
 40
30.0
 41
0.0
 71
     5
 72
     1
  1
4.1
 73
     1
 44
1.0
  0
MTEXT
  5
87B
330
1F
100
AcDbEntity
  8
D-STR-DIM
100
AcDbMText
 10
2155.170957405596
 20
3150.979792152785
 30
0.0
 40
30.0
 41
0.0
 71
     5
 72
     1
  1
単位
 73
     1
 44
1.0
  0
MTEXT
  5
87C
330
1F
100
AcDbEntity
  8
D-STR-DIM
100
AcDbMText
 10
2355.170957405596
 20
3150.979792152785
 30
0.0
 40
30.0
 41
0.0
 71
     5
 72
     1
  1
数　量
 73
     1
 44
1.0
  0
MTEXT
  5
87D
330
1F
100
AcDbEntity
  8
D-STR-DIM
100
AcDbMText
 10
2355.170957405596
 20
3060.979792152785
 30
0.0
 40
30.0
 41
0.0
 71
     5
 72
     1
  1
5.0
 73
     1
 44
1.0
  0
MTEXT
  5
87E
330
1F
100
AcDbEntity
  8
D-STR-DIM
100
AcDbMText
 10
2155.170957405596
 20
3060.979792152785
 30
0.0
 40
30.0
 41
0.0
 71
     5
 72
     1
  1
本
 73
     1
 44
1.0
  0
MTEXT
  5
87F
330
1F
100
AcDbEntity
  8
D-STR-DIM
100
AcDbMText
 10
2655.170957405596
 20
3150.979792152785
 30
0.0
 40
30.0
 41
0.0
 71
     5
 72
     1
  1
摘　要
 73
     1
 44
1.0
  0
DIMENSION
  5
884
330
1F
100
AcDbEntity
  8
D-STR-DIM
 48
10.0
100
AcDbDimension
  2
*D9
 10
4248.128017482108
 20
3984.081924522516
 30
0.0
 11
4223.128017482108
 21
4059.081924515017
 31
0.0
 70
    32
 71
     5
 42
149.9999999849997
  3
STANDARD
100
AcDbAlignedDimension
 13
4413.128017481608
 23
4134.081924507516
 33
0.0
 14
4408.128017482108
 24
3984.081924522516
 34
0.0
 50
90.0
100
AcDbRotatedDimension
  0
LEADER
  5
892
330
1F
100
AcDbEntity
  8
D-STR-DIM
100
AcDbLeader
  3
S10
 73
     0
 74
     0
 75
     1
 40
36.54822335025381
 41
587.9390862944162
 76
     3
 10
2389.66554873162
 20
4017.048249697566
 30
0.0
 10
2477.860827478518
 20
3950.497903215211
 30
0.0
 10
2502.860827478518
 20
3950.497903215211
 30
0.0
340
893
1001
ACAD
1000
DSTYLE
1002
{
1070
   147
1040
1.0
1070
    77
1070
     1
1002
}
  0
MTEXT
  5
893
102
{ACAD_REACTORS
330
892
102
}
330
1F
100
AcDbEntity
  8
D-STR-DIM
100
AcDbMText
 10
2512.860827478518
 20
3960.497903215211
 30
0.0
 40
30.0
 41
0.0
 71
     7
 72
     1
  1
国土交通省型ベース付歩車道境界ブロック
 73
     1
 44
1.0
  0
DIMENSION
  5
894
330
1F
100
AcDbEntity
  8
D-STR-DIM
 48
10.0
100
AcDbDimension
  2
*D10
 10
2425.543615898272
 20
4391.836856988419
 30
0.0
 11
2225.543615918271
 21
4416.836856988419
 31
0.0
 70
    32
 71
     5
 42
399.9999999600004
  3
STANDARD
100
AcDbAlignedDimension
 13
2025.543615938271
 23
4071.881302304518
 33
0.0
 14
2425.543615898272
 24
4071.881302304518
 34
0.0
100
AcDbRotatedDimension
  0
DIMENSION
  5
895
330
1F
100
AcDbEntity
  8
D-STR-DIM
 48
10.0
100
AcDbDimension
  2
*D11
 10
1858.043545938773
 20
4271.881302284518
 30
0.0
 11
1833.043545938773
 21
4096.881297302019
 31
0.0
 70
    32
 71
     5
 42
350.0000099649992
  3
STANDARD
100
AcDbAlignedDimension
 13
2020.543615938771
 23
3921.881292319519
 33
0.0
 14
2025.543615938271
 24
4271.881302284518
 34
0.0
 50
90.0
100
AcDbRotatedDimension
  0
DIMENSION
  5
896
330
1F
100
AcDbEntity
  8
D-STR-DIM
100
AcDbDimension
  2
*D12
 10
1783.043545938773
 20
3801.881292319519
 30
0.0
 11
1758.043545938773
 21
4036.881297302019
 31
0.0
 70
    32
 71
     5
 42
470.0000099649992
  3
S10
100
AcDbAlignedDimension
 13
2025.543615938271
 23
4271.881302284518
 33
0.0
 14
2020.543615938771
 24
3801.881292319519
 34
0.0
 50
90.0
100
AcDbRotatedDimension
  0
LINE
  5
8A1
330
1F
100
AcDbEntity
  8
D-STR
 62
     0
 48
10.0
100
AcDbLine
 10
2430.543615897772
 20
3901.881302319519
 30
0.0
 11
2020.543615938771
 21
3901.881302319519
 31
0.0
  0
LINE
  5
8A2
330
1F
100
AcDbEntity
  8
D-STR
 62
     0
100
AcDbLine
 10
2020.543615938771
 20
3801.881302319519
 30
0.0
 11
2430.543615897772
 21
3801.881302319519
 31
0.0
  0
DIMENSION
  5
8A5
330
1F
100
AcDbEntity
  8
D-STR-DIM
100
AcDbDimension
  2
*D13
 10
1858.043545938773
 20
3801.881292319519
 30
0.0
 11
1858.043545938773
 21
3851.881297319518
 31
0.0
 70
   160
 71
     5
 42
100.0000099999997
  3
S10
100
AcDbAlignedDimension
 13
2020.543615938771
 23
3901.881302319519
 33
0.0
 14
2020.543615938771
 24
3801.881292319519
 34
0.0
 50
90.0
100
AcDbRotatedDimension
1001
ACAD
1000
DSTYLE
1002
{
1070
   279
1070
     1
1002
}
  0
LINE
  5
8A6
330
1F
100
AcDbEntity
  8
D-STR
 62
     0
100
AcDbLine
 10
2020.543615938771
 20
3901.881302319519
 30
0.0
 11
2020.543615938771
 21
3801.881302319519
 31
0.0
  0
DIMENSION
  5
8A8
330
1F
100
AcDbEntity
  8
D-STR-DIM
 48
10.0
100
AcDbDimension
  2
*D14
 10
1858.043545938773
 20
3921.881292319519
 30
0.0
 11
1858.043545938773
 21
3911.881297319519
 31
0.0
 70
   160
 71
     5
 42
19.99999000000025
  3
STANDARD
100
AcDbAlignedDimension
 13
2020.543615938771
 23
3901.881302319519
 33
0.0
 14
2020.543615938771
 24
3921.881292319519
 34
0.0
 50
90.0
100
AcDbRotatedDimension
1001
ACAD
1000
DSTYLE
1002
{
1070
   279
1070
     1
1002
}
  0
LINE
  5
8A9
330
1F
100
AcDbEntity
  8
D-STR
 62
     0
 48
10.0
100
AcDbLine
 10
2020.543615938771
 20
3921.881302319519
 30
0.0
 11
2020.543615938771
 21
3901.881302319519
 31
0.0
  0
LEADER
  5
8B7
330
1F
100
AcDbEntity
  8
D-STR-DIM
100
AcDbLeader
  3
S10
 73
     0
 74
     0
 75
     1
 40
35.17766497461928
 41
122.4365482233502
 76
     3
 10
2389.66554873162
 20
3873.397349909165
 30
0.0
 10
2477.860827478518
 20
3806.847003426809
 30
0.0
 10
2502.860827478518
 20
3806.847003426809
 30
0.0
340
8B8
1001
ACAD
1000
DSTYLE
1002
{
1070
   147
1040
1.0
1070
    77
1070
     1
1002
}
  0
MTEXT
  5
8B8
102
{ACAD_REACTORS
330
8B7
102
}
330
1F
100
AcDbEntity
  8
D-STR-DIM
100
AcDbMText
 10
2512.860827478518
 20
3816.84700342681
 30
0.0
 40
30.0
 41
0.0
 71
     7
 72
     1
  1
基礎材　
 73
     1
 44
1.0
  0
LINE
  5
8B9
330
1F
100
AcDbEntity
  8
D-STR
 62
     0
 48
10.0
100
AcDbLine
 10
2430.543615897772
 20
3901.881302319519
 30
0.0
 11
2430.543615897772
 21
3801.881302319519
 31
0.0
  0
MTEXT
  5
8BA
330
1F
100
AcDbEntity
  8
D-STR-DIM
100
AcDbMText
 10
2492.694147291066
 20
3767.869865965443
 30
0.0
 40
30.0
 41
0.0
 71
     7
 72
     1
  1
RC-40
 73
     1
 44
1.0
  0
LINE
  5
8BB
330
1F
100
AcDbEntity
  8
D-STR
 62
     0
 48
10.0
100
AcDbLine
 10
2430.543615897772
 20
3921.881302319519
 30
0.0
 11
2430.543615897772
 21
3901.881302319519
 31
0.0
  0
MTEXT
  5
8C7
330
1F
100
AcDbEntity
  8
D-STR-DIM
100
AcDbMText
 10
2606.279116498579
 20
3911.520765753844
 30
0.0
 40
30.0
 41
0.0
 71
     7
 72
     1
  1
標準
 73
     1
 44
1.0
  0
DIMENSION
  5
8DD
330
1F
100
AcDbEntity
  8
D-STR-DIM
 48
10.0
100
AcDbDimension
  2
*D15
 10
4813.128017441609
 20
4464.259863048414
 30
0.0
 11
4768.128017446108
 21
4489.259863048413
 31
0.0
 70
    32
 71
     5
 42
89.99999999100054
  3
STANDARD
100
AcDbAlignedDimension
 13
4723.128017450608
 23
4134.081924507516
 33
0.0
 14
4813.128017441609
 24
4134.081924507516
 34
0.0
100
AcDbRotatedDimension
  0
DIMENSION
  5
8DE
330
1F
100
AcDbEntity
  8
D-STR-DIM
 48
10.0
100
AcDbDimension
  2
*D16
 10
4723.128017450608
 20
4464.259863048414
 30
0.0
 11
4713.127954256186
 21
4514.259863048414
 31
0.0
 70
    32
 71
     5
 42
20.00012638884527
  3
STANDARD
100
AcDbAlignedDimension
 13
4703.127891061763
 23
4334.081924487516
 33
0.0
 14
4723.128017450608
 24
4134.081924507516
 34
0.0
100
AcDbRotatedDimension
  0
DIMENSION
  5
914
330
1F
100
AcDbEntity
  8
D-STR-DIM
 48
10.0
100
AcDbDimension
  2
*D17
 10
5222.127889264907
 20
4579.437839073061
 30
0.0
 11
6222.127889264907
 21
4604.43783907306
 31
0.0
 70
    32
 71
     5
 42
2000.0
  3
STANDARD
100
AcDbAlignedDimension
 13
7222.127889264907
 23
4334.081924522517
 33
0.0
 14
5222.127889264907
 24
4334.081924522517
 34
0.0
100
AcDbRotatedDimension
  0
MTEXT
  5
91D
330
1F
100
AcDbEntity
  8
D-STR-TXT
370
    -3
100
AcDbMText
 10
5210.317022150769
 20
4880.446927061389
 30
0.0
 40
50.0
 41
0.0
 71
     5
 72
     1
  1
S=1/10
 73
     1
 44
1.0
  0
MTEXT
  5
91E
330
1F
100
AcDbEntity
  8
D-STR-TXT
370
    -3
100
AcDbMText
 10
5113.363821464329
 20
4953.528270603403
 30
0.0
 40
50.0
 41
0.0
 71
     5
 72
     1
  1
{\L標準}
 73
     1
 44
1.0
  0
CIRCLE
  5
FE7
330
1F
100
AcDbEntity
  8
D-STR
 48
10.0
100
AcDbCircle
 10
2225.543615918271
 20
4064.181302305288
 30
0.0
 40
9.999999998999999
  0
CIRCLE
  5
FE8
330
1F
100
AcDbEntity
  8
D-STR
 48
10.0
100
AcDbCircle
 10
2225.543615918271
 20
4064.181302305288
 30
0.0
 40
14.99999999849999
  0
ARC
  5
FE9
330
1F
100
AcDbEntity
  8
D-STR
100
AcDbCircle
 10
2162.693242924556
 20
4241.881302287519
 30
0.0
 40
29.99999999699999
100
AcDbArc
 50
89.9999990000051
 51
174.2894059999931
  0
LINE
  5
FEA
330
1F
100
AcDbEntity
  8
D-STR
100
AcDbLine
 10
2162.693242924556
 20
4271.881302284518
 30
0.0
 11
2288.393988911987
 21
4271.881302284518
 31
0.0
  0
ARC
  5
FEB
330
1F
100
AcDbEntity
  8
D-STR
100
AcDbCircle
 10
2288.393988911987
 20
4241.881302287519
 30
0.0
 40
29.99999999699999
100
AcDbArc
 50
5.710592999999583
 51
89.9999990000051
  0
LINE
  5
FEC
330
1F
100
AcDbEntity
  8
D-STR
100
AcDbLine
 10
2162.693242924556
 20
4251.881302286519
 30
0.0
 11
2288.393988911987
 21
4251.881302286519
 31
0.0
  0
ARC
  5
FED
330
1F
100
AcDbEntity
  8
D-STR
100
AcDbCircle
 10
2162.693242924556
 20
4241.881302287519
 30
0.0
 40
9.999999998999999
100
AcDbArc
 50
89.9999990000051
 51
174.2894059999931
  0
ARC
  5
FEE
330
1F
100
AcDbEntity
  8
D-STR
100
AcDbCircle
 10
2288.393988911987
 20
4241.881302287519
 30
0.0
 40
9.999999998999999
100
AcDbArc
 50
5.710592999999583
 51
89.9999990000051
  0
LINE
  5
FEF
330
1F
100
AcDbEntity
  8
D-STR
100
AcDbLine
 10
2162.693242924556
 20
4248.881302286819
 30
0.0
 11
2288.393988911987
 21
4248.881302286819
 31
0.0
  0
ARC
  5
FF0
330
1F
100
AcDbEntity
  8
D-STR
100
AcDbCircle
 10
2288.393988911987
 20
4241.881302287519
 30
0.0
 40
6.999999999299999
100
AcDbArc
 50
5.710592999999583
 51
89.9999990000051
  0
ARC
  5
FF1
330
1F
100
AcDbEntity
  8
D-STR
100
AcDbCircle
 10
2162.693242924556
 20
4241.881302287519
 30
0.0
 40
6.999999999299999
100
AcDbArc
 50
89.9999990000051
 51
174.2894059999931
  0
LINE
  5
FF2
330
1F
100
AcDbEntity
  8
D-STR
100
AcDbLine
 10
2295.35924953515
 20
4242.577827763065
 30
0.0
 11
2314.728901968801
 21
4048.881302306819
 31
0.0
  0
LINE
  5
FF3
330
1F
100
AcDbEntity
  8
D-STR
100
AcDbLine
 10
2314.728901968801
 20
4048.881302306819
 30
0.0
 11
2426.310282564862
 21
4048.881302306819
 31
0.0
  0
LINE
  5
FF4
330
1F
100
AcDbEntity
  8
D-STR
100
AcDbLine
 10
2024.776949271681
 20
4048.881302306818
 30
0.0
 11
2136.358329867741
 21
4048.881302306819
 31
0.0
  0
LINE
  5
FF5
330
1F
100
AcDbEntity
  8
D-STR
100
AcDbLine
 10
2136.358329867741
 20
4048.881302306819
 30
0.0
 11
2155.727982301392
 21
4242.577827763065
 31
0.0
  0
LINE
  5
FF6
330
1F
100
AcDbEntity
  8
D-STR
100
AcDbLine
 10
2298.344361105653
 20
4242.87633891839
 30
0.0
 11
2317.443864656428
 21
4051.881302306518
 31
0.0
  0
LINE
  5
FF7
330
1F
100
AcDbEntity
  8
D-STR
100
AcDbLine
 10
2317.443864656428
 20
4051.881302306518
 30
0.0
 11
2426.210282564872
 21
4051.881302306518
 31
0.0
  0
LINE
  5
FF8
330
1F
100
AcDbEntity
  8
D-STR
100
AcDbLine
 10
2024.876949271671
 20
4051.881302306518
 30
0.0
 11
2133.643367180115
 21
4051.881302306518
 31
0.0
  0
LINE
  5
FF9
330
1F
100
AcDbEntity
  8
D-STR
100
AcDbLine
 10
2133.643367180115
 20
4051.881302306518
 30
0.0
 11
2152.742870730891
 21
4242.87633891839
 31
0.0
  0
LINE
  5
FFA
330
1F
100
AcDbEntity
  8
D-STR
  6
HIDDEN
100
AcDbLine
 10
2428.376948897987
 20
3986.881302313019
 30
0.0
 11
2375.543615903271
 21
3986.881302313019
 31
0.0
  0
LINE
  5
FFB
330
1F
100
AcDbEntity
  8
D-STR
  6
HIDDEN
100
AcDbLine
 10
2375.543615903271
 20
3986.881302313019
 30
0.0
 11
2375.543615903271
 21
3976.881302314019
 31
0.0
  0
LINE
  5
FFC
330
1F
100
AcDbEntity
  8
D-STR
  6
HIDDEN
100
AcDbLine
 10
2375.543615903271
 20
3976.881302314019
 30
0.0
 11
2428.710282897954
 21
3976.881302314019
 31
0.0
  0
LINE
  5
FFD
330
1F
100
AcDbEntity
  8
D-STR
  6
HIDDEN
100
AcDbLine
 10
2022.710282938555
 20
3986.881302313019
 30
0.0
 11
2075.543615933271
 21
3986.881302313019
 31
0.0
  0
LINE
  5
FFE
330
1F
100
AcDbEntity
  8
D-STR
  6
HIDDEN
100
AcDbLine
 10
2075.543615933271
 20
3986.881302313019
 30
0.0
 11
2075.543615933271
 21
3976.881302314019
 31
0.0
  0
LINE
  5
FFF
330
1F
100
AcDbEntity
  8
D-STR
  6
HIDDEN
100
AcDbLine
 10
2075.543615933271
 20
3976.881302314019
 30
0.0
 11
2022.376948938588
 21
3976.881302314019
 31
0.0
  0
LINE
  5
101E
330
1F
100
AcDbEntity
  8
D-STR
100
AcDbLine
 10
4521.227768723451
 20
2816.567814933273
 30
0.0
 11
4540.327272274226
 21
3007.562851545144
 31
0.0
  0
LINE
  5
101F
330
1F
100
AcDbEntity
  8
D-STR
100
AcDbLine
 10
4685.92876264899
 20
3007.562851545144
 30
0.0
 11
4705.028266199765
 21
2816.567814933272
 31
0.0
  0
LINE
  5
1020
330
1F
100
AcDbEntity
  8
D-STR
100
AcDbLine
 10
4523.942731411077
 20
2813.567814933573
 30
0.0
 11
4543.312383844729
 21
3007.26434038982
 31
0.0
  0
LINE
  5
1021
330
1F
100
AcDbEntity
  8
D-STR
100
AcDbLine
 10
4682.943651078487
 20
3007.26434038982
 30
0.0
 11
4702.31330351214
 21
2813.567814933573
 31
0.0
  0
LWPOLYLINE
  5
1024
330
1F
100
AcDbEntity
  8
D-STR
  6
HIDDEN
100
AcDbPolyline
 90
        4
 70
     0
 43
0.0
 10
4410.294684481891
 20
2751.567814939773
 10
4463.128017476608
 20
2751.567814939773
 10
4463.128017476608
 20
2741.567814940774
 10
4409.961350481925
 20
2741.567814940774
  0
LINE
  5
1025
330
1F
100
AcDbEntity
  8
D-STR
100
AcDbLine
 10
4412.361350815018
 20
2813.567814933572
 30
0.0
 11
4523.942731411077
 21
2813.567814933573
 31
0.0
  0
LINE
  5
1026
330
1F
100
AcDbEntity
  8
D-STR
100
AcDbLine
 10
4412.461350815009
 20
2816.567814933273
 30
0.0
 11
4521.227768723451
 21
2816.567814933273
 31
0.0
  0
LWPOLYLINE
  5
1027
330
1F
100
AcDbEntity
  8
D-STR
  6
HIDDEN
100
AcDbPolyline
 90
        4
 70
     0
 43
0.0
 10
4815.961350441326
 20
2751.567814939773
 10
4763.128017446609
 20
2751.567814939773
 10
4763.128017446609
 20
2741.567814940774
 10
4816.294684441292
 20
2741.567814940774
  0
LINE
  5
1028
330
1F
100
AcDbEntity
  8
D-STR
100
AcDbLine
 10
4702.31330351214
 20
2813.567814933573
 30
0.0
 11
4813.894684108198
 21
2813.567814933573
 31
0.0
  0
LINE
  5
1029
330
1F
100
AcDbEntity
  8
D-STR
100
AcDbLine
 10
4705.028266199765
 20
2816.567814933272
 30
0.0
 11
4813.794684108208
 21
2816.567814933273
 31
0.0
  0
CIRCLE
  5
102A
330
1F
100
AcDbEntity
  8
D-STR
 48
10.0
100
AcDbCircle
 10
4613.128017461608
 20
2828.867814932044
 30
0.0
 40
14.99999999849999
  0
CIRCLE
  5
102B
330
1F
100
AcDbEntity
  8
D-STR
 48
10.0
100
AcDbCircle
 10
4613.128017461608
 20
2828.867814932044
 30
0.0
 40
9.999999998999999
  0
LINE
  5
102C
330
1F
100
AcDbEntity
  8
D-STR
100
AcDbLine
 10
4550.277644467893
 20
3013.567814913574
 30
0.0
 11
4675.978390455322
 21
3013.567814913574
 31
0.0
  0
LINE
  5
102D
330
1F
100
AcDbEntity
  8
D-STR
100
AcDbLine
 10
4550.277644467893
 20
3016.567814913273
 30
0.0
 11
4675.978390455322
 21
3016.567814913273
 31
0.0
  0
LINE
  5
102E
330
1F
100
AcDbEntity
  8
D-STR
100
AcDbLine
 10
4550.277644467893
 20
3036.567814911274
 30
0.0
 11
4675.978390455322
 21
3036.567814911274
 31
0.0
  0
ARC
  5
102F
330
1F
100
AcDbEntity
  8
D-STR
100
AcDbCircle
 10
4550.277644467893
 20
3006.567814914274
 30
0.0
 40
9.999999998999999
100
AcDbArc
 50
89.9999990000051
 51
174.2894059999931
  0
ARC
  5
1030
330
1F
100
AcDbEntity
  8
D-STR
100
AcDbCircle
 10
4550.277644467893
 20
3006.567814914274
 30
0.0
 40
29.99999999699999
100
AcDbArc
 50
89.9999990000051
 51
174.2894059999931
  0
ARC
  5
1031
330
1F
100
AcDbEntity
  8
D-STR
100
AcDbCircle
 10
4550.277644467893
 20
3006.567814914274
 30
0.0
 40
6.999999999299999
100
AcDbArc
 50
89.9999990000051
 51
174.2894059999931
  0
ARC
  5
1032
330
1F
100
AcDbEntity
  8
D-STR
100
AcDbCircle
 10
4675.978390455322
 20
3006.567814914274
 30
0.0
 40
6.999999999299999
100
AcDbArc
 50
5.710592999999583
 51
89.9999990000051
  0
ARC
  5
1033
330
1F
100
AcDbEntity
  8
D-STR
100
AcDbCircle
 10
4675.978390455322
 20
3006.567814914274
 30
0.0
 40
9.999999998999999
100
AcDbArc
 50
5.710592999999583
 51
89.9999990000051
  0
ARC
  5
1034
330
1F
100
AcDbEntity
  8
D-STR
100
AcDbCircle
 10
4675.978390455322
 20
3006.567814914274
 30
0.0
 40
29.99999999699999
100
AcDbArc
 50
5.710592999999583
 51
89.9999990000051
  0
LINE
  5
1035
102
{ACAD_REACTORS
330
1468
330
1480
102
}
330
1F
100
AcDbEntity
  8
D-STR
  6
HIDDEN
100
AcDbLine
 10
4509.128017472009
 20
2896.567814925273
 30
0.0
 11
4715.128017451408
 21
2916.567814923273
 31
0.0
  0
ARC
  5
1056
330
1F
100
AcDbEntity
  8
D-STR
100
AcDbCircle
 10
4553.277644467593
 20
1529.053705356031
 30
0.0
 40
29.99999999699999
100
AcDbArc
 50
89.9999989999009
 51
160.528777999996
  0
LINE
  5
1057
330
1F
100
AcDbEntity
  8
D-STR
100
AcDbLine
 10
4498.128017473108
 20
1539.05370535503
 30
0.0
 11
4524.993372470424
 21
1539.05370535503
 31
0.0
  0
LWPOLYLINE
  5
1058
330
1F
100
AcDbEntity
  8
D-STR
  6
HIDDEN
100
AcDbPolyline
 90
        4
 70
     0
 43
0.0
 10
4410.294684481894
 20
1454.053705363531
 10
4463.128017476608
 20
1454.053705363531
 10
4463.128017476608
 20
1444.053705364531
 10
4409.961350481922
 20
1444.053705364531
  0
LINE
  5
1059
330
1F
100
AcDbEntity
  8
D-STR
100
AcDbLine
 10
4701.262661452795
 20
1539.05370535503
 30
0.0
 11
4728.128017450109
 21
1539.05370535503
 31
0.0
  0
ARC
  5
105A
330
1F
100
AcDbEntity
  8
D-STR
100
AcDbCircle
 10
4672.978390455624
 20
1529.053705356031
 30
0.0
 40
29.99999999699999
100
AcDbArc
 50
19.47121999995405
 51
89.9999989999009
  0
LINE
  5
105B
330
1F
100
AcDbEntity
  8
D-STR
100
AcDbLine
 10
4553.277644467593
 20
1559.05370535303
 30
0.0
 11
4672.978390455624
 21
1559.05370535303
 31
0.0
  0
ARC
  5
105C
330
1F
100
AcDbEntity
  8
D-STR
100
AcDbCircle
 10
4550.277644467892
 20
1709.053705338031
 30
0.0
 40
29.99999999699999
100
AcDbArc
 50
89.9999989999009
 51
174.2894059999957
  0
ARC
  5
105D
330
1F
100
AcDbEntity
  8
D-STR
100
AcDbCircle
 10
4675.978390455325
 20
1709.053705338031
 30
0.0
 40
29.99999999699999
100
AcDbArc
 50
5.710592999999583
 51
89.9999989999009
  0
LINE
  5
105E
330
1F
100
AcDbEntity
  8
D-STR
100
AcDbLine
 10
4550.277644467892
 20
1739.05370533503
 30
0.0
 11
4675.978390455325
 21
1739.05370533503
 31
0.0
  0
LINE
  5
105F
330
1F
100
AcDbEntity
  8
D-STR
100
AcDbLine
 10
4557.091350119991
 20
1539.05370535503
 30
0.0
 11
4669.164684803226
 21
1539.05370535503
 31
0.0
  0
LINE
  5
1060
330
1F
100
AcDbEntity
  8
D-STR
 48
10.0
100
AcDbLine
 10
4813.794684108208
 20
1519.05370535703
 30
0.0
 11
4686.826588591144
 21
1519.05370535703
 31
0.0
  0
LWPOLYLINE
  5
1061
330
1F
100
AcDbEntity
  8
D-STR
  6
HIDDEN
100
AcDbPolyline
 90
        4
 70
     0
 43
0.0
 10
4815.961350441323
 20
1454.053705363531
 10
4763.128017446609
 20
1454.053705363531
 10
4763.128017446609
 20
1444.053705364531
 10
4816.294684441294
 20
1444.053705364531
  0
CIRCLE
  5
1062
330
1F
100
AcDbEntity
  8
D-STR
 48
10.0
100
AcDbCircle
 10
4613.128017461608
 20
1516.05370535733
 30
0.0
 40
9.999999998999999
  0
CIRCLE
  5
1063
330
1F
100
AcDbEntity
  8
D-STR
 48
10.0
100
AcDbCircle
 10
4613.128017461608
 20
1516.05370535733
 30
0.0
 40
14.99999999849999
  0
LINE
  5
1064
330
1F
100
AcDbEntity
  8
D-STR
100
AcDbLine
 10
4558.789921256731
 20
1536.05370535533
 30
0.0
 11
4667.466113666485
 21
1536.05370535533
 31
0.0
  0
LINE
  5
1065
330
1F
100
AcDbEntity
  8
D-STR
 48
10.0
100
AcDbLine
 10
4813.794684108208
 20
1516.05370535733
 30
0.0
 11
4685.128017454409
 21
1516.05370535733
 31
0.0
  0
LINE
  5
1066
330
1F
100
AcDbEntity
  8
D-STR
 48
10.0
100
AcDbLine
 10
4685.128017454409
 20
1516.05370535733
 30
0.0
 11
4676.041042922756
 21
1531.198662910091
 31
0.0
  0
LINE
  5
1067
330
1F
100
AcDbEntity
  8
D-STR
 48
10.0
100
AcDbLine
 10
4686.826588591144
 20
1519.05370535703
 30
0.0
 11
4677.739614059491
 21
1534.198662909791
 31
0.0
  0
ARC
  5
1068
330
1F
100
AcDbEntity
  8
D-STR
100
AcDbCircle
 10
4669.164684803226
 20
1529.053705356031
 30
0.0
 40
9.999999998999999
100
AcDbArc
 50
30.9637565320914
 51
90.0
  0
ARC
  5
1069
330
1F
100
AcDbEntity
  8
D-STR
 48
10.0
100
AcDbCircle
 10
4667.466113666485
 20
1526.053705356331
 30
0.0
 40
9.999999998999999
100
AcDbArc
 50
30.9637565320914
 51
90.0
  0
ARC
  5
106A
330
1F
100
AcDbEntity
  8
D-STR
 48
10.0
100
AcDbCircle
 10
4558.789921256731
 20
1526.053705356331
 30
0.0
 40
9.999999998999999
100
AcDbArc
 50
90.0
 51
149.0362434679085
  0
ARC
  5
106B
330
1F
100
AcDbEntity
  8
D-STR
100
AcDbCircle
 10
4557.091350119991
 20
1529.053705356031
 30
0.0
 40
9.999999998999999
100
AcDbArc
 50
90.0
 51
149.0362434679085
  0
LINE
  5
106C
330
1F
100
AcDbEntity
  8
D-STR
 48
10.0
100
AcDbLine
 10
4539.429446332073
 20
1519.05370535703
 30
0.0
 11
4548.516420863726
 21
1534.198662909791
 31
0.0
  0
LINE
  5
106D
330
1F
100
AcDbEntity
  8
D-STR
 48
10.0
100
AcDbLine
 10
4412.461350815009
 20
1519.05370535703
 30
0.0
 11
4539.429446332073
 21
1519.05370535703
 31
0.0
  0
LINE
  5
106E
330
1F
100
AcDbEntity
  8
D-STR
 48
10.0
100
AcDbLine
 10
4412.461350815009
 20
1516.05370535733
 30
0.0
 11
4541.128017468808
 21
1516.05370535733
 31
0.0
  0
LINE
  5
106F
330
1F
100
AcDbEntity
  8
D-STR
 48
10.0
100
AcDbLine
 10
4541.128017468808
 20
1516.05370535733
 30
0.0
 11
4550.214992000461
 21
1531.198662910091
 31
0.0
  0
HATCH
  5
108B
330
1F
100
AcDbEntity
  8
D-STR
 62
     0
100
AcDbHatch
 10
0.0
 20
0.0
 30
0.0
210
0.0
220
0.0
230
1.0
  2
ANSI31
 70
     0
 71
     0
 91
        1
 92
        7
 72
     0
 73
     1
 93
        4
 10
2020.543615938771
 20
3921.881302319519
 10
2020.543615938771
 20
3901.881302319519
 10
2430.543615897772
 20
3901.881302319519
 10
2430.543615897772
 20
3921.881302319519
 97
        0
 75
     0
 76
     1
 52
0.0
 41
5.0
 77
     0
 78
     1
 53
45.0
 43
-295.6920110580431
 44
-1241.514425304911
 45
-11.22532015133643
 46
11.22532015133644
 79
     0
 47
0.8967531663003416
 98
        1
 10
2237.692809199281
 20
3912.780662332078
  0
LINE
  5
10F5
330
1F
100
AcDbEntity
  8
D-STR
100
AcDbLine
 10
4685.928762648989
 20
4305.076961121387
 30
0.0
 11
4705.028266199765
 21
4114.081924509515
 31
0.0
  0
LINE
  5
10F6
330
1F
100
AcDbEntity
  8
D-STR
100
AcDbLine
 10
4682.943651078487
 20
4304.778449966063
 30
0.0
 11
4702.313303512138
 21
4111.081924509816
 31
0.0
  0
LINE
  5
10F7
330
1F
100
AcDbEntity
  8
D-STR
100
AcDbLine
 10
4521.227768723451
 20
4114.081924509516
 30
0.0
 11
4540.327272274228
 21
4305.076961121387
 31
0.0
  0
LINE
  5
10F8
330
1F
100
AcDbEntity
  8
D-STR
100
AcDbLine
 10
4523.942731411078
 20
4111.081924509816
 30
0.0
 11
4543.312383844729
 21
4304.778449966063
 31
0.0
  0
LINE
  5
10F9
330
1F
100
AcDbEntity
  8
D-STR
100
AcDbLine
 10
4705.028266199765
 20
4114.081924509515
 30
0.0
 11
4813.794684108208
 21
4114.081924509516
 31
0.0
  0
LINE
  5
10FA
330
1F
100
AcDbEntity
  8
D-STR
100
AcDbLine
 10
4702.313303512138
 20
4111.081924509816
 30
0.0
 11
4813.894684108198
 21
4111.081924509816
 31
0.0
  0
LINE
  5
10FB
330
1F
100
AcDbEntity
  8
D-STR
  6
HIDDEN
100
AcDbLine
 10
4410.294684481892
 20
4049.081924516016
 30
0.0
 11
4463.128017476608
 21
4049.081924516016
 31
0.0
  0
LINE
  5
10FC
330
1F
100
AcDbEntity
  8
D-STR
100
AcDbLine
 10
4412.461350815009
 20
4114.081924509516
 30
0.0
 11
4521.227768723451
 21
4114.081924509516
 31
0.0
  0
LINE
  5
10FD
330
1F
100
AcDbEntity
  8
D-STR
100
AcDbLine
 10
4412.361350815018
 20
4111.081924509815
 30
0.0
 11
4523.942731411078
 21
4111.081924509816
 31
0.0
  0
LINE
  5
10FE
330
1F
100
AcDbEntity
  8
D-STR
  6
HIDDEN
100
AcDbLine
 10
4463.128017476608
 20
4039.081924517017
 30
0.0
 11
4409.961350481925
 21
4039.081924517017
 31
0.0
  0
LINE
  5
10FF
330
1F
100
AcDbEntity
  8
D-STR
  6
HIDDEN
100
AcDbLine
 10
4463.128017476608
 20
4049.081924516016
 30
0.0
 11
4463.128017476608
 21
4039.081924517017
 31
0.0
  0
CIRCLE
  5
1100
330
1F
100
AcDbEntity
  8
D-STR
 48
10.0
100
AcDbCircle
 10
4613.128017461608
 20
4126.381924508287
 30
0.0
 40
14.99999999849999
  0
CIRCLE
  5
1101
330
1F
100
AcDbEntity
  8
D-STR
 48
10.0
100
AcDbCircle
 10
4613.128017461608
 20
4126.381924508287
 30
0.0
 40
9.999999998999999
  0
LINE
  5
1102
330
1F
100
AcDbEntity
  8
D-STR
  6
HIDDEN
100
AcDbLine
 10
4815.961350441324
 20
4049.081924516016
 30
0.0
 11
4763.128017446609
 21
4049.081924516016
 31
0.0
  0
LINE
  5
1103
330
1F
100
AcDbEntity
  8
D-STR
  6
HIDDEN
100
AcDbLine
 10
4763.128017446609
 20
4039.081924517017
 30
0.0
 11
4816.294684441292
 21
4039.081924517017
 31
0.0
  0
LINE
  5
1104
330
1F
100
AcDbEntity
  8
D-STR
  6
HIDDEN
100
AcDbLine
 10
4763.128017446609
 20
4049.081924516016
 30
0.0
 11
4763.128017446609
 21
4039.081924517017
 31
0.0
  0
ARC
  5
1105
330
1F
100
AcDbEntity
  8
D-STR
100
AcDbCircle
 10
4675.978390455322
 20
4304.081924490517
 30
0.0
 40
29.99999999699999
100
AcDbArc
 50
5.710592999999583
 51
89.9999990000051
  0
ARC
  5
1106
330
1F
100
AcDbEntity
  8
D-STR
100
AcDbCircle
 10
4550.277644467893
 20
4304.081924490517
 30
0.0
 40
29.99999999699999
100
AcDbArc
 50
89.9999990000051
 51
174.2894059999931
  0
ARC
  5
1107
330
1F
100
AcDbEntity
  8
D-STR
100
AcDbCircle
 10
4550.277644467893
 20
4304.081924490517
 30
0.0
 40
9.999999998999999
100
AcDbArc
 50
89.9999990000051
 51
174.2894059999931
  0
LINE
  5
1108
330
1F
100
AcDbEntity
  8
D-STR
100
AcDbLine
 10
4550.277644467893
 20
4311.081924489816
 30
0.0
 11
4675.978390455322
 21
4311.081924489816
 31
0.0
  0
LINE
  5
1109
330
1F
100
AcDbEntity
  8
D-STR
100
AcDbLine
 10
4550.277644467893
 20
4314.081924489516
 30
0.0
 11
4675.978390455322
 21
4314.081924489516
 31
0.0
  0
ARC
  5
110B
330
1F
100
AcDbEntity
  8
D-STR
100
AcDbCircle
 10
4550.277644467893
 20
4304.081924490517
 30
0.0
 40
6.999999999299999
100
AcDbArc
 50
89.9999990000051
 51
174.2894059999931
  0
ARC
  5
110C
330
1F
100
AcDbEntity
  8
D-STR
100
AcDbCircle
 10
4675.978390455322
 20
4304.081924490517
 30
0.0
 40
6.999999999299999
100
AcDbArc
 50
5.710592999999583
 51
89.9999990000051
  0
ARC
  5
110D
330
1F
100
AcDbEntity
  8
D-STR
100
AcDbCircle
 10
4675.978390455322
 20
4304.081924490517
 30
0.0
 40
9.999999998999999
100
AcDbArc
 50
5.710592999999583
 51
89.9999990000051
  0
LINE
  5
11D4
330
1F
100
AcDbEntity
  8
D-STR
100
AcDbLine
 10
4705.829506165802
 20
4307.067035989211
 30
0.0
 11
4723.128017450608
 21
4134.081924507516
 31
0.0
  0
LINE
  5
11D5
330
1F
100
AcDbEntity
  8
D-STR
100
AcDbLine
 10
4723.128017450608
 20
4134.081924507516
 30
0.0
 11
4813.128017441609
 21
4134.081924507516
 31
0.0
  0
LINE
  5
11D6
330
1F
100
AcDbEntity
  8
D-STR
100
AcDbLine
 10
4813.128017441609
 20
4134.081924507516
 30
0.0
 11
4818.128017441108
 21
3984.081924522516
 31
0.0
  0
LINE
  5
11D7
330
1F
100
AcDbEntity
  8
D-STR
100
AcDbLine
 10
4818.128017441108
 20
3984.081924522516
 30
0.0
 11
4408.128017482108
 21
3984.081924522516
 31
0.0
  0
LINE
  5
11D8
330
1F
100
AcDbEntity
  8
D-STR
100
AcDbLine
 10
4408.128017482108
 20
3984.081924522516
 30
0.0
 11
4413.128017481608
 21
4134.081924507516
 31
0.0
  0
LINE
  5
11D9
330
1F
100
AcDbEntity
  8
D-STR
100
AcDbLine
 10
4413.128017481608
 20
4134.081924507516
 30
0.0
 11
4503.128017472609
 21
4134.081924507516
 31
0.0
  0
LINE
  5
11DA
330
1F
100
AcDbEntity
  8
D-STR
100
AcDbLine
 10
4503.128017472609
 20
4134.081924507516
 30
0.0
 11
4520.426528809515
 21
4307.067036510215
 31
0.0
  0
LINE
  5
11DC
330
1F
100
AcDbEntity
  8
D-STR
100
AcDbLine
 10
4550.277644467893
 20
4334.081924487516
 30
0.0
 11
4675.978390455322
 21
4334.081924487516
 31
0.0
  0
LINE
  5
1218
330
1F
100
AcDbEntity
  8
D-STR
100
AcDbLine
 10
6052.127889264907
 20
4134.081924522517
 30
0.0
 11
7222.127889264907
 21
4134.081924522517
 31
0.0
  0
LINE
  5
1219
330
1F
100
AcDbEntity
  8
D-STR
100
AcDbLine
 10
5222.127889264907
 20
4134.081924522517
 30
0.0
 11
6052.127889264907
 21
4134.081924522517
 31
0.0
  0
CIRCLE
  5
121A
330
1F
100
AcDbEntity
  8
D-STR
100
AcDbCircle
 10
5297.127889264907
 20
4044.081924522516
 30
0.0
 40
10.0
  0
CIRCLE
  5
121B
330
1F
100
AcDbEntity
  8
D-STR
100
AcDbCircle
 10
5722.127889264907
 20
4044.081924522516
 30
0.0
 40
15.0
  0
CIRCLE
  5
121C
330
1F
100
AcDbEntity
  8
D-STR
100
AcDbCircle
 10
6722.127889264907
 20
4044.081924522516
 30
0.0
 40
15.0
  0
CIRCLE
  5
121D
330
1F
100
AcDbEntity
  8
D-STR
100
AcDbCircle
 10
7147.127889264907
 20
4044.081924522516
 30
0.0
 40
10.0
  0
LINE
  5
121E
330
1F
100
AcDbEntity
  8
D-STR
100
AcDbLine
 10
7217.627889264907
 20
4114.081924522516
 30
0.0
 11
7217.627889264907
 21
4334.081924522517
 31
0.0
  0
LINE
  5
121F
330
1F
100
AcDbEntity
  8
D-STR
100
AcDbLine
 10
7217.627889264907
 20
4314.081924522517
 30
0.0
 11
7222.127889264907
 21
4311.081924522516
 31
0.0
  0
LINE
  5
1220
330
1F
100
AcDbEntity
  8
D-STR
100
AcDbLine
 10
5222.127889264907
 20
3984.081924522516
 30
0.0
 11
7222.127889264907
 21
3984.081924522516
 31
0.0
  0
LINE
  5
1221
330
1F
100
AcDbEntity
  8
D-STR
100
AcDbLine
 10
7222.127889264907
 20
3984.081924522516
 30
0.0
 11
7222.127889264907
 21
4311.081924522516
 31
0.0
  0
LINE
  5
1222
330
1F
100
AcDbEntity
  8
D-STR
100
AcDbLine
 10
7217.627889264907
 20
4334.081924522517
 30
0.0
 11
5222.127889264907
 21
4334.081924522517
 31
0.0
  0
LINE
  5
1223
330
1F
100
AcDbEntity
  8
D-STR
100
AcDbLine
 10
5222.127889264907
 20
4334.081924522517
 30
0.0
 11
5222.127889264907
 21
3984.081924522516
 31
0.0
  0
LINE
  5
1224
330
1F
100
AcDbEntity
  8
D-STR
100
AcDbLine
 10
7217.627889264907
 20
4114.081924522516
 30
0.0
 11
7222.127889264907
 21
4114.081924522516
 31
0.0
  0
LINE
  5
1225
330
1F
100
AcDbEntity
  8
D-STR
  6
HIDDEN
100
AcDbLine
 10
7122.127889264906
 20
4136.381924522516
 30
0.0
 11
7122.127889264906
 21
4116.381924522516
 31
0.0
  0
LINE
  5
1226
330
1F
100
AcDbEntity
  8
D-STR
  6
HIDDEN
100
AcDbLine
 10
7122.127889264906
 20
4116.381924522516
 30
0.0
 11
7222.127889264907
 21
4111.381924522516
 31
0.0
  0
LINE
  5
1227
330
1F
100
AcDbEntity
  8
D-STR
  6
HIDDEN
100
AcDbLine
 10
7222.127889264907
 20
4141.381924522517
 30
0.0
 11
7122.127889264906
 21
4136.381924522516
 31
0.0
  0
LINE
  5
1228
330
1F
100
AcDbEntity
  8
D-STR
  6
HIDDEN
100
AcDbLine
 10
5322.127889264907
 20
4116.381924522516
 30
0.0
 11
5222.127889264907
 21
4111.381924522516
 31
0.0
  0
LINE
  5
1229
330
1F
100
AcDbEntity
  8
D-STR
  6
HIDDEN
100
AcDbLine
 10
5222.127889264907
 20
4141.381924522517
 30
0.0
 11
5322.127889264907
 21
4136.381924522516
 31
0.0
  0
LINE
  5
122A
330
1F
100
AcDbEntity
  8
D-STR
  6
HIDDEN
100
AcDbLine
 10
5322.127889264907
 20
4136.381924522516
 30
0.0
 11
5322.127889264907
 21
4116.381924522516
 31
0.0
  0
LINE
  5
122B
330
1F
100
AcDbEntity
  8
D-STR
  6
HIDDEN
100
AcDbLine
 10
2428.210282564656
 20
3991.881302313018
 30
0.0
 11
2022.876949271889
 21
3991.881302313019
 31
0.0
  0
LINE
  5
122C
330
1F
100
AcDbEntity
  8
D-STR
  6
HIDDEN
100
AcDbLine
 10
2022.210282605255
 20
3971.88130231402
 30
0.0
 11
2428.876949231289
 21
3971.88130231402
 31
0.0
  0
LINE
  5
122F
330
1F
100
AcDbEntity
  8
D-STR
  6
HIDDEN
100
AcDbLine
 10
4815.794684107991
 20
4054.081924516016
 30
0.0
 11
4410.461350815225
 21
4054.081924516016
 31
0.0
  0
LINE
  5
1230
330
1F
100
AcDbEntity
  8
D-STR
  6
HIDDEN
100
AcDbLine
 10
4409.79468414859
 20
4034.081924517017
 30
0.0
 11
4816.461350774625
 21
4034.081924517017
 31
0.0
  0
LINE
  5
1231
330
1F
100
AcDbEntity
  8
D-STR
  6
HIDDEN
100
AcDbLine
 10
4815.794684107991
 20
1459.05370536353
 30
0.0
 11
4410.461350815225
 21
1459.05370536353
 31
0.0
  0
LINE
  5
1233
330
1F
100
AcDbEntity
  8
D-STR
  6
HIDDEN
100
AcDbLine
 10
4409.794684148592
 20
1439.053705364531
 30
0.0
 11
4816.461350774625
 21
1439.053705364531
 31
0.0
  0
LINE
  5
1234
330
1F
100
AcDbEntity
  8
D-STR
100
AcDbLine
 10
4705.829506452338
 20
1712.038816337732
 30
0.0
 11
4728.128017450109
 21
1539.05370535503
 31
0.0
  0
LINE
  5
1235
330
1F
100
AcDbEntity
  8
D-STR
100
AcDbLine
 10
4728.128017450109
 20
1539.05370535503
 30
0.0
 11
4813.128017441609
 21
1539.05370535503
 31
0.0
  0
LINE
  5
1236
330
1F
100
AcDbEntity
  8
D-STR
100
AcDbLine
 10
4813.128017441609
 20
1539.05370535503
 30
0.0
 11
4818.128017441108
 21
1389.053705370031
 31
0.0
  0
LINE
  5
1237
330
1F
100
AcDbEntity
  8
D-STR
100
AcDbLine
 10
4818.128017441108
 20
1389.053705370031
 30
0.0
 11
4408.128017482108
 21
1389.053705370031
 31
0.0
  0
LINE
  5
1238
330
1F
100
AcDbEntity
  8
D-STR
100
AcDbLine
 10
4408.128017482108
 20
1389.053705370031
 30
0.0
 11
4413.128017481608
 21
1539.05370535503
 31
0.0
  0
LINE
  5
1239
330
1F
100
AcDbEntity
  8
D-STR
100
AcDbLine
 10
4413.128017481608
 20
1539.05370535503
 30
0.0
 11
4498.128017473108
 21
1539.05370535503
 31
0.0
  0
LINE
  5
123A
330
1F
100
AcDbEntity
  8
D-STR
100
AcDbLine
 10
4498.128017473108
 20
1539.05370535503
 30
0.0
 11
4520.426528470879
 21
1712.038816337732
 31
0.0
  0
LINE
  5
123B
102
{ACAD_REACTORS
330
1480
102
}
330
1F
100
AcDbEntity
  8
D-STR
100
AcDbLine
 10
4705.829506452339
 20
3009.552925913975
 30
0.0
 11
4723.128017450608
 21
2836.567814931273
 31
0.0
  0
LINE
  5
123C
102
{ACAD_REACTORS
330
1480
102
}
330
1F
100
AcDbEntity
  8
D-STR
100
AcDbLine
 10
4723.128017450608
 20
2836.567814931273
 30
0.0
 11
4813.128017441609
 21
2836.567814931273
 31
0.0
  0
LINE
  5
123D
330
1F
100
AcDbEntity
  8
D-STR
100
AcDbLine
 10
4813.128017441609
 20
2836.567814931273
 30
0.0
 11
4818.128017441108
 21
2686.567814946274
 31
0.0
  0
LINE
  5
123E
330
1F
100
AcDbEntity
  8
D-STR
100
AcDbLine
 10
4818.128017441108
 20
2686.567814946274
 30
0.0
 11
4408.128017482108
 21
2686.567814946274
 31
0.0
  0
LINE
  5
123F
330
1F
100
AcDbEntity
  8
D-STR
100
AcDbLine
 10
4408.128017482108
 20
2686.567814946274
 30
0.0
 11
4413.128017481608
 21
2836.567814931273
 31
0.0
  0
LINE
  5
1240
102
{ACAD_REACTORS
330
1468
102
}
330
1F
100
AcDbEntity
  8
D-STR
100
AcDbLine
 10
4413.128017481608
 20
2836.567814931273
 30
0.0
 11
4503.128017472607
 21
2836.567814931273
 31
0.0
  0
LINE
  5
1241
102
{ACAD_REACTORS
330
1468
102
}
330
1F
100
AcDbEntity
  8
D-STR
100
AcDbLine
 10
4503.128017472607
 20
2836.567814931273
 30
0.0
 11
4520.426528470879
 21
3009.552925913975
 31
0.0
  0
LINE
  5
1242
330
1F
100
AcDbEntity
  8
D-STR
  6
HIDDEN
100
AcDbLine
 10
4815.794684107993
 20
2756.567814939773
 30
0.0
 11
4410.461350815226
 21
2756.567814939773
 31
0.0
  0
LINE
  5
1244
330
1F
100
AcDbEntity
  8
D-STR
  6
HIDDEN
100
AcDbLine
 10
4409.794684148592
 20
2736.567814940773
 30
0.0
 11
4816.461350774625
 21
2736.567814940774
 31
0.0
  0
LINE
  5
1245
330
1F
100
AcDbEntity
  8
D-STR
100
AcDbLine
 10
2318.245104909001
 20
4244.86641328722
 30
0.0
 11
2335.543615907271
 21
4071.881302304518
 31
0.0
  0
LINE
  5
1246
330
1F
100
AcDbEntity
  8
D-STR
100
AcDbLine
 10
2335.543615907271
 20
4071.881302304518
 30
0.0
 11
2425.543615898272
 21
4071.881302304518
 31
0.0
  0
LINE
  5
1247
330
1F
100
AcDbEntity
  8
D-STR
100
AcDbLine
 10
2425.543615898272
 20
4071.881302304518
 30
0.0
 11
2430.543615897772
 21
3921.881302319519
 31
0.0
  0
LINE
  5
1248
330
1F
100
AcDbEntity
  8
D-STR
100
AcDbLine
 10
2430.543615897772
 20
3921.881302319519
 30
0.0
 11
2020.543615938771
 21
3921.881302319519
 31
0.0
  0
LINE
  5
1249
330
1F
100
AcDbEntity
  8
D-STR
100
AcDbLine
 10
2020.543615938771
 20
3921.881302319519
 30
0.0
 11
2025.543615938271
 21
4071.881302304518
 31
0.0
  0
LINE
  5
124A
330
1F
100
AcDbEntity
  8
D-STR
100
AcDbLine
 10
2025.543615938271
 20
4071.881302304518
 30
0.0
 11
2115.543615929272
 21
4071.881302304518
 31
0.0
  0
LINE
  5
124B
330
1F
100
AcDbEntity
  8
D-STR
100
AcDbLine
 10
2115.543615929272
 20
4071.881302304518
 30
0.0
 11
2132.842126927542
 21
4244.86641328722
 31
0.0
  0
LINE
  5
129B
330
1F
100
AcDbEntity
  8
D-STR
100
AcDbLine
 10
6052.127889264907
 20
2836.567814946274
 30
0.0
 11
7222.127889264907
 21
2836.567814946274
 31
0.0
  0
LINE
  5
129C
330
1F
100
AcDbEntity
  8
D-STR
100
AcDbLine
 10
5222.127889264907
 20
2836.567814946274
 30
0.0
 11
6052.127889264907
 21
2836.567814946274
 31
0.0
  0
CIRCLE
  5
129D
330
1F
100
AcDbEntity
  8
D-STR
100
AcDbCircle
 10
5297.127889264907
 20
2746.567814946274
 30
0.0
 40
10.0
  0
LINE
  5
129E
330
1F
100
AcDbEntity
  8
D-STR
  6
HIDDEN
100
AcDbLine
 10
5322.127889264907
 20
2818.867814946274
 30
0.0
 11
5222.127889264907
 21
2813.867814946274
 31
0.0
  0
LINE
  5
129F
330
1F
100
AcDbEntity
  8
D-STR
  6
HIDDEN
100
AcDbLine
 10
5222.127889264907
 20
2843.867814946273
 30
0.0
 11
5322.127889264907
 21
2838.867814946274
 31
0.0
  0
LINE
  5
12A0
330
1F
100
AcDbEntity
  8
D-STR
  6
HIDDEN
100
AcDbLine
 10
5322.127889264907
 20
2838.867814946274
 30
0.0
 11
5322.127889264907
 21
2818.867814946274
 31
0.0
  0
CIRCLE
  5
12A1
330
1F
100
AcDbEntity
  8
D-STR
100
AcDbCircle
 10
5722.127889264907
 20
2746.567814946274
 30
0.0
 40
15.0
  0
CIRCLE
  5
12A2
330
1F
100
AcDbEntity
  8
D-STR
100
AcDbCircle
 10
6722.127889264907
 20
2746.567814946274
 30
0.0
 40
15.0
  0
LINE
  5
12A3
330
1F
100
AcDbEntity
  8
D-STR
100
AcDbLine
 10
6602.127889264906
 20
2916.567814946274
 30
0.0
 11
6842.127889264907
 21
2916.567814946274
 31
0.0
  0
LINE
  5
12A4
330
1F
100
AcDbEntity
  8
D-STR
100
AcDbLine
 10
6612.127889264908
 20
2896.567814946274
 30
0.0
 11
6832.127889264907
 21
2896.567814946274
 31
0.0
  0
LINE
  5
12A5
330
1F
100
AcDbEntity
  8
D-STR
100
AcDbLine
 10
6572.127889264907
 20
2836.567814946274
 30
0.0
 11
6572.127889264907
 21
2886.567814946273
 31
0.0
  0
LINE
  5
12A6
330
1F
100
AcDbEntity
  8
D-STR
100
AcDbLine
 10
6582.127889264907
 20
2836.567814946274
 30
0.0
 11
6582.127889264907
 21
2866.567814946273
 31
0.0
  0
ARC
  5
12A7
330
1F
100
AcDbEntity
  8
D-STR
100
AcDbCircle
 10
6602.127889264906
 20
2886.567814946273
 30
0.0
 40
30.0
100
AcDbArc
 50
89.9999990000051
 51
179.9999980000102
  0
ARC
  5
12A8
330
1F
100
AcDbEntity
  8
D-STR
100
AcDbCircle
 10
6612.127889264908
 20
2866.567814946273
 30
0.0
 40
30.0
100
AcDbArc
 50
89.9999990000051
 51
179.9999980000102
  0
ARC
  5
12A9
330
1F
100
AcDbEntity
  8
D-STR
100
AcDbCircle
 10
6842.127889264907
 20
2886.567814946273
 30
0.0
 40
30.0
100
AcDbArc
 50
0.0
 51
89.9999990000051
  0
LINE
  5
12AA
330
1F
100
AcDbEntity
  8
D-STR
100
AcDbLine
 10
6872.127889264906
 20
2886.567814946273
 30
0.0
 11
6872.127889264906
 21
2836.567814946274
 31
0.0
  0
ARC
  5
12AB
330
1F
100
AcDbEntity
  8
D-STR
100
AcDbCircle
 10
6832.127889264907
 20
2866.567814946273
 30
0.0
 40
30.0
100
AcDbArc
 50
0.0
 51
89.9999990000051
  0
LINE
  5
12AC
330
1F
100
AcDbEntity
  8
D-STR
100
AcDbLine
 10
6862.127889264908
 20
2866.567814946273
 30
0.0
 11
6862.127889264908
 21
2836.567814946274
 31
0.0
  0
CIRCLE
  5
12AD
330
1F
100
AcDbEntity
  8
D-STR
100
AcDbCircle
 10
7147.127889264907
 20
2746.567814946274
 30
0.0
 40
10.0
  0
LINE
  5
12AE
330
1F
100
AcDbEntity
  8
D-STR
  6
HIDDEN
100
AcDbLine
 10
7122.127889264906
 20
2838.867814946274
 30
0.0
 11
7122.127889264906
 21
2818.867814946274
 31
0.0
  0
LINE
  5
12AF
330
1F
100
AcDbEntity
  8
D-STR
  6
HIDDEN
100
AcDbLine
 10
7122.127889264906
 20
2818.867814946274
 30
0.0
 11
7222.127889264907
 21
2813.867814946274
 31
0.0
  0
LINE
  5
12B0
330
1F
100
AcDbEntity
  8
D-STR
  6
HIDDEN
100
AcDbLine
 10
7222.127889264907
 20
2843.867814946273
 30
0.0
 11
7122.127889264906
 21
2838.867814946274
 31
0.0
  0
LINE
  5
12B1
330
1F
100
AcDbEntity
  8
D-STR
100
AcDbLine
 10
7217.627889264907
 20
2816.567814946274
 30
0.0
 11
7217.627889264907
 21
3036.567814946273
 31
0.0
  0
LINE
  5
12B2
330
1F
100
AcDbEntity
  8
D-STR
100
AcDbLine
 10
7217.627889264907
 20
3016.567814946274
 30
0.0
 11
7222.127889264907
 21
3013.567814946274
 31
0.0
  0
LINE
  5
12B3
330
1F
100
AcDbEntity
  8
D-STR
100
AcDbLine
 10
7217.627889264907
 20
2816.567814946274
 30
0.0
 11
7222.127889264907
 21
2816.567814946274
 31
0.0
  0
LINE
  5
12B4
330
1F
100
AcDbEntity
  8
D-STR
100
AcDbLine
 10
5222.127889264907
 20
2686.567814946274
 30
0.0
 11
7222.127889264907
 21
2686.567814946274
 31
0.0
  0
LINE
  5
12B5
330
1F
100
AcDbEntity
  8
D-STR
100
AcDbLine
 10
7222.127889264907
 20
2686.567814946274
 30
0.0
 11
7222.127889264907
 21
3013.567814946274
 31
0.0
  0
LINE
  5
12B6
330
1F
100
AcDbEntity
  8
D-STR
100
AcDbLine
 10
7217.627889264907
 20
3036.567814946273
 30
0.0
 11
5222.127889264907
 21
3036.567814946273
 31
0.0
  0
LINE
  5
12B7
330
1F
100
AcDbEntity
  8
D-STR
100
AcDbLine
 10
5222.127889264907
 20
3036.567814946273
 30
0.0
 11
5222.127889264907
 21
2686.567814946274
 31
0.0
  0
DIMENSION
  5
12BA
330
1F
100
AcDbEntity
  8
D-STR-DIM
 48
10.0
100
AcDbDimension
  2
*D27
 10
5222.127889264907
 20
3281.923729496818
 30
0.0
 11
6222.127889264907
 21
3306.923729496818
 31
0.0
 70
    32
 71
     5
 42
2000.0
  3
STANDARD
100
AcDbAlignedDimension
 13
7222.127889264907
 23
3036.567814946273
 33
0.0
 14
5222.127889264907
 24
3036.567814946273
 34
0.0
100
AcDbRotatedDimension
  0
DIMENSION
  5
12BB
330
1F
100
AcDbEntity
  8
D-STR-DIM
 48
10.0
100
AcDbDimension
  2
*D25
 10
4813.128017441609
 20
3166.745753472171
 30
0.0
 11
4768.128017446109
 21
3191.74575347217
 31
0.0
 70
    32
 71
     5
 42
89.99999999099964
  3
STANDARD
100
AcDbAlignedDimension
 13
4723.128017450608
 23
2836.567814931273
 33
0.0
 14
4813.128017441609
 24
2836.567814931273
 34
0.0
100
AcDbRotatedDimension
  0
DIMENSION
  5
12BC
330
1F
100
AcDbEntity
  8
D-STR-DIM
 48
10.0
100
AcDbDimension
  2
*D19
 10
4813.128017441609
 20
3296.923792033069
 30
0.0
 11
4613.128017461608
 21
3321.92379203307
 31
0.0
 70
    32
 71
     5
 42
399.9999999600004
  3
STANDARD
100
AcDbAlignedDimension
 13
4413.128017481608
 23
2836.567814931273
 33
0.0
 14
4813.128017441609
 24
2836.567814931273
 34
0.0
100
AcDbRotatedDimension
  0
DIMENSION
  5
12BD
330
1F
100
AcDbEntity
  8
D-STR-DIM
 48
10.0
100
AcDbDimension
  2
*D23
 10
4503.128017472607
 20
3166.745753472171
 30
0.0
 11
4458.128017477108
 21
3191.74575347217
 31
0.0
 70
    32
 71
     5
 42
89.99999999099964
  3
STANDARD
100
AcDbAlignedDimension
 13
4413.128017481608
 23
2836.567814931273
 33
0.0
 14
4503.128017472607
 24
2836.567814931273
 34
0.0
100
AcDbRotatedDimension
  0
DIMENSION
  5
12BE
330
1F
100
AcDbEntity
  8
D-STR-DIM
 48
10.0
100
AcDbDimension
  2
*D26
 10
4723.128017450608
 20
3166.745753472171
 30
0.0
 11
4713.127954256186
 21
3216.74575347217
 31
0.0
 70
    32
 71
     5
 42
20.00012638884618
  3
STANDARD
100
AcDbAlignedDimension
 13
4703.127891061763
 23
3036.567814911272
 33
0.0
 14
4723.128017450608
 24
2836.567814931273
 34
0.0
100
AcDbRotatedDimension
  0
DIMENSION
  5
12BF
330
1F
100
AcDbEntity
  8
D-STR-DIM
 48
10.0
100
AcDbDimension
  2
*D18
 10
4523.1282251674
 20
3166.745753472171
 30
0.0
 11
4513.128121320003
 21
3216.74575347217
 31
0.0
 70
    32
 71
     5
 42
20.00020769479124
  3
STANDARD
100
AcDbAlignedDimension
 13
4503.128017472607
 23
2836.567814931273
 33
0.0
 14
4523.1282251674
 24
3036.567814911272
 34
0.0
100
AcDbRotatedDimension
  0
DIMENSION
  5
12C0
330
1F
100
AcDbEntity
  8
D-STR-DIM
 48
10.0
100
AcDbDimension
  2
*D20
 10
4703.127891061763
 20
3166.745753472171
 30
0.0
 11
4613.128058114581
 21
3191.74575347217
 31
0.0
 70
    32
 71
     5
 42
179.9996658943637
  3
STANDARD
100
AcDbAlignedDimension
 13
4523.1282251674
 23
3036.567814911272
 33
0.0
 14
4703.127891061763
 24
3036.567814911272
 34
0.0
100
AcDbRotatedDimension
  0
DIMENSION
  5
12C1
330
1F
100
AcDbEntity
  8
D-STR-DIM
 48
10.0
100
AcDbDimension
  2
*D22
 10
4248.128017482108
 20
2836.567814931273
 30
0.0
 11
4223.128017482108
 21
2936.567814921273
 31
0.0
 70
    32
 71
     5
 42
199.9999999799993
  3
STANDARD
100
AcDbAlignedDimension
 13
4523.1282251674
 23
3036.567814911272
 33
0.0
 14
4413.128017481608
 24
2836.567814931273
 34
0.0
 50
90.0
100
AcDbRotatedDimension
  0
DIMENSION
  5
12C2
330
1F
100
AcDbEntity
  8
D-STR-DIM
 48
10.0
100
AcDbDimension
  2
*D21
 10
4143.709085951786
 20
2686.567814946274
 30
0.0
 11
4118.709085951785
 21
2861.567814928774
 31
0.0
 70
    32
 71
     5
 42
349.999999964999
  3
STANDARD
100
AcDbAlignedDimension
 13
4523.1282251674
 23
3036.567814911272
 33
0.0
 14
4408.128017482108
 24
2686.567814946274
 34
0.0
 50
90.0
100
AcDbRotatedDimension
  0
DIMENSION
  5
12C3
330
1F
100
AcDbEntity
  8
D-STR-DIM
 48
10.0
100
AcDbDimension
  2
*D24
 10
4248.128017482108
 20
2686.567814946274
 30
0.0
 11
4223.128017482108
 21
2761.567814938774
 31
0.0
 70
    32
 71
     5
 42
149.9999999849997
  3
STANDARD
100
AcDbAlignedDimension
 13
4413.128017481608
 23
2836.567814931273
 33
0.0
 14
4408.128017482108
 24
2686.567814946274
 34
0.0
 50
90.0
100
AcDbRotatedDimension
  0
DIMENSION
  5
144D
102
{ACAD_XDICTIONARY
360
145C
102
}
102
{ACAD_REACTORS
330
1468
102
}
330
1F
100
AcDbEntity
  8
D-STR-DIM
100
AcDbDimension
  2
*D28
 10
4341.802985779047
 20
2896.567814921873
 30
0.0
 11
4316.802985779046
 21
2866.567814926574
 31
0.0
 70
    32
 71
     5
 42
59.99999999059946
  3
STANDARD
100
AcDbAlignedDimension
 13
4413.128017481608
 23
2836.567814931273
 33
0.0
 14
4509.128017436983
 24
2896.567814921873
 34
0.0
 50
90.0
100
AcDbRotatedDimension
  0
DIMENSION
  5
1469
102
{ACAD_XDICTIONARY
360
1476
102
}
102
{ACAD_REACTORS
330
1480
102
}
330
1F
100
AcDbEntity
  8
D-STR-DIM
100
AcDbDimension
  2
*D29
 10
4915.704548333718
 20
2836.567814931273
 30
0.0
 11
4890.704548333718
 21
2876.567814929497
 31
0.0
 70
    32
 71
     5
 42
79.99999999644706
  3
STANDARD
100
AcDbAlignedDimension
 13
4715.128017497211
 23
2916.56781492772
 33
0.0
 14
4813.128017441609
 24
2836.567814931273
 34
0.0
 50
90.0
100
AcDbRotatedDimension
  0
LWPOLYLINE
  5
1495
330
1F
100
AcDbEntity
  8
D-STR
100
AcDbPolyline
 90
        5
 70
     0
 43
0.0
 10
6622.127889264906
 20
1739.053705370031
 10
5222.127889264907
 20
1739.053705370031
 10
5222.127889264907
 20
1389.053705370031
 10
7222.127889264907
 20
1389.053705370031
 10
7222.127889264907
 20
1536.05370537003
  0
CIRCLE
  5
1496
330
1F
100
AcDbEntity
  8
D-STR
100
AcDbCircle
 10
5297.127889264907
 20
1449.05370537003
 30
0.0
 40
10.0
  0
CIRCLE
  5
1497
330
1F
100
AcDbEntity
  8
D-STR
100
AcDbCircle
 10
5671.127889264907
 20
1449.05370537003
 30
0.0
 40
15.0
  0
LINE
  5
1498
330
1F
100
AcDbEntity
  8
D-STR
100
AcDbLine
 10
6622.127889264906
 20
1739.053705370031
 30
0.0
 11
7217.627889264907
 21
1560.403705370031
 31
0.0
  0
CIRCLE
  5
1499
330
1F
100
AcDbEntity
  8
D-STR
100
AcDbCircle
 10
6671.127889264908
 20
1449.05370537003
 30
0.0
 40
15.0
  0
CIRCLE
  5
149A
330
1F
100
AcDbEntity
  8
D-STR
100
AcDbCircle
 10
7147.127889264907
 20
1449.05370537003
 30
0.0
 40
10.0
  0
LINE
  5
149B
330
1F
100
AcDbEntity
  8
D-STR
  6
HIDDEN
100
AcDbLine
 10
5322.127889264907
 20
1506.053705370031
 30
0.0
 11
5222.127889264907
 21
1501.053705370031
 31
0.0
  0
LINE
  5
149C
330
1F
100
AcDbEntity
  8
D-STR
  6
HIDDEN
100
AcDbLine
 10
5222.127889264907
 20
1531.053705370031
 30
0.0
 11
5322.127889264907
 21
1526.05370537003
 31
0.0
  0
LINE
  5
149D
330
1F
100
AcDbEntity
  8
D-STR
  6
HIDDEN
100
AcDbLine
 10
5322.127889264907
 20
1526.05370537003
 30
0.0
 11
5322.127889264907
 21
1506.053705370031
 31
0.0
  0
LINE
  5
149E
330
1F
100
AcDbEntity
  8
D-STR
100
AcDbLine
 10
7217.627889264907
 20
1519.053705370031
 30
0.0
 11
7217.627889264907
 21
1560.403705370031
 31
0.0
  0
LINE
  5
149F
330
1F
100
AcDbEntity
  8
D-STR
100
AcDbLine
 10
7222.127889264907
 20
1536.05370537003
 30
0.0
 11
7217.627889264907
 21
1539.053705370031
 31
0.0
  0
LINE
  5
14A0
330
1F
100
AcDbEntity
  8
D-STR
100
AcDbLine
 10
7217.627889264907
 20
1519.053705370031
 30
0.0
 11
7222.127889264907
 21
1516.053705370031
 31
0.0
  0
LINE
  5
14A1
330
1F
100
AcDbEntity
  8
D-STR
100
AcDbLine
 10
5222.127889264907
 20
1539.053705370031
 30
0.0
 11
7217.627889264907
 21
1539.053705370031
 31
0.0
  0
LINE
  5
14A2
330
1F
100
AcDbEntity
  8
D-STR
  6
HIDDEN
100
AcDbLine
 10
7122.127889264906
 20
1526.05370537003
 30
0.0
 11
7122.127889264906
 21
1506.053705370031
 31
0.0
  0
LINE
  5
14A3
330
1F
100
AcDbEntity
  8
D-STR
  6
HIDDEN
100
AcDbLine
 10
7222.127889264907
 20
1531.053705370031
 30
0.0
 11
7122.127889264906
 21
1526.05370537003
 31
0.0
  0
LINE
  5
14A4
330
1F
100
AcDbEntity
  8
D-STR
  6
HIDDEN
100
AcDbLine
 10
7122.127889264906
 20
1506.053705370031
 30
0.0
 11
7222.127889264907
 21
1501.053705370031
 31
0.0
  0
DIMENSION
  5
14A8
330
1F
100
AcDbEntity
  8
D-STR-DIM
 48
10.0
100
AcDbDimension
  2
*D30
 10
5222.127889264907
 20
1984.409619920575
 30
0.0
 11
6222.127889264907
 21
2009.409619920575
 31
0.0
 70
    32
 71
     5
 42
2000.0
  3
STANDARD
100
AcDbAlignedDimension
 13
7222.127889264907
 23
1739.053705370031
 33
0.0
 14
5222.127889264907
 24
1739.053705370031
 34
0.0
100
AcDbRotatedDimension
  0
DIMENSION
  5
14AC
330
1F
100
AcDbEntity
  8
D-STR-DIM
 48
10.0
100
AcDbDimension
  2
*D32
 10
4813.128017441609
 20
1999.409682456827
 30
0.0
 11
4613.128017461608
 21
2024.409682456826
 31
0.0
 70
    32
 71
     5
 42
399.9999999600004
  3
STANDARD
100
AcDbAlignedDimension
 13
4413.128017481608
 23
1539.05370535503
 33
0.0
 14
4813.128017441609
 24
1539.05370535503
 34
0.0
100
AcDbRotatedDimension
  0
DIMENSION
  5
14AD
330
1F
100
AcDbEntity
  8
D-STR-DIM
100
AcDbDimension
  2
*D40
 10
4341.802985779047
 20
1559.053705353031
 30
0.0
 11
4291.802985779047
 21
1549.053705354031
 31
0.0
 70
    32
 71
     5
 42
19.9999999980007
  3
STANDARD
100
AcDbAlignedDimension
 13
4413.128017481608
 23
1539.05370535503
 33
0.0
 14
4413.128017481608
 24
1559.053705353031
 34
0.0
 50
90.0
100
AcDbRotatedDimension
  0
DIMENSION
  5
14B7
330
1F
100
AcDbEntity
  8
D-STR-DIM
 48
10.0
100
AcDbDimension
  2
*D33
 10
4503.128017472607
 20
1869.231643895927
 30
0.0
 11
4458.128017477108
 21
1894.231643895927
 31
0.0
 70
    32
 71
     5
 42
89.99999999099964
  3
STANDARD
100
AcDbAlignedDimension
 13
4413.128017481608
 23
1539.05370535503
 33
0.0
 14
4503.128017472607
 24
1539.05370535503
 34
0.0
100
AcDbRotatedDimension
  0
DIMENSION
  5
14B8
330
1F
100
AcDbEntity
  8
D-STR-DIM
 48
10.0
100
AcDbDimension
  2
*D37
 10
4248.128017482108
 20
1539.05370535503
 30
0.0
 11
4223.128017482109
 21
1639.05370534503
 31
0.0
 70
    32
 71
     5
 42
199.9999999799993
  3
STANDARD
100
AcDbAlignedDimension
 13
4523.1282251674
 23
1739.05370533503
 33
0.0
 14
4413.128017481608
 24
1539.05370535503
 34
0.0
 50
90.0
100
AcDbRotatedDimension
  0
DIMENSION
  5
14B9
330
1F
100
AcDbEntity
  8
D-STR-DIM
 48
10.0
100
AcDbDimension
  2
*D38
 10
4143.709085951786
 20
1389.053705370031
 30
0.0
 11
4118.709085951786
 21
1564.053705352531
 31
0.0
 70
    32
 71
     5
 42
349.999999964999
  3
STANDARD
100
AcDbAlignedDimension
 13
4523.1282251674
 23
1739.05370533503
 33
0.0
 14
4408.128017482108
 24
1389.053705370031
 34
0.0
 50
90.0
100
AcDbRotatedDimension
  0
DIMENSION
  5
14BA
330
1F
100
AcDbEntity
  8
D-STR-DIM
 48
10.0
100
AcDbDimension
  2
*D39
 10
4248.128017482108
 20
1389.053705370031
 30
0.0
 11
4223.128017482109
 21
1464.053705362531
 31
0.0
 70
    32
 71
     5
 42
149.9999999849997
  3
STANDARD
100
AcDbAlignedDimension
 13
4413.128017481608
 23
1539.05370535503
 33
0.0
 14
4408.128017482108
 24
1389.053705370031
 34
0.0
 50
90.0
100
AcDbRotatedDimension
  0
DIMENSION
  5
14C2
330
1F
100
AcDbEntity
  8
D-STR-DIM
 48
10.0
100
AcDbDimension
  2
*D35
 10
4523.1282251674
 20
1869.231643895927
 30
0.0
 11
4513.128121320003
 21
1919.231643895927
 31
0.0
 70
    32
 71
     5
 42
20.00020769479124
  3
STANDARD
100
AcDbAlignedDimension
 13
4503.128017472607
 23
1539.05370535503
 33
0.0
 14
4523.1282251674
 24
1739.05370533503
 34
0.0
100
AcDbRotatedDimension
  0
DIMENSION
  5
14C3
330
1F
100
AcDbEntity
  8
D-STR-DIM
 48
10.0
100
AcDbDimension
  2
*D34
 10
4723.128017450608
 20
1869.231643895927
 30
0.0
 11
4713.127954256186
 21
1919.231643895927
 31
0.0
 70
    32
 71
     5
 42
20.00012638884618
  3
STANDARD
100
AcDbAlignedDimension
 13
4703.127891061763
 23
1739.05370533503
 33
0.0
 14
4723.128017450608
 24
1539.05370535503
 34
0.0
100
AcDbRotatedDimension
  0
DIMENSION
  5
14C4
330
1F
100
AcDbEntity
  8
D-STR-DIM
 48
10.0
100
AcDbDimension
  2
*D31
 10
4813.128017441609
 20
1869.231643895927
 30
0.0
 11
4768.128017446109
 21
1894.231643895927
 31
0.0
 70
    32
 71
     5
 42
89.99999999099964
  3
STANDARD
100
AcDbAlignedDimension
 13
4723.128017450608
 23
1539.05370535503
 33
0.0
 14
4813.128017441609
 24
1539.05370535503
 34
0.0
100
AcDbRotatedDimension
  0
DIMENSION
  5
14D0
330
1F
100
AcDbEntity
  8
D-STR-DIM
 48
10.0
100
AcDbDimension
  2
*D36
 10
4703.127891061763
 20
1869.231643895927
 30
0.0
 11
4613.128058114581
 21
1894.231643895927
 31
0.0
 70
    32
 71
     5
 42
179.9996658943637
  3
STANDARD
100
AcDbAlignedDimension
 13
4523.1282251674
 23
1739.05370533503
 33
0.0
 14
4703.127891061763
 24
1739.05370533503
 34
0.0
100
AcDbRotatedDimension
  0
MTEXT
  5
14ED
330
1F
100
AcDbEntity
  8
D-STR-TXT
370
    -3
100
AcDbMText
 10
5150.317018954062
 20
2275.418607943904
 30
0.0
 40
50.0
 41
0.0
 71
     5
 72
     1
  1
S=1/10
 73
     1
 44
1.0
  0
MTEXT
  5
14EE
330
1F
100
AcDbEntity
  8
D-STR-TXT
370
    -3
100
AcDbMText
 10
5053.363818267623
 20
2348.499951485918
 30
0.0
 40
50.0
 41
0.0
 71
     5
 72
     1
  1
{\L切り下げ}
 73
     1
 44
1.0
  0
ENDSEC
  0
SECTION
  2
OBJECTS
  0
DICTIONARY
  5
C
330
0
100
AcDbDictionary
281
     1
  3
ACAD_GROUP
350
D
  3
ACAD_LAYOUT
350
1A
  3
ACAD_MLINESTYLE
350
17
  3
ACAD_PLOTSETTINGS
350
19
  3
ACAD_PLOTSTYLENAME
350
E
  3
AcDbVariableDictionary
350
FB8
  3
ASE_INDEX_DICTIONARY
350
FB4
  0
DICTIONARY
  5
145C
330
144D
100
AcDbDictionary
280
     1
281
     1
  3
ACAD_DIMASSOC
360
1468
  0
DICTIONARY
  5
1476
330
1469
100
AcDbDictionary
280
     1
281
     1
  3
ACAD_DIMASSOC
360
1480
  0
DICTIONARY
  5
D
102
{ACAD_REACTORS
330
C
102
}
330
C
100
AcDbDictionary
281
     1
  0
DICTIONARY
  5
1A
102
{ACAD_REACTORS
330
C
102
}
330
C
100
AcDbDictionary
281
     1
  3
Model
350
22
  3
ﾚｲｱｳﾄ1
350
1E
  3
ﾚｲｱｳﾄ2
350
26
  0
DICTIONARY
  5
17
102
{ACAD_REACTORS
330
C
102
}
330
C
100
AcDbDictionary
281
     1
  3
Standard
350
18
  0
DICTIONARY
  5
19
102
{ACAD_REACTORS
330
C
102
}
330
C
100
AcDbDictionary
281
     1
  0
ACDBDICTIONARYWDFLT
  5
E
102
{ACAD_REACTORS
330
C
102
}
330
C
100
AcDbDictionary
281
     1
  3
Normal
350
F
100
AcDbDictionaryWithDefault
340
F
  0
DICTIONARY
  5
FB8
102
{ACAD_REACTORS
330
C
102
}
330
C
100
AcDbDictionary
281
     1
  3
DIMASSOC
350
FBA
  3
HIDETEXT
350
FB9
  0
DICTIONARY
  5
FB4
102
{ACAD_REACTORS
330
C
102
}
330
C
100
AcDbDictionary
281
     1
  3
ASEBlockHierarchyIndexRecord
350
FB6
1001
DCO15
1040
1594528434.857
  0
DIMASSOC
  5
1468
102
{ACAD_REACTORS
330
145C
102
}
330
145C
100
AcDbDimAssoc
330
144D
 90
        3
 70
     0
 71
     0
  1
AcDbOsnapPointRef
 72
    13
331
1240
 73
     2
 91
        0
 40
0.0
 10
4413.128017481608
 20
2836.567814931273
 30
0.0
 75
     0
  1
AcDbOsnapPointRef
 72
     6
331
1241
 73
     2
 91
        0
 40
0.3468506604397849
 10
4509.128017436983
 20
2896.567814921873
 30
0.0
332
1035
 74
     2
 92
        0
 75
     0
  0
DIMASSOC
  5
1480
102
{ACAD_REACTORS
330
1476
102
}
330
1476
100
AcDbDimAssoc
330
1469
 90
        3
 70
     0
 71
     0
  1
AcDbOsnapPointRef
 72
     6
331
123B
 73
     2
 91
        0
 40
0.537532452695035
 10
4715.128017497211
 20
2916.56781492772
 30
0.0
332
1035
 74
     2
 92
        0
 75
     0
  1
AcDbOsnapPointRef
 72
     1
331
123C
 73
     2
 91
        0
 40
1.0
 10
4813.128017441609
 20
2836.567814931273
 30
0.0
 75
     0
  0
LAYOUT
  5
22
102
{ACAD_REACTORS
330
1A
102
}
330
1A
100
AcDbPlotSettings
  1

  2
RICOH IPSiO NX620 RPCS
  4

  6

 40
0.0
 41
0.0
 42
0.0
 43
0.0
 44
0.0
 45
0.0
 46
0.0
 47
0.0
 48
0.0
 49
0.0
140
0.0
141
0.0
142
1.0
143
1.0
 70
  1712
 72
     0
 73
     0
 74
     0
  7
monochrome.ctb
 75
     0
147
1.0
148
0.0
149
0.0
100
AcDbLayout
  1
Model
 70
     1
 71
     0
 10
0.0
 20
0.0
 11
12.0
 21
9.0
 12
0.0
 22
0.0
 32
0.0
 14
0.0
 24
0.0
 34
0.0
 15
0.0
 25
0.0
 35
0.0
146
0.0
 13
0.0
 23
0.0
 33
0.0
 16
1.0
 26
0.0
 36
0.0
 17
0.0
 27
1.0
 37
0.0
 76
     0
330
1F
  0
LAYOUT
  5
1E
102
{ACAD_REACTORS
330
1A
102
}
330
1A
100
AcDbPlotSettings
  1

  2
RICOH IPSiO NX620 RPCS
  4

  6

 40
0.0
 41
0.0
 42
0.0
 43
0.0
 44
0.0
 45
0.0
 46
0.0
 47
0.0
 48
0.0
 49
0.0
140
0.0
141
0.0
142
1.0
143
1.0
 70
   688
 72
     0
 73
     0
 74
     5
  7
monochrome.ctb
 75
    16
147
1.0
148
0.0
149
0.0
100
AcDbLayout
  1
ﾚｲｱｳﾄ1
 70
     1
 71
     1
 10
0.0
 20
0.0
 11
420.0
 21
297.0
 12
0.0
 22
0.0
 32
0.0
 14
1.000000000000000E+20
 24
1.000000000000000E+20
 34
1.000000000000000E+20
 15
-1.000000000000000E+20
 25
-1.000000000000000E+20
 35
-1.000000000000000E+20
146
0.0
 13
0.0
 23
0.0
 33
0.0
 16
1.0
 26
0.0
 36
0.0
 17
0.0
 27
1.0
 37
0.0
 76
     0
330
1B
  0
LAYOUT
  5
26
102
{ACAD_REACTORS
330
1A
102
}
330
1A
100
AcDbPlotSettings
  1

  2
RICOH IPSiO NX620 RPCS
  4

  6

 40
0.0
 41
0.0
 42
0.0
 43
0.0
 44
0.0
 45
0.0
 46
0.0
 47
0.0
 48
0.0
 49
0.0
140
0.0
141
0.0
142
1.0
143
1.0
 70
   688
 72
     0
 73
     0
 74
     5
  7
monochrome.ctb
 75
    16
147
1.0
148
0.0
149
0.0
100
AcDbLayout
  1
ﾚｲｱｳﾄ2
 70
     1
 71
     2
 10
0.0
 20
0.0
 11
12.0
 21
9.0
 12
0.0
 22
0.0
 32
0.0
 14
0.0
 24
0.0
 34
0.0
 15
0.0
 25
0.0
 35
0.0
146
0.0
 13
0.0
 23
0.0
 33
0.0
 16
1.0
 26
0.0
 36
0.0
 17
0.0
 27
1.0
 37
0.0
 76
     0
330
23
  0
MLINESTYLE
  5
18
102
{ACAD_REACTORS
330
17
102
}
330
17
100
AcDbMlineStyle
  2
STANDARD
 70
     0
  3

 62
   256
 51
90.0
 52
90.0
 71
     2
 49
0.5
 62
   256
  6
BYLAYER
 49
-0.5
 62
   256
  6
BYLAYER
  0
ACDBPLACEHOLDER
  5
F
102
{ACAD_REACTORS
330
E
102
}
330
E
  0
DICTIONARYVAR
  5
FBA
102
{ACAD_REACTORS
330
FB8
102
}
330
FB8
100
DictionaryVariables
280
     0
  1
2
  0
DICTIONARYVAR
  5
FB9
102
{ACAD_REACTORS
330
FB8
102
}
330
FB8
100
DictionaryVariables
280
     0
  1
1
  0
XRECORD
  5
FB6
102
{ACAD_REACTORS
330
FB4
102
}
330
FB4
100
AcDbXrecord
280
     1
330
0
330
0
330
0
330
0
330
0
330
0
330
0
330
0
330
0
330
0
330
0
330
0
330
0
330
0
330
0
330
0
330
0
330
0
330
0
330
0
330
0
330
0
330
0
330
0
330
0
330
0
330
0
330
0
330
0
330
0
330
0
330
0
330
0
330
0
330
0
330
0
330
0
330
0
330
0
330
0
330
0
330
0
330
0
330
0
330
0
330
0
330
0
330
0
330
0
330
0
330
0
330
0
330
0
330
0
330
0
330
0
330
0
330
0
330
0
330
0
330
0
330
0
330
0
330
0
330
0
330
0
330
0
330
0
330
0
330
0
330
0
330
0
330
0
330
0
330
0
330
0
330
0
330
0
330
0
330
0
330
0
330
0
330
0
330
0
330
0
330
0
330
0
330
0
330
0
330
0
330
0
330
0
330
0
330
0
330
0
330
0
330
0
330
0
330
0
330
0
330
0
330
0
330
0
330
0
330
0
330
0
330
0
330
0
330
0
330
0
330
0
330
0
330
0
330
0
330
0
330
0
330
0
330
0
330
0
330
0
330
0
330
0
330
0
330
0
330
0
330
0
330
0
330
0
330
0
330
0
330
0
330
0
330
0
330
0
330
0
330
0
330
0
330
0
330
0
330
0
330
0
330
0
330
0
330
0
330
0
330
0
330
0
330
0
330
0
330
0
330
0
330
0
330
0
330
0
  0
ENDSEC
  0
EOF
