  0
SECTION
  2
HEADER
  9
$ACADVER
  1
AC1015
  9
$ACADMAINTVER
 70
    14
  9
$DWGCODEPAGE
  3
ANSI_932
  9
$INSBASE
 10
0.0
 20
0.0
 30
0.0
  9
$EXTMIN
 10
-0.2296897824453481
 20
-0.264761320046091
 30
-0.0000000349181948
  9
$EXTMAX
 10
8400.154823879267
 20
5940.108658337376
 30
0.0000000814935746
  9
$LIMMIN
 10
0.0
 20
0.0
  9
$LIMMAX
 10
420.0
 20
297.0
  9
$ORTHOMODE
 70
     1
  9
$REGENMODE
 70
     1
  9
$FILLMODE
 70
     1
  9
$QTEXTMODE
 70
     0
  9
$MIRRTEXT
 70
     1
  9
$LTSCALE
 40
10.0
  9
$ATTMODE
 70
     1
  9
$TEXTSIZE
 40
2.5
  9
$TRACEWID
 40
1.0
  9
$TEXTSTYLE
  7
Standard
  9
$CLAYER
  8
D-STR-DIM
  9
$CELTYPE
  6
ByLayer
  9
$CECOLOR
 62
   256
  9
$CELTSCALE
 40
1.0
  9
$DISPSILH
 70
     0
  9
$DIMSCALE
 40
10.0
  9
$DIMASZ
 40
2.5
  9
$DIMEXO
 40
1.0
  9
$DIMDLI
 40
10.0
  9
$DIMRND
 40
0.0
  9
$DIMDLE
 40
0.0
  9
$DIMEXE
 40
2.0
  9
$DIMTP
 40
0.0
  9
$DIMTM
 40
0.0
  9
$DIMTXT
 40
3.0
  9
$DIMCEN
 40
2.5
  9
$DIMTSZ
 40
0.0
  9
$DIMTOL
 70
     0
  9
$DIMLIM
 70
     0
  9
$DIMTIH
 70
     0
  9
$DIMTOH
 70
     0
  9
$DIMSE1
 70
     0
  9
$DIMSE2
 70
     0
  9
$DIMTAD
 70
     1
  9
$DIMZIN
 70
     8
  9
$DIMBLK
  1
OPEN30
  9
$DIMASO
 70
     1
  9
$DIMSHO
 70
     1
  9
$DIMPOST
  1

  9
$DIMAPOST
  1

  9
$DIMALT
 70
     0
  9
$DIMALTD
 70
     3
  9
$DIMALTF
 40
0.03937007874016
  9
$DIMLFAC
 40
1.0
  9
$DIMTOFL
 70
     1
  9
$DIMTVP
 40
0.0
  9
$DIMTIX
 70
     0
  9
$DIMSOXD
 70
     0
  9
$DIMSAH
 70
     0
  9
$DIMBLK1
  1

  9
$DIMBLK2
  1

  9
$DIMSTYLE
  2
S10
  9
$DIMCLRD
 70
   256
  9
$DIMCLRE
 70
   256
  9
$DIMCLRT
 70
   256
  9
$DIMTFAC
 40
1.0
  9
$DIMGAP
 40
1.0
  9
$DIMJUST
 70
     0
  9
$DIMSD1
 70
     0
  9
$DIMSD2
 70
     0
  9
$DIMTOLJ
 70
     0
  9
$DIMTZIN
 70
     8
  9
$DIMALTZ
 70
     0
  9
$DIMALTTZ
 70
     0
  9
$DIMUPT
 70
     0
  9
$DIMDEC
 70
     0
  9
$DIMTDEC
 70
     0
  9
$DIMALTU
 70
     2
  9
$DIMALTTD
 70
     3
  9
$DIMTXSTY
  7
Standard
  9
$DIMAUNIT
 70
     0
  9
$DIMADEC
 70
     0
  9
$DIMALTRND
 40
0.0
  9
$DIMAZIN
 70
     0
  9
$DIMDSEP
 70
    46
  9
$DIMATFIT
 70
     3
  9
$DIMFRAC
 70
     0
  9
$DIMLDRBLK
  1
OPEN30
  9
$DIMLUNIT
 70
     2
  9
$DIMLWD
 70
    -2
  9
$DIMLWE
 70
    -2
  9
$DIMTMOVE
 70
     0
  9
$LUNITS
 70
     2
  9
$LUPREC
 70
     4
  9
$SKETCHINC
 40
1.0
  9
$FILLETRAD
 40
50.0
  9
$AUNITS
 70
     0
  9
$AUPREC
 70
     0
  9
$MENU
  1
.
  9
$ELEVATION
 40
0.0
  9
$PELEVATION
 40
0.0
  9
$THICKNESS
 40
0.0
  9
$LIMCHECK
 70
     0
  9
$CHAMFERA
 40
0.0
  9
$CHAMFERB
 40
0.0
  9
$CHAMFERC
 40
20.0
  9
$CHAMFERD
 40
0.0
  9
$SKPOLY
 70
     0
  9
$TDCREATE
 40
2452871.347558217
  9
$TDUCREATE
 40
2452870.972558217
  9
$TDUPDATE
 40
2454642.409730336
  9
$TDUUPDATE
 40
2454642.034730336
  9
$TDINDWG
 40
0.6819959375
  9
$TDUSRTIMER
 40
0.6819959375
  9
$USRTIMER
 70
     1
  9
$ANGBASE
 50
0.0
  9
$ANGDIR
 70
     0
  9
$PDMODE
 70
     0
  9
$PDSIZE
 40
0.0
  9
$PLINEWID
 40
0.0
  9
$SPLFRAME
 70
     0
  9
$SPLINETYPE
 70
     6
  9
$SPLINESEGS
 70
     8
  9
$HANDSEED
  5
1685D
  9
$SURFTAB1
 70
     6
  9
$SURFTAB2
 70
     6
  9
$SURFTYPE
 70
     6
  9
$SURFU
 70
     6
  9
$SURFV
 70
     6
  9
$UCSBASE
  2

  9
$UCSNAME
  2

  9
$UCSORG
 10
0.0
 20
0.0
 30
0.0
  9
$UCSXDIR
 10
1.0
 20
0.0
 30
0.0
  9
$UCSYDIR
 10
0.0
 20
1.0
 30
0.0
  9
$UCSORTHOREF
  2

  9
$UCSORTHOVIEW
 70
     0
  9
$UCSORGTOP
 10
0.0
 20
0.0
 30
0.0
  9
$UCSORGBOTTOM
 10
0.0
 20
0.0
 30
0.0
  9
$UCSORGLEFT
 10
0.0
 20
0.0
 30
0.0
  9
$UCSORGRIGHT
 10
0.0
 20
0.0
 30
0.0
  9
$UCSORGFRONT
 10
0.0
 20
0.0
 30
0.0
  9
$UCSORGBACK
 10
0.0
 20
0.0
 30
0.0
  9
$PUCSBASE
  2

  9
$PUCSNAME
  2

  9
$PUCSORG
 10
0.0
 20
0.0
 30
0.0
  9
$PUCSXDIR
 10
1.0
 20
0.0
 30
0.0
  9
$PUCSYDIR
 10
0.0
 20
1.0
 30
0.0
  9
$PUCSORTHOREF
  2

  9
$PUCSORTHOVIEW
 70
     0
  9
$PUCSORGTOP
 10
0.0
 20
0.0
 30
0.0
  9
$PUCSORGBOTTOM
 10
0.0
 20
0.0
 30
0.0
  9
$PUCSORGLEFT
 10
0.0
 20
0.0
 30
0.0
  9
$PUCSORGRIGHT
 10
0.0
 20
0.0
 30
0.0
  9
$PUCSORGFRONT
 10
0.0
 20
0.0
 30
0.0
  9
$PUCSORGBACK
 10
0.0
 20
0.0
 30
0.0
  9
$USERI1
 70
     0
  9
$USERI2
 70
     0
  9
$USERI3
 70
     0
  9
$USERI4
 70
     0
  9
$USERI5
 70
     0
  9
$USERR1
 40
0.0
  9
$USERR2
 40
0.0
  9
$USERR3
 40
0.0
  9
$USERR4
 40
0.0
  9
$USERR5
 40
0.0
  9
$WORLDVIEW
 70
     1
  9
$SHADEDGE
 70
     3
  9
$SHADEDIF
 70
    70
  9
$TILEMODE
 70
     1
  9
$MAXACTVP
 70
    64
  9
$PINSBASE
 10
0.0
 20
0.0
 30
0.0
  9
$PLIMCHECK
 70
     0
  9
$PEXTMIN
 10
1.000000000000000E+20
 20
1.000000000000000E+20
 30
1.000000000000000E+20
  9
$PEXTMAX
 10
-1.000000000000000E+20
 20
-1.000000000000000E+20
 30
-1.000000000000000E+20
  9
$PLIMMIN
 10
0.0
 20
0.0
  9
$PLIMMAX
 10
420.0
 20
297.0
  9
$UNITMODE
 70
     0
  9
$VISRETAIN
 70
     1
  9
$PLINEGEN
 70
     0
  9
$PSLTSCALE
 70
     1
  9
$TREEDEPTH
 70
  3020
  9
$CMLSTYLE
  2
Standard
  9
$CMLJUST
 70
     0
  9
$CMLSCALE
 40
20.0
  9
$PROXYGRAPHICS
 70
     1
  9
$MEASUREMENT
 70
     1
  9
$CELWEIGHT
370
    -1
  9
$ENDCAPS
280
     0
  9
$JOINSTYLE
280
     0
  9
$LWDISPLAY
290
     0
  9
$INSUNITS
 70
     4
  9
$HYPERLINKBASE
  1

  9
$STYLESHEET
  1
monochrome.ctb
  9
$XEDIT
290
     1
  9
$CEPSNTYPE
380
     0
  9
$PSTYLEMODE
290
     1
  9
$FINGERPRINTGUID
  2
{D1FD9ED3-811D-4C3D-9EA5-C7A58094841D}
  9
$VERSIONGUID
  2
{E4D1B64D-2C0F-40DB-B283-A93FBA660A83}
  9
$EXTNAMES
290
     1
  9
$PSVPSCALE
 40
0.0
  9
$OLESTARTUP
290
     0
  0
ENDSEC
  0
SECTION
  2
CLASSES
  0
CLASS
  1
ACDBDICTIONARYWDFLT
  2
AcDbDictionaryWithDefault
  3
AutoCAD 2000
 90
        0
280
     0
281
     0
  0
CLASS
  1
ACDBPLACEHOLDER
  2
AcDbPlaceHolder
  3
AutoCAD 2000
 90
        0
280
     0
281
     0
  0
CLASS
  1
LAYOUT
  2
AcDbLayout
  3
AutoCAD 2000
 90
        0
280
     0
281
     0
  0
CLASS
  1
DICTIONARYVAR
  2
AcDbDictionaryVar
  3
AutoCAD 2000
 90
        0
280
     0
281
     0
  0
CLASS
  1
DIMASSOC
  2
AcDbDimAssoc
  3
"AcDbDimAssoc|Product Desc:     AcDim ARX App For Dimension|Company:          Autodesk, Inc.|WEB Address:      www.autodesk.com"
 90
    32768
280
     0
281
     0
  0
ENDSEC
  0
SECTION
  2
TABLES
  0
TABLE
  2
VPORT
  5
8
330
0
100
AcDbSymbolTable
 70
     2
  0
VPORT
  5
1685C
330
8
100
AcDbSymbolTableRecord
100
AcDbViewportTableRecord
  2
*Active
 70
     0
 10
0.0
 20
0.0
 11
1.0
 21
1.0
 12
4199.962567048411
 22
2969.921948508664
 13
0.0
 23
0.0
 14
10.0
 24
10.0
 15
10.0
 25
10.0
 16
0.0
 26
0.0
 36
1.0
 17
0.0
 27
0.0
 37
0.0
 40
5989.13161462041
 41
1.64931506849315
 42
50.0
 43
0.0
 44
0.0
 50
0.0
 51
0.0
 71
     0
 72
   100
 73
     1
 74
     1
 75
     0
 76
     0
 77
     0
 78
     0
281
     0
 65
     1
110
0.0
120
0.0
130
0.0
111
1.0
121
0.0
131
0.0
112
0.0
122
1.0
132
0.0
 79
     0
146
0.0
  0
ENDTAB
  0
TABLE
  2
LTYPE
  5
5
330
0
100
AcDbSymbolTable
 70
     2
  0
LTYPE
  5
14
330
5
100
AcDbSymbolTableRecord
100
AcDbLinetypeTableRecord
  2
ByBlock
 70
     0
  3

 72
    65
 73
     0
 40
0.0
  0
LTYPE
  5
15
330
5
100
AcDbSymbolTableRecord
100
AcDbLinetypeTableRecord
  2
ByLayer
 70
     0
  3

 72
    65
 73
     0
 40
0.0
  0
LTYPE
  5
16
330
5
100
AcDbSymbolTableRecord
100
AcDbLinetypeTableRecord
  2
Continuous
 70
     0
  3
Solid line
 72
    65
 73
     0
 40
0.0
  0
LTYPE
  5
1153F
330
5
100
AcDbSymbolTableRecord
100
AcDbLinetypeTableRecord
  2
DASHED1
 70
     0
  3
--  --  --  --  --  --  --  --  
 72
    65
 73
     2
 40
2.5
 49
1.25
 74
     0
 49
-1.25
 74
     0
  0
ENDTAB
  0
TABLE
  2
LAYER
  5
2
330
0
100
AcDbSymbolTable
 70
     6
  0
LAYER
  5
10
330
2
100
AcDbSymbolTableRecord
100
AcDbLayerTableRecord
  2
0
 70
     0
 62
     7
  6
Continuous
370
    -3
390
F
  0
LAYER
  5
40
330
2
100
AcDbSymbolTableRecord
100
AcDbLayerTableRecord
  2
DEFPOINTS
 70
     0
 62
     7
  6
Continuous
290
     0
370
    -3
390
F
  0
LAYER
  5
9E
330
2
100
AcDbSymbolTableRecord
100
AcDbLayerTableRecord
  2
D-STR
 70
     0
 62
     1
  6
Continuous
370
    -3
390
F
  0
LAYER
  5
A0
330
2
100
AcDbSymbolTableRecord
100
AcDbLayerTableRecord
  2
D-STR-TXT
 70
     0
 62
     7
  6
Continuous
370
    15
390
F
  0
LAYER
  5
105E7
330
2
100
AcDbSymbolTableRecord
100
AcDbLayerTableRecord
  2
D-TTL
 70
     0
 62
     2
  6
Continuous
370
    -3
390
F
  0
LAYER
  5
11983
330
2
100
AcDbSymbolTableRecord
100
AcDbLayerTableRecord
  2
D-STR-DIM
 70
     0
 62
     7
  6
Continuous
370
    15
390
F
  0
ENDTAB
  0
TABLE
  2
STYLE
  5
3
330
0
100
AcDbSymbolTable
 70
     1
  0
STYLE
  5
11
330
3
100
AcDbSymbolTableRecord
100
AcDbTextStyleTableRecord
  2
Standard
 70
     0
 40
0.0
 41
0.8
 50
0.0
 71
     0
 42
2.5
  3
MS Gothic.ttf
  4

1001
ACAD
1000
MS Gothic
1071
    32817
  0
ENDTAB
  0
TABLE
  2
VIEW
  5
6
330
0
100
AcDbSymbolTable
 70
     0
  0
ENDTAB
  0
TABLE
  2
UCS
  5
7
330
0
100
AcDbSymbolTable
 70
     0
  0
ENDTAB
  0
TABLE
  2
APPID
  5
9
330
0
100
AcDbSymbolTable
 70
     2
  0
APPID
  5
12
330
9
100
AcDbSymbolTableRecord
100
AcDbRegAppTableRecord
  2
ACAD
 70
     0
  0
APPID
  5
16717
330
9
100
AcDbSymbolTableRecord
100
AcDbRegAppTableRecord
  2
DCO15
 70
     0
  0
ENDTAB
  0
TABLE
  2
DIMSTYLE
  5
A
330
0
100
AcDbSymbolTable
 70
     2
100
AcDbDimStyleTable
 71
     1
340
229D
  0
DIMSTYLE
105
229D
102
{ACAD_REACTORS
330
1605C
330
1605B
330
160A3
330
160A2
330
160A4
330
160A5
330
16199
330
161D7
330
161F6
330
1621E
330
1623D
330
1626E
330
1628D
330
162C4
330
16420
330
16421
330
1645E
330
16487
330
16488
330
164BC
330
164DA
330
164DB
330
164D7
330
164D6
330
164D8
330
164D9
330
1661B
330
16631
330
16665
330
16664
330
16666
330
166F4
102
}
330
A
100
AcDbSymbolTableRecord
100
AcDbDimStyleTableRecord
  2
S10
 70
     0
 40
10.0
 41
2.5
 42
1.0
 43
10.0
 44
2.0
 73
     0
 74
     0
 77
     1
 78
     8
140
3.0
141
2.5
143
0.03937007874016
147
1.0
171
     3
172
     1
176
   256
177
   256
178
   256
271
     0
272
     0
274
     3
283
     0
284
     8
340
11
341
2B
342
2B
  0
DIMSTYLE
105
11541
330
A
100
AcDbSymbolTableRecord
100
AcDbDimStyleTableRecord
  2
Standard
 70
     0
340
11
  0
ENDTAB
  0
TABLE
  2
BLOCK_RECORD
  5
1
330
0
100
AcDbSymbolTable
 70
    34
  0
BLOCK_RECORD
  5
1F
330
1
100
AcDbSymbolTableRecord
100
AcDbBlockTableRecord
  2
*Model_Space
340
22
  0
BLOCK_RECORD
  5
1B
330
1
100
AcDbSymbolTableRecord
100
AcDbBlockTableRecord
  2
*Paper_Space
340
1E
  0
BLOCK_RECORD
  5
23
330
1
100
AcDbSymbolTableRecord
100
AcDbBlockTableRecord
  2
*Paper_Space0
340
26
  0
BLOCK_RECORD
  5
2B
330
1
100
AcDbSymbolTableRecord
100
AcDbBlockTableRecord
  2
_OPEN30
340
0
102
{BLKREFS
331
162F3
331
162F4
331
162FC
331
162FD
331
16305
331
16306
331
1630E
331
1630F
331
16319
331
1631A
331
16322
331
16323
331
1632B
331
1632C
331
16334
331
16335
331
1633D
331
1633E
331
16346
331
16347
331
1634F
331
16350
331
163A4
331
163A5
331
163AC
331
163AD
331
1644F
331
16450
331
16458
331
16459
331
1647E
331
1647F
331
164A4
331
164A5
331
164B6
331
164B7
331
164D1
331
164D2
331
1653B
331
1653C
331
165CD
331
165CE
331
165D5
331
165D6
331
165E1
331
165E2
331
165E9
331
165EA
331
16616
331
16617
331
16655
331
16656
331
1665E
331
1665F
331
166BD
331
166BE
331
166D8
331
166D9
331
166EF
331
166F0
331
16704
331
16705
331
16722
331
16723
331
1672F
331
16730
331
16738
331
16739
331
16741
331
16742
331
1674A
331
1674B
331
16755
331
16756
331
1675E
331
1675F
331
16767
331
16768
331
16770
331
16771
331
16779
331
1677A
331
16782
331
16783
331
1678B
331
1678C
331
16794
331
16795
331
1679D
331
1679E
331
167A6
331
167A7
331
167AF
331
167B0
331
167B8
331
167B9
331
167C1
331
167C2
331
167CD
331
167CE
331
167D8
331
167D9
331
167E3
331
167E4
331
167EB
331
167EC
331
167F4
331
167F5
331
16800
331
16801
331
1680B
331
1680C
331
16813
331
16814
331
1681C
331
1681D
331
16825
331
16826
331
1682E
331
1682F
331
1683A
331
1683B
331
16842
331
16843
331
1684B
331
1684C
331
16857
331
16858
102
}
  0
BLOCK_RECORD
  5
1605D
330
1
100
AcDbSymbolTableRecord
100
AcDbBlockTableRecord
  2
*D2
340
0
  0
BLOCK_RECORD
  5
16069
330
1
100
AcDbSymbolTableRecord
100
AcDbBlockTableRecord
  2
*D3
340
0
  0
BLOCK_RECORD
  5
160A6
330
1
100
AcDbSymbolTableRecord
100
AcDbBlockTableRecord
  2
*D4
340
0
  0
BLOCK_RECORD
  5
160B2
330
1
100
AcDbSymbolTableRecord
100
AcDbBlockTableRecord
  2
*D5
340
0
  0
BLOCK_RECORD
  5
160BE
330
1
100
AcDbSymbolTableRecord
100
AcDbBlockTableRecord
  2
*D6
340
0
  0
BLOCK_RECORD
  5
160CA
330
1
100
AcDbSymbolTableRecord
100
AcDbBlockTableRecord
  2
*D7
340
0
  0
BLOCK_RECORD
  5
1619A
330
1
100
AcDbSymbolTableRecord
100
AcDbBlockTableRecord
  2
*D8
340
0
  0
BLOCK_RECORD
  5
161D8
330
1
100
AcDbSymbolTableRecord
100
AcDbBlockTableRecord
  2
*D9
340
0
  0
BLOCK_RECORD
  5
161F7
330
1
100
AcDbSymbolTableRecord
100
AcDbBlockTableRecord
  2
*D10
340
0
  0
BLOCK_RECORD
  5
1621F
330
1
100
AcDbSymbolTableRecord
100
AcDbBlockTableRecord
  2
*D11
340
0
  0
BLOCK_RECORD
  5
1623E
330
1
100
AcDbSymbolTableRecord
100
AcDbBlockTableRecord
  2
*D12
340
0
  0
BLOCK_RECORD
  5
1626F
330
1
100
AcDbSymbolTableRecord
100
AcDbBlockTableRecord
  2
*D13
340
0
  0
BLOCK_RECORD
  5
1628E
330
1
100
AcDbSymbolTableRecord
100
AcDbBlockTableRecord
  2
*D14
340
0
  0
BLOCK_RECORD
  5
162C5
330
1
100
AcDbSymbolTableRecord
100
AcDbBlockTableRecord
  2
*D15
340
0
  0
BLOCK_RECORD
  5
16422
330
1
100
AcDbSymbolTableRecord
100
AcDbBlockTableRecord
  2
*D16
340
0
  0
BLOCK_RECORD
  5
1642E
330
1
100
AcDbSymbolTableRecord
100
AcDbBlockTableRecord
  2
*D17
340
0
  0
BLOCK_RECORD
  5
1645F
330
1
100
AcDbSymbolTableRecord
100
AcDbBlockTableRecord
  2
*D18
340
0
  0
BLOCK_RECORD
  5
16489
330
1
100
AcDbSymbolTableRecord
100
AcDbBlockTableRecord
  2
*D19
340
0
  0
BLOCK_RECORD
  5
16495
330
1
100
AcDbSymbolTableRecord
100
AcDbBlockTableRecord
  2
*D20
340
0
  0
BLOCK_RECORD
  5
164BD
330
1
100
AcDbSymbolTableRecord
100
AcDbBlockTableRecord
  2
*D21
340
0
  0
BLOCK_RECORD
  5
164DC
330
1
100
AcDbSymbolTableRecord
100
AcDbBlockTableRecord
  2
*D22
340
0
  0
BLOCK_RECORD
  5
164E8
330
1
100
AcDbSymbolTableRecord
100
AcDbBlockTableRecord
  2
*D23
340
0
  0
BLOCK_RECORD
  5
164F4
330
1
100
AcDbSymbolTableRecord
100
AcDbBlockTableRecord
  2
*D24
340
0
  0
BLOCK_RECORD
  5
16500
330
1
100
AcDbSymbolTableRecord
100
AcDbBlockTableRecord
  2
*D25
340
0
  0
BLOCK_RECORD
  5
1650C
330
1
100
AcDbSymbolTableRecord
100
AcDbBlockTableRecord
  2
*D26
340
0
  0
BLOCK_RECORD
  5
16518
330
1
100
AcDbSymbolTableRecord
100
AcDbBlockTableRecord
  2
*D27
340
0
  0
BLOCK_RECORD
  5
1661C
330
1
100
AcDbSymbolTableRecord
100
AcDbBlockTableRecord
  2
*D28
340
0
  0
BLOCK_RECORD
  5
16632
330
1
100
AcDbSymbolTableRecord
100
AcDbBlockTableRecord
  2
*D29
340
0
  0
BLOCK_RECORD
  5
16667
330
1
100
AcDbSymbolTableRecord
100
AcDbBlockTableRecord
  2
*D30
340
0
  0
BLOCK_RECORD
  5
16673
330
1
100
AcDbSymbolTableRecord
100
AcDbBlockTableRecord
  2
*D31
340
0
  0
BLOCK_RECORD
  5
1667F
330
1
100
AcDbSymbolTableRecord
100
AcDbBlockTableRecord
  2
*D32
340
0
  0
BLOCK_RECORD
  5
166F5
330
1
100
AcDbSymbolTableRecord
100
AcDbBlockTableRecord
  2
*D33
340
0
  0
ENDTAB
  0
ENDSEC
  0
SECTION
  2
BLOCKS
  0
BLOCK
  5
20
330
1F
100
AcDbEntity
  8
0
100
AcDbBlockBegin
  2
*Model_Space
 70
     0
 10
0.0
 20
0.0
 30
0.0
  3
*Model_Space
  1

  0
ENDBLK
  5
21
330
1F
100
AcDbEntity
  8
0
100
AcDbBlockEnd
  0
BLOCK
  5
1C
330
1B
100
AcDbEntity
 67
     1
  8
0
100
AcDbBlockBegin
  2
*Paper_Space
 70
     0
 10
0.0
 20
0.0
 30
0.0
  3
*Paper_Space
  1

  0
ENDBLK
  5
1D
330
1B
100
AcDbEntity
 67
     1
  8
0
100
AcDbBlockEnd
  0
BLOCK
  5
24
330
23
100
AcDbEntity
  8
0
100
AcDbBlockBegin
  2
*Paper_Space0
 70
     0
 10
0.0
 20
0.0
 30
0.0
  3
*Paper_Space0
  1

  0
ENDBLK
  5
25
330
23
100
AcDbEntity
  8
0
100
AcDbBlockEnd
  0
BLOCK
  5
2F
330
2B
100
AcDbEntity
  8
0
100
AcDbBlockBegin
  2
_OPEN30
 70
     0
 10
0.0
 20
0.0
 30
0.0
  3
_OPEN30
  1

  0
LINE
  5
2C
330
2B
100
AcDbEntity
  8
0
  6
ByBlock
 62
     0
100
AcDbLine
 10
-1.0
 20
0.26794919
 30
0.0
 11
0.0
 21
0.0
 31
0.0
  0
LINE
  5
2D
330
2B
100
AcDbEntity
  8
0
  6
ByBlock
 62
     0
100
AcDbLine
 10
0.0
 20
0.0
 30
0.0
 11
-1.0
 21
-0.26794919
 31
0.0
  0
LINE
  5
2E
330
2B
100
AcDbEntity
  8
0
  6
ByBlock
 62
     0
100
AcDbLine
 10
0.0
 20
0.0
 30
0.0
 11
-1.0
 21
0.0
 31
0.0
  0
ENDBLK
  5
30
330
2B
100
AcDbEntity
  8
0
100
AcDbBlockEnd
  0
BLOCK
  5
16067
330
1605D
100
AcDbEntity
  8
0
100
AcDbBlockBegin
  2
*D2
 70
     1
 10
0.0
 20
0.0
 30
0.0
  3
*D2
  1

  0
LINE
  5
16764
330
1605D
100
AcDbEntity
  8
D-STR-DIM
370
    -2
100
AcDbLine
 10
1249.99996
 20
3823.258332178745
 30
0.0
 11
1077.499889999998
 21
3823.258332178745
 31
0.0
  0
LINE
  5
16765
330
1605D
100
AcDbEntity
  8
D-STR-DIM
370
    -2
100
AcDbLine
 10
1249.99996
 20
4273.258342178746
 30
0.0
 11
1077.499889999998
 21
4273.258342178746
 31
0.0
  0
LINE
  5
16766
330
1605D
100
AcDbEntity
  8
D-STR-DIM
370
    -2
100
AcDbLine
 10
1097.499889999998
 20
3848.258332178746
 30
0.0
 11
1097.499889999998
 21
4248.258342178746
 31
0.0
  0
INSERT
  5
16767
330
1605D
100
AcDbEntity
  8
D-STR-DIM
370
    -2
100
AcDbBlockReference
  2
_OPEN30
 10
1097.499889999998
 20
3823.258332178745
 30
0.0
 41
25.0
 42
25.0
 43
25.0
 50
270.0
  0
INSERT
  5
16768
330
1605D
100
AcDbEntity
  8
D-STR-DIM
370
    -2
100
AcDbBlockReference
  2
_OPEN30
 10
1097.499889999998
 20
4273.258342178746
 30
0.0
 41
25.0
 42
25.0
 43
25.0
 50
90.0
  0
MTEXT
  5
16769
330
1605D
100
AcDbEntity
  8
D-STR-DIM
100
AcDbMText
 10
1072.499889999997
 20
4048.258337178746
 30
0.0
 40
30.0
 41
0.0
 71
     5
 72
     1
  1
450
 11
0.0000000000000001
 21
1.0
 31
0.0
 73
     1
 44
1.0
  0
POINT
  5
1676A
330
1605D
100
AcDbEntity
  8
DEFPOINTS
 62
     0
100
AcDbPoint
 10
1259.99996
 20
3823.258332178745
 30
0.0
  0
POINT
  5
1676B
330
1605D
100
AcDbEntity
  8
DEFPOINTS
 62
     0
100
AcDbPoint
 10
1259.99996
 20
4273.258342178746
 30
0.0
  0
POINT
  5
1676C
330
1605D
100
AcDbEntity
  8
DEFPOINTS
 62
     0
100
AcDbPoint
 10
1097.499889999998
 20
4273.258342178746
 30
0.0
  0
ENDBLK
  5
16068
330
1605D
100
AcDbEntity
  8
0
100
AcDbBlockEnd
  0
BLOCK
  5
16073
330
16069
100
AcDbEntity
  8
0
100
AcDbBlockBegin
  2
*D3
 70
     1
 10
0.0
 20
0.0
 30
0.0
  3
*D3
  1

  0
LINE
  5
1676D
330
16069
100
AcDbEntity
  8
D-STR-DIM
370
    -2
100
AcDbLine
 10
1249.99996
 20
3923.258332178745
 30
0.0
 11
1152.499889999998
 21
3923.258332178745
 31
0.0
  0
LINE
  5
1676E
330
16069
100
AcDbEntity
  8
D-STR-DIM
370
    -2
100
AcDbLine
 10
1249.99996
 20
3823.258332178745
 30
0.0
 11
1152.499889999998
 21
3823.258332178745
 31
0.0
  0
LINE
  5
1676F
330
16069
100
AcDbEntity
  8
D-STR-DIM
370
    -2
100
AcDbLine
 10
1172.499889999998
 20
3898.258332178746
 30
0.0
 11
1172.499889999998
 21
3848.258332178746
 31
0.0
  0
INSERT
  5
16770
330
16069
100
AcDbEntity
  8
D-STR-DIM
370
    -2
100
AcDbBlockReference
  2
_OPEN30
 10
1172.499889999998
 20
3923.258332178745
 30
0.0
 41
25.0
 42
25.0
 43
25.0
 50
90.0
  0
INSERT
  5
16771
330
16069
100
AcDbEntity
  8
D-STR-DIM
370
    -2
100
AcDbBlockReference
  2
_OPEN30
 10
1172.499889999998
 20
3823.258332178745
 30
0.0
 41
25.0
 42
25.0
 43
25.0
 50
270.0
  0
MTEXT
  5
16772
330
16069
100
AcDbEntity
  8
D-STR-DIM
100
AcDbMText
 10
1147.499889999997
 20
3873.258332178746
 30
0.0
 40
30.0
 41
0.0
 71
     5
 72
     1
  1
100
 11
0.0000000000000001
 21
1.0
 31
0.0
 73
     1
 44
1.0
  0
POINT
  5
16773
330
16069
100
AcDbEntity
  8
DEFPOINTS
 62
     0
100
AcDbPoint
 10
1259.99996
 20
3923.258332178745
 30
0.0
  0
POINT
  5
16774
330
16069
100
AcDbEntity
  8
DEFPOINTS
 62
     0
100
AcDbPoint
 10
1259.99996
 20
3823.258332178745
 30
0.0
  0
POINT
  5
16775
330
16069
100
AcDbEntity
  8
DEFPOINTS
 62
     0
100
AcDbPoint
 10
1172.499889999998
 20
3823.258332178745
 30
0.0
  0
ENDBLK
  5
16074
330
16069
100
AcDbEntity
  8
0
100
AcDbBlockEnd
  0
BLOCK
  5
160B0
330
160A6
100
AcDbEntity
  8
0
100
AcDbBlockBegin
  2
*D4
 70
     1
 10
0.0
 20
0.0
 30
0.0
  3
*D4
  1

  0
LINE
  5
16776
330
160A6
100
AcDbEntity
  8
D-STR-DIM
370
    -2
100
AcDbLine
 10
1329.99997
 20
3813.258332178746
 30
0.0
 11
1329.99997
 21
3728.258332178746
 31
0.0
  0
LINE
  5
16777
330
160A6
100
AcDbEntity
  8
D-STR-DIM
370
    -2
100
AcDbLine
 10
1510.0
 20
3813.258332178746
 30
0.0
 11
1510.0
 21
3728.258332178746
 31
0.0
  0
LINE
  5
16778
330
160A6
100
AcDbEntity
  8
D-STR-DIM
370
    -2
100
AcDbLine
 10
1354.999969999999
 20
3748.258332178746
 30
0.0
 11
1485.0
 21
3748.258332178746
 31
0.0
  0
INSERT
  5
16779
330
160A6
100
AcDbEntity
  8
D-STR-DIM
370
    -2
100
AcDbBlockReference
  2
_OPEN30
 10
1329.99997
 20
3748.258332178746
 30
0.0
 41
25.0
 42
25.0
 43
25.0
 50
180.0
  0
INSERT
  5
1677A
330
160A6
100
AcDbEntity
  8
D-STR-DIM
370
    -2
100
AcDbBlockReference
  2
_OPEN30
 10
1510.0
 20
3748.258332178746
 30
0.0
 41
25.0
 42
25.0
 43
25.0
  0
MTEXT
  5
1677B
330
160A6
100
AcDbEntity
  8
D-STR-DIM
100
AcDbMText
 10
1419.999985
 20
3773.258332178746
 30
0.0
 40
30.0
 41
0.0
 71
     5
 72
     1
  1
180
 73
     1
 44
1.0
  0
POINT
  5
1677C
330
160A6
100
AcDbEntity
  8
DEFPOINTS
 62
     0
100
AcDbPoint
 10
1329.99997
 20
3823.258332178745
 30
0.0
  0
POINT
  5
1677D
330
160A6
100
AcDbEntity
  8
DEFPOINTS
 62
     0
100
AcDbPoint
 10
1510.0
 20
3823.258332178745
 30
0.0
  0
POINT
  5
1677E
330
160A6
100
AcDbEntity
  8
DEFPOINTS
 62
     0
100
AcDbPoint
 10
1510.0
 20
3748.258332178746
 30
0.0
  0
ENDBLK
  5
160B1
330
160A6
100
AcDbEntity
  8
0
100
AcDbBlockEnd
  0
BLOCK
  5
160BC
330
160B2
100
AcDbEntity
  8
0
100
AcDbBlockBegin
  2
*D5
 70
     1
 10
0.0
 20
0.0
 30
0.0
  3
*D5
  1

  0
LINE
  5
1675B
330
160B2
100
AcDbEntity
  8
D-STR-DIM
370
    -2
100
AcDbLine
 10
1259.99996
 20
3813.258332178746
 30
0.0
 11
1259.99996
 21
3653.258332178746
 31
0.0
  0
LINE
  5
1675C
330
160B2
100
AcDbEntity
  8
D-STR-DIM
370
    -2
100
AcDbLine
 10
1580.0
 20
3813.258332178746
 30
0.0
 11
1580.0
 21
3653.258332178746
 31
0.0
  0
LINE
  5
1675D
330
160B2
100
AcDbEntity
  8
D-STR-DIM
370
    -2
100
AcDbLine
 10
1284.99996
 20
3673.258332178745
 30
0.0
 11
1555.0
 21
3673.258332178745
 31
0.0
  0
INSERT
  5
1675E
330
160B2
100
AcDbEntity
  8
D-STR-DIM
370
    -2
100
AcDbBlockReference
  2
_OPEN30
 10
1259.99996
 20
3673.258332178745
 30
0.0
 41
25.0
 42
25.0
 43
25.0
 50
180.0
  0
INSERT
  5
1675F
330
160B2
100
AcDbEntity
  8
D-STR-DIM
370
    -2
100
AcDbBlockReference
  2
_OPEN30
 10
1580.0
 20
3673.258332178745
 30
0.0
 41
25.0
 42
25.0
 43
25.0
  0
MTEXT
  5
16760
330
160B2
100
AcDbEntity
  8
D-STR-DIM
100
AcDbMText
 10
1419.99998
 20
3698.258332178745
 30
0.0
 40
30.0
 41
0.0
 71
     5
 72
     1
  1
320
 73
     1
 44
1.0
  0
POINT
  5
16761
330
160B2
100
AcDbEntity
  8
DEFPOINTS
 62
     0
100
AcDbPoint
 10
1259.99996
 20
3823.258332178745
 30
0.0
  0
POINT
  5
16762
330
160B2
100
AcDbEntity
  8
DEFPOINTS
 62
     0
100
AcDbPoint
 10
1580.0
 20
3823.258332178745
 30
0.0
  0
POINT
  5
16763
330
160B2
100
AcDbEntity
  8
DEFPOINTS
 62
     0
100
AcDbPoint
 10
1580.0
 20
3673.258332178745
 30
0.0
  0
ENDBLK
  5
160BD
330
160B2
100
AcDbEntity
  8
0
100
AcDbBlockEnd
  0
BLOCK
  5
160C8
330
160BE
100
AcDbEntity
  8
0
100
AcDbBlockBegin
  2
*D6
 70
     1
 10
0.0
 20
0.0
 30
0.0
  3
*D6
  1

  0
LINE
  5
1677F
330
160BE
100
AcDbEntity
  8
D-STR-DIM
370
    -2
100
AcDbLine
 10
1259.99996
 20
3813.258332178746
 30
0.0
 11
1259.99996
 21
3728.258332178746
 31
0.0
  0
LINE
  5
16780
330
160BE
100
AcDbEntity
  8
D-STR-DIM
370
    -2
100
AcDbLine
 10
1329.99997
 20
3813.258332178746
 30
0.0
 11
1329.99997
 21
3728.258332178746
 31
0.0
  0
LINE
  5
16781
330
160BE
100
AcDbEntity
  8
D-STR-DIM
370
    -2
100
AcDbLine
 10
1284.99996
 20
3748.258332178746
 30
0.0
 11
1304.999969999999
 21
3748.258332178746
 31
0.0
  0
INSERT
  5
16782
330
160BE
100
AcDbEntity
  8
D-STR-DIM
370
    -2
100
AcDbBlockReference
  2
_OPEN30
 10
1259.99996
 20
3748.258332178746
 30
0.0
 41
25.0
 42
25.0
 43
25.0
 50
180.0
  0
INSERT
  5
16783
330
160BE
100
AcDbEntity
  8
D-STR-DIM
370
    -2
100
AcDbBlockReference
  2
_OPEN30
 10
1329.99997
 20
3748.258332178746
 30
0.0
 41
25.0
 42
25.0
 43
25.0
  0
MTEXT
  5
16784
330
160BE
100
AcDbEntity
  8
D-STR-DIM
100
AcDbMText
 10
1294.999965
 20
3773.258332178746
 30
0.0
 40
30.0
 41
0.0
 71
     5
 72
     1
  1
70
 73
     1
 44
1.0
  0
POINT
  5
16785
330
160BE
100
AcDbEntity
  8
DEFPOINTS
 62
     0
100
AcDbPoint
 10
1259.99996
 20
3823.258332178745
 30
0.0
  0
POINT
  5
16786
330
160BE
100
AcDbEntity
  8
DEFPOINTS
 62
     0
100
AcDbPoint
 10
1329.99997
 20
3823.258332178745
 30
0.0
  0
POINT
  5
16787
330
160BE
100
AcDbEntity
  8
DEFPOINTS
 62
     0
100
AcDbPoint
 10
1329.99997
 20
3748.258332178746
 30
0.0
  0
ENDBLK
  5
160C9
330
160BE
100
AcDbEntity
  8
0
100
AcDbBlockEnd
  0
BLOCK
  5
160D4
330
160CA
100
AcDbEntity
  8
0
100
AcDbBlockBegin
  2
*D7
 70
     1
 10
0.0
 20
0.0
 30
0.0
  3
*D7
  1

  0
LINE
  5
16750
330
160CA
100
AcDbEntity
  8
D-STR-DIM
370
    -2
100
AcDbLine
 10
1510.0
 20
3813.258332178746
 30
0.0
 11
1510.0
 21
3728.258332178746
 31
0.0
  0
LINE
  5
16751
330
160CA
100
AcDbEntity
  8
D-STR-DIM
370
    -2
100
AcDbLine
 10
1580.0
 20
3813.258332178746
 30
0.0
 11
1580.0
 21
3728.258332178746
 31
0.0
  0
LINE
  5
16752
330
160CA
100
AcDbEntity
  8
D-STR-DIM
370
    -2
100
AcDbLine
 10
1485.0
 20
3748.258332178746
 30
0.0
 11
1460.0
 21
3748.258332178746
 31
0.0
  0
LINE
  5
16753
330
160CA
100
AcDbEntity
  8
D-STR-DIM
370
    -2
100
AcDbLine
 10
1605.0
 20
3748.258332178746
 30
0.0
 11
1630.0
 21
3748.258332178746
 31
0.0
  0
LINE
  5
16754
330
160CA
100
AcDbEntity
  8
D-STR-DIM
370
    -2
100
AcDbLine
 10
1510.0
 20
3748.258332178746
 30
0.0
 11
1580.0
 21
3748.258332178746
 31
0.0
  0
INSERT
  5
16755
330
160CA
100
AcDbEntity
  8
D-STR-DIM
370
    -2
100
AcDbBlockReference
  2
_OPEN30
 10
1510.0
 20
3748.258332178746
 30
0.0
 41
25.0
 42
25.0
 43
25.0
  0
INSERT
  5
16756
330
160CA
100
AcDbEntity
  8
D-STR-DIM
370
    -2
100
AcDbBlockReference
  2
_OPEN30
 10
1580.0
 20
3748.258332178746
 30
0.0
 41
25.0
 42
25.0
 43
25.0
 50
180.0
  0
MTEXT
  5
16757
330
160CA
100
AcDbEntity
  8
D-STR-DIM
100
AcDbMText
 10
1545.0
 20
3773.258332178746
 30
0.0
 40
30.0
 41
0.0
 71
     5
 72
     1
  1
70
 73
     1
 44
1.0
  0
POINT
  5
16758
330
160CA
100
AcDbEntity
  8
DEFPOINTS
 62
     0
100
AcDbPoint
 10
1510.0
 20
3823.258332178745
 30
0.0
  0
POINT
  5
16759
330
160CA
100
AcDbEntity
  8
DEFPOINTS
 62
     0
100
AcDbPoint
 10
1580.0
 20
3823.258332178745
 30
0.0
  0
POINT
  5
1675A
330
160CA
100
AcDbEntity
  8
DEFPOINTS
 62
     0
100
AcDbPoint
 10
1580.0
 20
3748.258332178746
 30
0.0
  0
ENDBLK
  5
160D5
330
160CA
100
AcDbEntity
  8
0
100
AcDbBlockEnd
  0
BLOCK
  5
161A4
330
1619A
100
AcDbEntity
  8
0
100
AcDbBlockBegin
  2
*D8
 70
     1
 10
0.0
 20
0.0
 30
0.0
  3
*D8
  1

  0
LINE
  5
167E8
330
1619A
100
AcDbEntity
  8
D-STR-DIM
370
    -2
100
AcDbLine
 10
1969.999899999999
 20
4013.258322178745
 30
0.0
 11
2067.49997
 21
4013.258322178745
 31
0.0
  0
LINE
  5
167E9
330
1619A
100
AcDbEntity
  8
D-STR-DIM
370
    -2
100
AcDbLine
 10
1969.999899999998
 20
3823.258332178745
 30
0.0
 11
2067.49997
 21
3823.258332178745
 31
0.0
  0
LINE
  5
167EA
330
1619A
100
AcDbEntity
  8
D-STR-DIM
370
    -2
100
AcDbLine
 10
2047.49997
 20
3988.258322178745
 30
0.0
 11
2047.49997
 21
3848.258332178746
 31
0.0
  0
INSERT
  5
167EB
330
1619A
100
AcDbEntity
  8
D-STR-DIM
370
    -2
100
AcDbBlockReference
  2
_OPEN30
 10
2047.49997
 20
4013.258322178745
 30
0.0
 41
25.0
 42
25.0
 43
25.0
 50
90.0
  0
INSERT
  5
167EC
330
1619A
100
AcDbEntity
  8
D-STR-DIM
370
    -2
100
AcDbBlockReference
  2
_OPEN30
 10
2047.49997
 20
3823.258332178745
 30
0.0
 41
25.0
 42
25.0
 43
25.0
 50
270.0
  0
MTEXT
  5
167ED
330
1619A
100
AcDbEntity
  8
D-STR-DIM
100
AcDbMText
 10
2022.49997
 20
3918.258327178746
 30
0.0
 40
30.0
 41
0.0
 71
     5
 72
     1
  1
190
 11
0.0000000000000001
 21
1.0
 31
0.0
 73
     1
 44
1.0
  0
POINT
  5
167EE
330
1619A
100
AcDbEntity
  8
DEFPOINTS
 62
     0
100
AcDbPoint
 10
1959.999899999999
 20
4013.258322178745
 30
0.0
  0
POINT
  5
167EF
330
1619A
100
AcDbEntity
  8
DEFPOINTS
 62
     0
100
AcDbPoint
 10
1959.999899999998
 20
3823.258332178745
 30
0.0
  0
POINT
  5
167F0
330
1619A
100
AcDbEntity
  8
DEFPOINTS
 62
     0
100
AcDbPoint
 10
2047.49997
 20
3823.258332178745
 30
0.0
  0
ENDBLK
  5
161A5
330
1619A
100
AcDbEntity
  8
0
100
AcDbBlockEnd
  0
BLOCK
  5
161E2
330
161D8
100
AcDbEntity
  8
0
100
AcDbBlockBegin
  2
*D9
 70
     1
 10
0.0
 20
0.0
 30
0.0
  3
*D9
  1

  0
LINE
  5
16747
330
161D8
100
AcDbEntity
  8
D-STR-DIM
370
    -2
100
AcDbLine
 10
1259.99996
 20
4283.258342178746
 30
0.0
 11
1259.99996
 21
4368.258342178745
 31
0.0
  0
LINE
  5
16748
330
161D8
100
AcDbEntity
  8
D-STR-DIM
370
    -2
100
AcDbLine
 10
1580.0
 20
4283.258342178746
 30
0.0
 11
1580.0
 21
4368.258342178745
 31
0.0
  0
LINE
  5
16749
330
161D8
100
AcDbEntity
  8
D-STR-DIM
370
    -2
100
AcDbLine
 10
1284.99996
 20
4348.258342178746
 30
0.0
 11
1555.0
 21
4348.258342178746
 31
0.0
  0
INSERT
  5
1674A
330
161D8
100
AcDbEntity
  8
D-STR-DIM
370
    -2
100
AcDbBlockReference
  2
_OPEN30
 10
1259.99996
 20
4348.258342178746
 30
0.0
 41
25.0
 42
25.0
 43
25.0
 50
180.0
  0
INSERT
  5
1674B
330
161D8
100
AcDbEntity
  8
D-STR-DIM
370
    -2
100
AcDbBlockReference
  2
_OPEN30
 10
1580.0
 20
4348.258342178746
 30
0.0
 41
25.0
 42
25.0
 43
25.0
  0
MTEXT
  5
1674C
330
161D8
100
AcDbEntity
  8
D-STR-DIM
100
AcDbMText
 10
1419.99998
 20
4373.258342178746
 30
0.0
 40
30.0
 41
0.0
 71
     5
 72
     1
  1
320
 73
     1
 44
1.0
  0
POINT
  5
1674D
330
161D8
100
AcDbEntity
  8
DEFPOINTS
 62
     0
100
AcDbPoint
 10
1259.99996
 20
4273.258342178746
 30
0.0
  0
POINT
  5
1674E
330
161D8
100
AcDbEntity
  8
DEFPOINTS
 62
     0
100
AcDbPoint
 10
1580.0
 20
4273.258342178746
 30
0.0
  0
POINT
  5
1674F
330
161D8
100
AcDbEntity
  8
DEFPOINTS
 62
     0
100
AcDbPoint
 10
1580.0
 20
4348.258342178746
 30
0.0
  0
ENDBLK
  5
161E3
330
161D8
100
AcDbEntity
  8
0
100
AcDbBlockEnd
  0
BLOCK
  5
16201
330
161F7
100
AcDbEntity
  8
0
100
AcDbBlockBegin
  2
*D10
 70
     1
 10
0.0
 20
0.0
 30
0.0
  3
*D10
  1

  0
LINE
  5
167B5
330
161F7
100
AcDbEntity
  8
D-STR-DIM
370
    -2
100
AcDbLine
 10
1780.0
 20
4283.258342178746
 30
0.0
 11
1780.0
 21
4368.258342178745
 31
0.0
  0
LINE
  5
167B6
330
161F7
100
AcDbEntity
  8
D-STR-DIM
370
    -2
100
AcDbLine
 10
1884.999899999999
 20
4283.258342178746
 30
0.0
 11
1884.999899999999
 21
4368.258342178745
 31
0.0
  0
LINE
  5
167B7
330
161F7
100
AcDbEntity
  8
D-STR-DIM
370
    -2
100
AcDbLine
 10
1805.0
 20
4348.258342178746
 30
0.0
 11
1859.999899999999
 21
4348.258342178746
 31
0.0
  0
INSERT
  5
167B8
330
161F7
100
AcDbEntity
  8
D-STR-DIM
370
    -2
100
AcDbBlockReference
  2
_OPEN30
 10
1780.0
 20
4348.258342178746
 30
0.0
 41
25.0
 42
25.0
 43
25.0
 50
180.0
  0
INSERT
  5
167B9
330
161F7
100
AcDbEntity
  8
D-STR-DIM
370
    -2
100
AcDbBlockReference
  2
_OPEN30
 10
1884.999899999999
 20
4348.258342178746
 30
0.0
 41
25.0
 42
25.0
 43
25.0
  0
MTEXT
  5
167BA
330
161F7
100
AcDbEntity
  8
D-STR-DIM
100
AcDbMText
 10
1832.49995
 20
4373.258342178746
 30
0.0
 40
30.0
 41
0.0
 71
     5
 72
     1
  1
105
 73
     1
 44
1.0
  0
POINT
  5
167BB
330
161F7
100
AcDbEntity
  8
DEFPOINTS
 62
     0
100
AcDbPoint
 10
1780.0
 20
4273.258342178746
 30
0.0
  0
POINT
  5
167BC
330
161F7
100
AcDbEntity
  8
DEFPOINTS
 62
     0
100
AcDbPoint
 10
1884.999899999999
 20
4273.258342178746
 30
0.0
  0
POINT
  5
167BD
330
161F7
100
AcDbEntity
  8
DEFPOINTS
 62
     0
100
AcDbPoint
 10
1884.999899999999
 20
4348.258342178746
 30
0.0
  0
ENDBLK
  5
16202
330
161F7
100
AcDbEntity
  8
0
100
AcDbBlockEnd
  0
BLOCK
  5
16229
330
1621F
100
AcDbEntity
  8
0
100
AcDbBlockBegin
  2
*D11
 70
     1
 10
0.0
 20
0.0
 30
0.0
  3
*D11
  1

  0
LINE
  5
167AC
330
1621F
100
AcDbEntity
  8
D-STR-DIM
370
    -2
100
AcDbLine
 10
1884.999899999999
 20
4283.258342178746
 30
0.0
 11
1884.999899999999
 21
4368.258342178745
 31
0.0
  0
LINE
  5
167AD
330
1621F
100
AcDbEntity
  8
D-STR-DIM
370
    -2
100
AcDbLine
 10
1959.999899999999
 20
4283.258342178746
 30
0.0
 11
1959.999899999999
 21
4368.258342178745
 31
0.0
  0
LINE
  5
167AE
330
1621F
100
AcDbEntity
  8
D-STR-DIM
370
    -2
100
AcDbLine
 10
1909.999899999999
 20
4348.258342178746
 30
0.0
 11
1934.999899999999
 21
4348.258342178746
 31
0.0
  0
INSERT
  5
167AF
330
1621F
100
AcDbEntity
  8
D-STR-DIM
370
    -2
100
AcDbBlockReference
  2
_OPEN30
 10
1884.999899999999
 20
4348.258342178746
 30
0.0
 41
25.0
 42
25.0
 43
25.0
 50
180.0
  0
INSERT
  5
167B0
330
1621F
100
AcDbEntity
  8
D-STR-DIM
370
    -2
100
AcDbBlockReference
  2
_OPEN30
 10
1959.999899999999
 20
4348.258342178746
 30
0.0
 41
25.0
 42
25.0
 43
25.0
  0
MTEXT
  5
167B1
330
1621F
100
AcDbEntity
  8
D-STR-DIM
100
AcDbMText
 10
1922.499899999999
 20
4373.258342178746
 30
0.0
 40
30.0
 41
0.0
 71
     5
 72
     1
  1
75
 73
     1
 44
1.0
  0
POINT
  5
167B2
330
1621F
100
AcDbEntity
  8
DEFPOINTS
 62
     0
100
AcDbPoint
 10
1884.999899999999
 20
4273.258342178746
 30
0.0
  0
POINT
  5
167B3
330
1621F
100
AcDbEntity
  8
DEFPOINTS
 62
     0
100
AcDbPoint
 10
1959.999899999999
 20
4273.258342178746
 30
0.0
  0
POINT
  5
167B4
330
1621F
100
AcDbEntity
  8
DEFPOINTS
 62
     0
100
AcDbPoint
 10
1959.999899999999
 20
4348.258342178746
 30
0.0
  0
ENDBLK
  5
1622A
330
1621F
100
AcDbEntity
  8
0
100
AcDbBlockEnd
  0
BLOCK
  5
16248
330
1623E
100
AcDbEntity
  8
0
100
AcDbBlockBegin
  2
*D12
 70
     1
 10
0.0
 20
0.0
 30
0.0
  3
*D12
  1

  0
LINE
  5
167A3
330
1623E
100
AcDbEntity
  8
D-STR-DIM
370
    -2
100
AcDbLine
 10
1780.0
 20
4283.258342178746
 30
0.0
 11
1780.0
 21
4443.258342178745
 31
0.0
  0
LINE
  5
167A4
330
1623E
100
AcDbEntity
  8
D-STR-DIM
370
    -2
100
AcDbLine
 10
1959.999899999999
 20
4283.258342178746
 30
0.0
 11
1959.999899999999
 21
4443.258342178745
 31
0.0
  0
LINE
  5
167A5
330
1623E
100
AcDbEntity
  8
D-STR-DIM
370
    -2
100
AcDbLine
 10
1805.0
 20
4423.258342178746
 30
0.0
 11
1934.999899999999
 21
4423.258342178746
 31
0.0
  0
INSERT
  5
167A6
330
1623E
100
AcDbEntity
  8
D-STR-DIM
370
    -2
100
AcDbBlockReference
  2
_OPEN30
 10
1780.0
 20
4423.258342178746
 30
0.0
 41
25.0
 42
25.0
 43
25.0
 50
180.0
  0
INSERT
  5
167A7
330
1623E
100
AcDbEntity
  8
D-STR-DIM
370
    -2
100
AcDbBlockReference
  2
_OPEN30
 10
1959.999899999999
 20
4423.258342178746
 30
0.0
 41
25.0
 42
25.0
 43
25.0
  0
MTEXT
  5
167A8
330
1623E
100
AcDbEntity
  8
D-STR-DIM
100
AcDbMText
 10
1869.99995
 20
4448.258342178745
 30
0.0
 40
30.0
 41
0.0
 71
     5
 72
     1
  1
180
 73
     1
 44
1.0
  0
POINT
  5
167A9
330
1623E
100
AcDbEntity
  8
DEFPOINTS
 62
     0
100
AcDbPoint
 10
1780.0
 20
4273.258342178746
 30
0.0
  0
POINT
  5
167AA
330
1623E
100
AcDbEntity
  8
DEFPOINTS
 62
     0
100
AcDbPoint
 10
1959.999899999999
 20
4273.258342178746
 30
0.0
  0
POINT
  5
167AB
330
1623E
100
AcDbEntity
  8
DEFPOINTS
 62
     0
100
AcDbPoint
 10
1959.999899999999
 20
4423.258342178746
 30
0.0
  0
ENDBLK
  5
16249
330
1623E
100
AcDbEntity
  8
0
100
AcDbBlockEnd
  0
BLOCK
  5
16279
330
1626F
100
AcDbEntity
  8
0
100
AcDbBlockBegin
  2
*D13
 70
     1
 10
0.0
 20
0.0
 30
0.0
  3
*D13
  1

  0
LINE
  5
1673E
330
1626F
100
AcDbEntity
  8
D-STR-DIM
370
    -2
100
AcDbLine
 10
1345.0001
 20
1888.938108573813
 30
0.0
 11
1345.0001
 21
1973.938108573813
 31
0.0
  0
LINE
  5
1673F
330
1626F
100
AcDbEntity
  8
D-STR-DIM
370
    -2
100
AcDbLine
 10
1575.0001
 20
1888.938108573813
 30
0.0
 11
1575.0001
 21
1973.938108573813
 31
0.0
  0
LINE
  5
16740
330
1626F
100
AcDbEntity
  8
D-STR-DIM
370
    -2
100
AcDbLine
 10
1370.0001
 20
1953.938108573813
 30
0.0
 11
1550.0001
 21
1953.938108573813
 31
0.0
  0
INSERT
  5
16741
330
1626F
100
AcDbEntity
  8
D-STR-DIM
370
    -2
100
AcDbBlockReference
  2
_OPEN30
 10
1345.0001
 20
1953.938108573813
 30
0.0
 41
25.0
 42
25.0
 43
25.0
 50
180.0
  0
INSERT
  5
16742
330
1626F
100
AcDbEntity
  8
D-STR-DIM
370
    -2
100
AcDbBlockReference
  2
_OPEN30
 10
1575.0001
 20
1953.938108573813
 30
0.0
 41
25.0
 42
25.0
 43
25.0
  0
MTEXT
  5
16743
330
1626F
100
AcDbEntity
  8
D-STR-DIM
100
AcDbMText
 10
1460.0001
 20
1978.938108573813
 30
0.0
 40
30.0
 41
0.0
 71
     5
 72
     1
  1
230
 73
     1
 44
1.0
  0
POINT
  5
16744
330
1626F
100
AcDbEntity
  8
DEFPOINTS
 62
     0
100
AcDbPoint
 10
1345.0001
 20
1878.938108573813
 30
0.0
  0
POINT
  5
16745
330
1626F
100
AcDbEntity
  8
DEFPOINTS
 62
     0
100
AcDbPoint
 10
1575.0001
 20
1878.938108573813
 30
0.0
  0
POINT
  5
16746
330
1626F
100
AcDbEntity
  8
DEFPOINTS
 62
     0
100
AcDbPoint
 10
1575.0001
 20
1953.938108573813
 30
0.0
  0
ENDBLK
  5
1627A
330
1626F
100
AcDbEntity
  8
0
100
AcDbBlockEnd
  0
BLOCK
  5
16298
330
1628E
100
AcDbEntity
  8
0
100
AcDbBlockBegin
  2
*D14
 70
     1
 10
0.0
 20
0.0
 30
0.0
  3
*D14
  1

  0
LINE
  5
167DD
330
1628E
100
AcDbEntity
  8
D-STR-DIM
370
    -2
100
AcDbLine
 10
1774.9999
 20
1888.938108573813
 30
0.0
 11
1774.9999
 21
1973.938108573813
 31
0.0
  0
LINE
  5
167DE
330
1628E
100
AcDbEntity
  8
D-STR-DIM
370
    -2
100
AcDbLine
 10
1795.0
 20
1888.938108573813
 30
0.0
 11
1795.0
 21
1973.938108573813
 31
0.0
  0
LINE
  5
167DF
330
1628E
100
AcDbEntity
  8
D-STR-DIM
370
    -2
100
AcDbLine
 10
1749.9999
 20
1953.938108573813
 30
0.0
 11
1724.9999
 21
1953.938108573813
 31
0.0
  0
LINE
  5
167E0
330
1628E
100
AcDbEntity
  8
D-STR-DIM
370
    -2
100
AcDbLine
 10
1820.0
 20
1953.938108573813
 30
0.0
 11
1845.0
 21
1953.938108573813
 31
0.0
  0
MTEXT
  5
167E1
330
1628E
100
AcDbEntity
  8
D-STR-DIM
100
AcDbMText
 10
1785.891058183796
 20
1978.657479194783
 30
0.0
 40
30.0
 41
0.0
 71
     5
 72
     1
  1
20
 73
     1
 44
1.0
  0
LINE
  5
167E2
330
1628E
100
AcDbEntity
  8
D-STR-DIM
370
    -2
100
AcDbLine
 10
1774.9999
 20
1953.938108573813
 30
0.0
 11
1795.0
 21
1953.938108573813
 31
0.0
  0
INSERT
  5
167E3
330
1628E
100
AcDbEntity
  8
D-STR-DIM
370
    -2
100
AcDbBlockReference
  2
_OPEN30
 10
1774.9999
 20
1953.938108573813
 30
0.0
 41
25.0
 42
25.0
 43
25.0
  0
INSERT
  5
167E4
330
1628E
100
AcDbEntity
  8
D-STR-DIM
370
    -2
100
AcDbBlockReference
  2
_OPEN30
 10
1795.0
 20
1953.938108573813
 30
0.0
 41
25.0
 42
25.0
 43
25.0
 50
180.0
  0
POINT
  5
167E5
330
1628E
100
AcDbEntity
  8
DEFPOINTS
 62
     0
100
AcDbPoint
 10
1774.9999
 20
1878.938108573813
 30
0.0
  0
POINT
  5
167E6
330
1628E
100
AcDbEntity
  8
DEFPOINTS
 62
     0
100
AcDbPoint
 10
1795.0
 20
1878.938108573813
 30
0.0
  0
POINT
  5
167E7
330
1628E
100
AcDbEntity
  8
DEFPOINTS
 62
     0
100
AcDbPoint
 10
1795.0
 20
1953.938108573813
 30
0.0
  0
ENDBLK
  5
16299
330
1628E
100
AcDbEntity
  8
0
100
AcDbBlockEnd
  0
BLOCK
  5
162CF
330
162C5
100
AcDbEntity
  8
0
100
AcDbBlockBegin
  2
*D15
 70
     1
 10
0.0
 20
0.0
 30
0.0
  3
*D15
  1

  0
LINE
  5
16735
330
162C5
100
AcDbEntity
  8
D-STR-DIM
370
    -2
100
AcDbLine
 10
1335.0001
 20
1878.938108573813
 30
0.0
 11
1237.500029999998
 21
1878.938108573813
 31
0.0
  0
LINE
  5
16736
330
162C5
100
AcDbEntity
  8
D-STR-DIM
370
    -2
100
AcDbLine
 10
1335.0001
 20
1518.938088573813
 30
0.0
 11
1237.500029999998
 21
1518.938088573813
 31
0.0
  0
LINE
  5
16737
330
162C5
100
AcDbEntity
  8
D-STR-DIM
370
    -2
100
AcDbLine
 10
1257.500029999998
 20
1853.938108573813
 30
0.0
 11
1257.500029999998
 21
1543.938088573813
 31
0.0
  0
INSERT
  5
16738
330
162C5
100
AcDbEntity
  8
D-STR-DIM
370
    -2
100
AcDbBlockReference
  2
_OPEN30
 10
1257.500029999998
 20
1878.938108573813
 30
0.0
 41
25.0
 42
25.0
 43
25.0
 50
90.0
  0
INSERT
  5
16739
330
162C5
100
AcDbEntity
  8
D-STR-DIM
370
    -2
100
AcDbBlockReference
  2
_OPEN30
 10
1257.500029999998
 20
1518.938088573813
 30
0.0
 41
25.0
 42
25.0
 43
25.0
 50
270.0
  0
MTEXT
  5
1673A
330
162C5
100
AcDbEntity
  8
D-STR-DIM
100
AcDbMText
 10
1232.500029999998
 20
1698.938098573813
 30
0.0
 40
30.0
 41
0.0
 71
     5
 72
     1
  1
360
 11
0.0000000000000001
 21
1.0
 31
0.0
 73
     1
 44
1.0
  0
POINT
  5
1673B
330
162C5
100
AcDbEntity
  8
DEFPOINTS
 62
     0
100
AcDbPoint
 10
1345.0001
 20
1878.938108573813
 30
0.0
  0
POINT
  5
1673C
330
162C5
100
AcDbEntity
  8
DEFPOINTS
 62
     0
100
AcDbPoint
 10
1345.0001
 20
1518.938088573813
 30
0.0
  0
POINT
  5
1673D
330
162C5
100
AcDbEntity
  8
DEFPOINTS
 62
     0
100
AcDbPoint
 10
1257.500029999998
 20
1518.938088573813
 30
0.0
  0
ENDBLK
  5
162D0
330
162C5
100
AcDbEntity
  8
0
100
AcDbBlockEnd
  0
BLOCK
  5
1642C
330
16422
100
AcDbEntity
  8
0
100
AcDbBlockBegin
  2
*D16
 70
     1
 10
0.0
 20
0.0
 30
0.0
  3
*D16
  1

  0
LINE
  5
167F1
330
16422
100
AcDbEntity
  8
D-STR-DIM
370
    -2
100
AcDbLine
 10
3020.00005
 20
1888.938108573813
 30
0.0
 11
3020.00005
 21
1973.938108573813
 31
0.0
  0
LINE
  5
167F2
330
16422
100
AcDbEntity
  8
D-STR-DIM
370
    -2
100
AcDbLine
 10
3260.00005
 20
1888.938108573813
 30
0.0
 11
3260.00005
 21
1973.938108573813
 31
0.0
  0
LINE
  5
167F3
330
16422
100
AcDbEntity
  8
D-STR-DIM
370
    -2
100
AcDbLine
 10
3045.00005
 20
1953.938108573813
 30
0.0
 11
3235.00005
 21
1953.938108573813
 31
0.0
  0
INSERT
  5
167F4
330
16422
100
AcDbEntity
  8
D-STR-DIM
370
    -2
100
AcDbBlockReference
  2
_OPEN30
 10
3020.00005
 20
1953.938108573813
 30
0.0
 41
25.0
 42
25.0
 43
25.0
 50
180.0
  0
INSERT
  5
167F5
330
16422
100
AcDbEntity
  8
D-STR-DIM
370
    -2
100
AcDbBlockReference
  2
_OPEN30
 10
3260.00005
 20
1953.938108573813
 30
0.0
 41
25.0
 42
25.0
 43
25.0
  0
MTEXT
  5
167F6
330
16422
100
AcDbEntity
  8
D-STR-DIM
100
AcDbMText
 10
3140.00005
 20
1978.938108573813
 30
0.0
 40
30.0
 41
0.0
 71
     5
 72
     1
  1
240
 73
     1
 44
1.0
  0
POINT
  5
167F7
330
16422
100
AcDbEntity
  8
DEFPOINTS
 62
     0
100
AcDbPoint
 10
3020.00005
 20
1878.938108573813
 30
0.0
  0
POINT
  5
167F8
330
16422
100
AcDbEntity
  8
DEFPOINTS
 62
     0
100
AcDbPoint
 10
3260.00005
 20
1878.938108573813
 30
0.0
  0
POINT
  5
167F9
330
16422
100
AcDbEntity
  8
DEFPOINTS
 62
     0
100
AcDbPoint
 10
3260.00005
 20
1953.938108573813
 30
0.0
  0
ENDBLK
  5
1642D
330
16422
100
AcDbEntity
  8
0
100
AcDbBlockEnd
  0
BLOCK
  5
16438
330
1642E
100
AcDbEntity
  8
0
100
AcDbBlockBegin
  2
*D17
 70
     1
 10
0.0
 20
0.0
 30
0.0
  3
*D17
  1

  0
LINE
  5
1672C
330
1642E
100
AcDbEntity
  8
D-STR-DIM
370
    -2
100
AcDbLine
 10
3010.00005
 20
1878.938108573813
 30
0.0
 11
2912.499979999998
 21
1878.938108573813
 31
0.0
  0
LINE
  5
1672D
330
1642E
100
AcDbEntity
  8
D-STR-DIM
370
    -2
100
AcDbLine
 10
3010.00005
 20
1578.938008573814
 30
0.0
 11
2912.499979999998
 21
1578.938008573814
 31
0.0
  0
LINE
  5
1672E
330
1642E
100
AcDbEntity
  8
D-STR-DIM
370
    -2
100
AcDbLine
 10
2932.499979999998
 20
1853.938108573813
 30
0.0
 11
2932.499979999998
 21
1603.938008573813
 31
0.0
  0
INSERT
  5
1672F
330
1642E
100
AcDbEntity
  8
D-STR-DIM
370
    -2
100
AcDbBlockReference
  2
_OPEN30
 10
2932.499979999998
 20
1878.938108573813
 30
0.0
 41
25.0
 42
25.0
 43
25.0
 50
90.0
  0
INSERT
  5
16730
330
1642E
100
AcDbEntity
  8
D-STR-DIM
370
    -2
100
AcDbBlockReference
  2
_OPEN30
 10
2932.499979999998
 20
1578.938008573814
 30
0.0
 41
25.0
 42
25.0
 43
25.0
 50
270.0
  0
MTEXT
  5
16731
330
1642E
100
AcDbEntity
  8
D-STR-DIM
100
AcDbMText
 10
2907.499979999998
 20
1728.938058573814
 30
0.0
 40
30.0
 41
0.0
 71
     5
 72
     1
  1
300
 11
0.0000000000000001
 21
1.0
 31
0.0
 73
     1
 44
1.0
  0
POINT
  5
16732
330
1642E
100
AcDbEntity
  8
DEFPOINTS
 62
     0
100
AcDbPoint
 10
3020.00005
 20
1878.938108573813
 30
0.0
  0
POINT
  5
16733
330
1642E
100
AcDbEntity
  8
DEFPOINTS
 62
     0
100
AcDbPoint
 10
3020.00005
 20
1578.938008573814
 30
0.0
  0
POINT
  5
16734
330
1642E
100
AcDbEntity
  8
DEFPOINTS
 62
     0
100
AcDbPoint
 10
2932.499979999998
 20
1578.938008573814
 30
0.0
  0
ENDBLK
  5
16439
330
1642E
100
AcDbEntity
  8
0
100
AcDbBlockEnd
  0
BLOCK
  5
1646B
330
1645F
100
AcDbEntity
  8
0
100
AcDbBlockBegin
  2
*D18
 70
     1
 10
0.0
 20
0.0
 30
0.0
  3
*D18
  1

  0
LINE
  5
167FA
330
1645F
100
AcDbEntity
  8
D-STR-DIM
370
    -2
100
AcDbLine
 10
3459.99995
 20
1888.938108573813
 30
0.0
 11
3459.99995
 21
1973.938108573813
 31
0.0
  0
LINE
  5
167FB
330
1645F
100
AcDbEntity
  8
D-STR-DIM
370
    -2
100
AcDbLine
 10
3484.99995
 20
1888.938108573813
 30
0.0
 11
3484.99995
 21
1973.938108573813
 31
0.0
  0
LINE
  5
167FC
330
1645F
100
AcDbEntity
  8
D-STR-DIM
370
    -2
100
AcDbLine
 10
3434.99995
 20
1953.938108573813
 30
0.0
 11
3409.99995
 21
1953.938108573813
 31
0.0
  0
LINE
  5
167FD
330
1645F
100
AcDbEntity
  8
D-STR-DIM
370
    -2
100
AcDbLine
 10
3509.99995
 20
1953.938108573813
 30
0.0
 11
3534.99995
 21
1953.938108573813
 31
0.0
  0
MTEXT
  5
167FE
330
1645F
100
AcDbEntity
  8
D-STR-DIM
100
AcDbMText
 10
3470.891108183795
 20
1978.657479194783
 30
0.0
 40
30.0
 41
0.0
 71
     5
 72
     1
  1
25
 73
     1
 44
1.0
  0
LINE
  5
167FF
330
1645F
100
AcDbEntity
  8
D-STR-DIM
370
    -2
100
AcDbLine
 10
3459.99995
 20
1953.938108573813
 30
0.0
 11
3484.99995
 21
1953.938108573813
 31
0.0
  0
INSERT
  5
16800
330
1645F
100
AcDbEntity
  8
D-STR-DIM
370
    -2
100
AcDbBlockReference
  2
_OPEN30
 10
3459.99995
 20
1953.938108573813
 30
0.0
 41
25.0
 42
25.0
 43
25.0
  0
INSERT
  5
16801
330
1645F
100
AcDbEntity
  8
D-STR-DIM
370
    -2
100
AcDbBlockReference
  2
_OPEN30
 10
3484.99995
 20
1953.938108573813
 30
0.0
 41
25.0
 42
25.0
 43
25.0
 50
180.0
  0
POINT
  5
16802
330
1645F
100
AcDbEntity
  8
DEFPOINTS
 62
     0
100
AcDbPoint
 10
3459.99995
 20
1878.938108573813
 30
0.0
  0
POINT
  5
16803
330
1645F
100
AcDbEntity
  8
DEFPOINTS
 62
     0
100
AcDbPoint
 10
3484.99995
 20
1878.938108573813
 30
0.0
  0
POINT
  5
16804
330
1645F
100
AcDbEntity
  8
DEFPOINTS
 62
     0
100
AcDbPoint
 10
3484.99995
 20
1953.938108573813
 30
0.0
  0
ENDBLK
  5
1646C
330
1645F
100
AcDbEntity
  8
0
100
AcDbBlockEnd
  0
BLOCK
  5
16493
330
16489
100
AcDbEntity
  8
0
100
AcDbBlockBegin
  2
*D19
 70
     1
 10
0.0
 20
0.0
 30
0.0
  3
*D19
  1

  0
LINE
  5
1683F
330
16489
100
AcDbEntity
  8
D-STR-DIM
370
    -2
100
AcDbLine
 10
4710.0
 20
1888.938108573813
 30
0.0
 11
4710.0
 21
1973.938108573813
 31
0.0
  0
LINE
  5
16840
330
16489
100
AcDbEntity
  8
D-STR-DIM
370
    -2
100
AcDbLine
 10
4950.0
 20
1888.938108573813
 30
0.0
 11
4950.0
 21
1973.938108573813
 31
0.0
  0
LINE
  5
16841
330
16489
100
AcDbEntity
  8
D-STR-DIM
370
    -2
100
AcDbLine
 10
4735.0
 20
1953.938108573813
 30
0.0
 11
4925.0
 21
1953.938108573813
 31
0.0
  0
INSERT
  5
16842
330
16489
100
AcDbEntity
  8
D-STR-DIM
370
    -2
100
AcDbBlockReference
  2
_OPEN30
 10
4710.0
 20
1953.938108573813
 30
0.0
 41
25.0
 42
25.0
 43
25.0
 50
180.0
  0
INSERT
  5
16843
330
16489
100
AcDbEntity
  8
D-STR-DIM
370
    -2
100
AcDbBlockReference
  2
_OPEN30
 10
4950.0
 20
1953.938108573813
 30
0.0
 41
25.0
 42
25.0
 43
25.0
  0
MTEXT
  5
16844
330
16489
100
AcDbEntity
  8
D-STR-DIM
100
AcDbMText
 10
4830.0
 20
1978.938108573813
 30
0.0
 40
30.0
 41
0.0
 71
     5
 72
     1
  1
240
 73
     1
 44
1.0
  0
POINT
  5
16845
330
16489
100
AcDbEntity
  8
DEFPOINTS
 62
     0
100
AcDbPoint
 10
4710.0
 20
1878.938108573813
 30
0.0
  0
POINT
  5
16846
330
16489
100
AcDbEntity
  8
DEFPOINTS
 62
     0
100
AcDbPoint
 10
4950.0
 20
1878.938108573813
 30
0.0
  0
POINT
  5
16847
330
16489
100
AcDbEntity
  8
DEFPOINTS
 62
     0
100
AcDbPoint
 10
4950.0
 20
1953.938108573813
 30
0.0
  0
ENDBLK
  5
16494
330
16489
100
AcDbEntity
  8
0
100
AcDbBlockEnd
  0
BLOCK
  5
1649F
330
16495
100
AcDbEntity
  8
0
100
AcDbBlockBegin
  2
*D20
 70
     1
 10
0.0
 20
0.0
 30
0.0
  3
*D20
  1

  0
LINE
  5
16848
330
16495
100
AcDbEntity
  8
D-STR-DIM
370
    -2
100
AcDbLine
 10
4700.0
 20
1878.938108573813
 30
0.0
 11
4602.499929999998
 21
1878.938108573813
 31
0.0
  0
LINE
  5
16849
330
16495
100
AcDbEntity
  8
D-STR-DIM
370
    -2
100
AcDbLine
 10
4700.0
 20
1728.937998573813
 30
0.0
 11
4602.499929999998
 21
1728.937998573813
 31
0.0
  0
LINE
  5
1684A
330
16495
100
AcDbEntity
  8
D-STR-DIM
370
    -2
100
AcDbLine
 10
4622.499929999998
 20
1853.938108573813
 30
0.0
 11
4622.499929999998
 21
1753.937998573813
 31
0.0
  0
INSERT
  5
1684B
330
16495
100
AcDbEntity
  8
D-STR-DIM
370
    -2
100
AcDbBlockReference
  2
_OPEN30
 10
4622.499929999998
 20
1878.938108573813
 30
0.0
 41
25.0
 42
25.0
 43
25.0
 50
90.0
  0
INSERT
  5
1684C
330
16495
100
AcDbEntity
  8
D-STR-DIM
370
    -2
100
AcDbBlockReference
  2
_OPEN30
 10
4622.499929999998
 20
1728.937998573813
 30
0.0
 41
25.0
 42
25.0
 43
25.0
 50
270.0
  0
MTEXT
  5
1684D
330
16495
100
AcDbEntity
  8
D-STR-DIM
100
AcDbMText
 10
4597.499929999997
 20
1803.938053573814
 30
0.0
 40
30.0
 41
0.0
 71
     5
 72
     1
  1
150
 11
0.0000000000000001
 21
1.0
 31
0.0
 73
     1
 44
1.0
  0
POINT
  5
1684E
330
16495
100
AcDbEntity
  8
DEFPOINTS
 62
     0
100
AcDbPoint
 10
4710.0
 20
1878.938108573813
 30
0.0
  0
POINT
  5
1684F
330
16495
100
AcDbEntity
  8
DEFPOINTS
 62
     0
100
AcDbPoint
 10
4710.0
 20
1728.937998573813
 30
0.0
  0
POINT
  5
16850
330
16495
100
AcDbEntity
  8
DEFPOINTS
 62
     0
100
AcDbPoint
 10
4622.499929999998
 20
1728.937998573813
 30
0.0
  0
ENDBLK
  5
164A0
330
16495
100
AcDbEntity
  8
0
100
AcDbBlockEnd
  0
BLOCK
  5
164C9
330
164BD
100
AcDbEntity
  8
0
100
AcDbBlockBegin
  2
*D21
 70
     1
 10
0.0
 20
0.0
 30
0.0
  3
*D21
  1

  0
LINE
  5
16851
330
164BD
100
AcDbEntity
  8
D-STR-DIM
370
    -2
100
AcDbLine
 10
5149.9999
 20
1888.938108573813
 30
0.0
 11
5149.9999
 21
1973.938108573813
 31
0.0
  0
LINE
  5
16852
330
164BD
100
AcDbEntity
  8
D-STR-DIM
370
    -2
100
AcDbLine
 10
5174.9999
 20
1888.938108573813
 30
0.0
 11
5174.9999
 21
1973.938108573813
 31
0.0
  0
LINE
  5
16853
330
164BD
100
AcDbEntity
  8
D-STR-DIM
370
    -2
100
AcDbLine
 10
5124.9999
 20
1953.938108573813
 30
0.0
 11
5099.9999
 21
1953.938108573813
 31
0.0
  0
LINE
  5
16854
330
164BD
100
AcDbEntity
  8
D-STR-DIM
370
    -2
100
AcDbLine
 10
5199.9999
 20
1953.938108573813
 30
0.0
 11
5224.9999
 21
1953.938108573813
 31
0.0
  0
MTEXT
  5
16855
330
164BD
100
AcDbEntity
  8
D-STR-DIM
100
AcDbMText
 10
5160.891058183795
 20
1978.657479194783
 30
0.0
 40
30.0
 41
0.0
 71
     5
 72
     1
  1
25
 73
     1
 44
1.0
  0
LINE
  5
16856
330
164BD
100
AcDbEntity
  8
D-STR-DIM
370
    -2
100
AcDbLine
 10
5149.9999
 20
1953.938108573813
 30
0.0
 11
5174.9999
 21
1953.938108573813
 31
0.0
  0
INSERT
  5
16857
330
164BD
100
AcDbEntity
  8
D-STR-DIM
370
    -2
100
AcDbBlockReference
  2
_OPEN30
 10
5149.9999
 20
1953.938108573813
 30
0.0
 41
25.0
 42
25.0
 43
25.0
  0
INSERT
  5
16858
330
164BD
100
AcDbEntity
  8
D-STR-DIM
370
    -2
100
AcDbBlockReference
  2
_OPEN30
 10
5174.9999
 20
1953.938108573813
 30
0.0
 41
25.0
 42
25.0
 43
25.0
 50
180.0
  0
POINT
  5
16859
330
164BD
100
AcDbEntity
  8
DEFPOINTS
 62
     0
100
AcDbPoint
 10
5149.9999
 20
1878.938108573813
 30
0.0
  0
POINT
  5
1685A
330
164BD
100
AcDbEntity
  8
DEFPOINTS
 62
     0
100
AcDbPoint
 10
5174.9999
 20
1878.938108573813
 30
0.0
  0
POINT
  5
1685B
330
164BD
100
AcDbEntity
  8
DEFPOINTS
 62
     0
100
AcDbPoint
 10
5174.9999
 20
1953.938108573813
 30
0.0
  0
ENDBLK
  5
164CA
330
164BD
100
AcDbEntity
  8
0
100
AcDbBlockEnd
  0
BLOCK
  5
164E6
330
164DC
100
AcDbEntity
  8
0
100
AcDbBlockBegin
  2
*D22
 70
     1
 10
0.0
 20
0.0
 30
0.0
  3
*D22
  1

  0
LINE
  5
167C7
330
164DC
100
AcDbEntity
  8
D-STR-DIM
370
    -2
100
AcDbLine
 10
2929.99994
 20
3723.258307178745
 30
0.0
 11
2832.499869999998
 21
3723.258307178745
 31
0.0
  0
LINE
  5
167C8
330
164DC
100
AcDbEntity
  8
D-STR-DIM
370
    -2
100
AcDbLine
 10
2929.99994
 20
3673.258327178746
 30
0.0
 11
2832.499869999998
 21
3673.258327178746
 31
0.0
  0
LINE
  5
167C9
330
164DC
100
AcDbEntity
  8
D-STR-DIM
370
    -2
100
AcDbLine
 10
2852.499869999998
 20
3748.258307178746
 30
0.0
 11
2852.499869999998
 21
3773.258307178746
 31
0.0
  0
LINE
  5
167CA
330
164DC
100
AcDbEntity
  8
D-STR-DIM
370
    -2
100
AcDbLine
 10
2852.499869999998
 20
3648.258327178746
 30
0.0
 11
2852.499869999998
 21
3623.258327178746
 31
0.0
  0
MTEXT
  5
167CB
330
164DC
100
AcDbEntity
  8
D-STR-DIM
100
AcDbMText
 10
2827.124510416862
 20
3702.186307457081
 30
0.0
 40
30.0
 41
0.0
 71
     5
 72
     1
  1
50
 11
0.0000000000000001
 21
1.0
 31
0.0
 73
     1
 44
1.0
  0
LINE
  5
167CC
330
164DC
100
AcDbEntity
  8
D-STR-DIM
370
    -2
100
AcDbLine
 10
2852.499869999998
 20
3723.258307178745
 30
0.0
 11
2852.499869999998
 21
3673.258327178746
 31
0.0
  0
INSERT
  5
167CD
330
164DC
100
AcDbEntity
  8
D-STR-DIM
370
    -2
100
AcDbBlockReference
  2
_OPEN30
 10
2852.499869999998
 20
3723.258307178745
 30
0.0
 41
25.0
 42
25.0
 43
25.0
 50
270.0
  0
INSERT
  5
167CE
330
164DC
100
AcDbEntity
  8
D-STR-DIM
370
    -2
100
AcDbBlockReference
  2
_OPEN30
 10
2852.499869999998
 20
3673.258327178746
 30
0.0
 41
25.0
 42
25.0
 43
25.0
 50
90.0
  0
POINT
  5
167CF
330
164DC
100
AcDbEntity
  8
DEFPOINTS
 62
     0
100
AcDbPoint
 10
2939.999939999999
 20
3723.258307178745
 30
0.0
  0
POINT
  5
167D0
330
164DC
100
AcDbEntity
  8
DEFPOINTS
 62
     0
100
AcDbPoint
 10
2939.999939999999
 20
3673.258327178746
 30
0.0
  0
POINT
  5
167D1
330
164DC
100
AcDbEntity
  8
DEFPOINTS
 62
     0
100
AcDbPoint
 10
2852.499869999998
 20
3673.258327178746
 30
0.0
  0
ENDBLK
  5
164E7
330
164DC
100
AcDbEntity
  8
0
100
AcDbBlockEnd
  0
BLOCK
  5
164F2
330
164E8
100
AcDbEntity
  8
0
100
AcDbBlockBegin
  2
*D23
 70
     1
 10
0.0
 20
0.0
 30
0.0
  3
*D23
  1

  0
LINE
  5
167BE
330
164E8
100
AcDbEntity
  8
D-STR-DIM
370
    -2
100
AcDbLine
 10
2929.99994
 20
3673.258327178746
 30
0.0
 11
2757.499869999998
 21
3673.258327178746
 31
0.0
  0
LINE
  5
167BF
330
164E8
100
AcDbEntity
  8
D-STR-DIM
370
    -2
100
AcDbLine
 10
2929.99994
 20
4283.258347178746
 30
0.0
 11
2757.499869999998
 21
4283.258347178746
 31
0.0
  0
LINE
  5
167C0
330
164E8
100
AcDbEntity
  8
D-STR-DIM
370
    -2
100
AcDbLine
 10
2777.499869999997
 20
3698.258327178746
 30
0.0
 11
2777.499869999997
 21
4258.258347178745
 31
0.0
  0
INSERT
  5
167C1
330
164E8
100
AcDbEntity
  8
D-STR-DIM
370
    -2
100
AcDbBlockReference
  2
_OPEN30
 10
2777.499869999997
 20
3673.258327178746
 30
0.0
 41
25.0
 42
25.0
 43
25.0
 50
270.0
  0
INSERT
  5
167C2
330
164E8
100
AcDbEntity
  8
D-STR-DIM
370
    -2
100
AcDbBlockReference
  2
_OPEN30
 10
2777.499869999997
 20
4283.258347178746
 30
0.0
 41
25.0
 42
25.0
 43
25.0
 50
90.0
  0
MTEXT
  5
167C3
330
164E8
100
AcDbEntity
  8
D-STR-DIM
100
AcDbMText
 10
2752.499869999997
 20
3978.258337178747
 30
0.0
 40
30.0
 41
0.0
 71
     5
 72
     1
  1
610
 11
0.0000000000000001
 21
1.0
 31
0.0
 73
     1
 44
1.0
  0
POINT
  5
167C4
330
164E8
100
AcDbEntity
  8
DEFPOINTS
 62
     0
100
AcDbPoint
 10
2939.999939999999
 20
3673.258327178746
 30
0.0
  0
POINT
  5
167C5
330
164E8
100
AcDbEntity
  8
DEFPOINTS
 62
     0
100
AcDbPoint
 10
2939.999939999999
 20
4283.258347178746
 30
0.0
  0
POINT
  5
167C6
330
164E8
100
AcDbEntity
  8
DEFPOINTS
 62
     0
100
AcDbPoint
 10
2777.499869999997
 20
4283.258347178746
 30
0.0
  0
ENDBLK
  5
164F3
330
164E8
100
AcDbEntity
  8
0
100
AcDbBlockEnd
  0
BLOCK
  5
164FE
330
164F4
100
AcDbEntity
  8
0
100
AcDbBlockBegin
  2
*D24
 70
     1
 10
0.0
 20
0.0
 30
0.0
  3
*D24
  1

  0
LINE
  5
16810
330
164F4
100
AcDbEntity
  8
D-STR-DIM
370
    -2
100
AcDbLine
 10
2939.999939999999
 20
3663.258327178746
 30
0.0
 11
2939.999939999999
 21
3503.258327178746
 31
0.0
  0
LINE
  5
16811
330
164F4
100
AcDbEntity
  8
D-STR-DIM
370
    -2
100
AcDbLine
 10
3259.999979999999
 20
3663.258327178746
 30
0.0
 11
3259.999979999999
 21
3503.258327178746
 31
0.0
  0
LINE
  5
16812
330
164F4
100
AcDbEntity
  8
D-STR-DIM
370
    -2
100
AcDbLine
 10
2964.99994
 20
3523.258327178746
 30
0.0
 11
3234.999979999999
 21
3523.258327178746
 31
0.0
  0
INSERT
  5
16813
330
164F4
100
AcDbEntity
  8
D-STR-DIM
370
    -2
100
AcDbBlockReference
  2
_OPEN30
 10
2939.999939999999
 20
3523.258327178746
 30
0.0
 41
25.0
 42
25.0
 43
25.0
 50
180.0
  0
INSERT
  5
16814
330
164F4
100
AcDbEntity
  8
D-STR-DIM
370
    -2
100
AcDbBlockReference
  2
_OPEN30
 10
3259.999979999999
 20
3523.258327178746
 30
0.0
 41
25.0
 42
25.0
 43
25.0
  0
MTEXT
  5
16815
330
164F4
100
AcDbEntity
  8
D-STR-DIM
100
AcDbMText
 10
3099.999959999999
 20
3548.258327178746
 30
0.0
 40
30.0
 41
0.0
 71
     5
 72
     1
  1
320
 73
     1
 44
1.0
  0
POINT
  5
16816
330
164F4
100
AcDbEntity
  8
DEFPOINTS
 62
     0
100
AcDbPoint
 10
2939.999939999999
 20
3673.258327178746
 30
0.0
  0
POINT
  5
16817
330
164F4
100
AcDbEntity
  8
DEFPOINTS
 62
     0
100
AcDbPoint
 10
3259.999979999999
 20
3673.258327178746
 30
0.0
  0
POINT
  5
16818
330
164F4
100
AcDbEntity
  8
DEFPOINTS
 62
     0
100
AcDbPoint
 10
3259.999979999999
 20
3523.258327178746
 30
0.0
  0
ENDBLK
  5
164FF
330
164F4
100
AcDbEntity
  8
0
100
AcDbBlockEnd
  0
BLOCK
  5
1650A
330
16500
100
AcDbEntity
  8
0
100
AcDbBlockBegin
  2
*D25
 70
     1
 10
0.0
 20
0.0
 30
0.0
  3
*D25
  1

  0
LINE
  5
16819
330
16500
100
AcDbEntity
  8
D-STR-DIM
370
    -2
100
AcDbLine
 10
2989.999899999999
 20
3663.258327178746
 30
0.0
 11
2989.999899999999
 21
3578.258327178746
 31
0.0
  0
LINE
  5
1681A
330
16500
100
AcDbEntity
  8
D-STR-DIM
370
    -2
100
AcDbLine
 10
3210.0
 20
3663.258327178746
 30
0.0
 11
3210.0
 21
3578.258327178746
 31
0.0
  0
LINE
  5
1681B
330
16500
100
AcDbEntity
  8
D-STR-DIM
370
    -2
100
AcDbLine
 10
3014.999899999999
 20
3598.258327178746
 30
0.0
 11
3185.0
 21
3598.258327178746
 31
0.0
  0
INSERT
  5
1681C
330
16500
100
AcDbEntity
  8
D-STR-DIM
370
    -2
100
AcDbBlockReference
  2
_OPEN30
 10
2989.999899999999
 20
3598.258327178746
 30
0.0
 41
25.0
 42
25.0
 43
25.0
 50
180.0
  0
INSERT
  5
1681D
330
16500
100
AcDbEntity
  8
D-STR-DIM
370
    -2
100
AcDbBlockReference
  2
_OPEN30
 10
3210.0
 20
3598.258327178746
 30
0.0
 41
25.0
 42
25.0
 43
25.0
  0
MTEXT
  5
1681E
330
16500
100
AcDbEntity
  8
D-STR-DIM
100
AcDbMText
 10
3099.99995
 20
3623.258327178746
 30
0.0
 40
30.0
 41
0.0
 71
     5
 72
     1
  1
220
 73
     1
 44
1.0
  0
POINT
  5
1681F
330
16500
100
AcDbEntity
  8
DEFPOINTS
 62
     0
100
AcDbPoint
 10
2989.999899999999
 20
3673.258327178746
 30
0.0
  0
POINT
  5
16820
330
16500
100
AcDbEntity
  8
DEFPOINTS
 62
     0
100
AcDbPoint
 10
3210.0
 20
3673.258327178746
 30
0.0
  0
POINT
  5
16821
330
16500
100
AcDbEntity
  8
DEFPOINTS
 62
     0
100
AcDbPoint
 10
3210.0
 20
3598.258327178746
 30
0.0
  0
ENDBLK
  5
1650B
330
16500
100
AcDbEntity
  8
0
100
AcDbBlockEnd
  0
BLOCK
  5
16516
330
1650C
100
AcDbEntity
  8
0
100
AcDbBlockBegin
  2
*D26
 70
     1
 10
0.0
 20
0.0
 30
0.0
  3
*D26
  1

  0
LINE
  5
167D2
330
1650C
100
AcDbEntity
  8
D-STR-DIM
370
    -2
100
AcDbLine
 10
2939.999939999999
 20
3663.258327178746
 30
0.0
 11
2939.999939999999
 21
3578.258327178746
 31
0.0
  0
LINE
  5
167D3
330
1650C
100
AcDbEntity
  8
D-STR-DIM
370
    -2
100
AcDbLine
 10
2989.999899999999
 20
3663.258327178746
 30
0.0
 11
2989.999899999999
 21
3578.258327178746
 31
0.0
  0
LINE
  5
167D4
330
1650C
100
AcDbEntity
  8
D-STR-DIM
370
    -2
100
AcDbLine
 10
2914.999939999999
 20
3598.258327178746
 30
0.0
 11
2889.99994
 21
3598.258327178746
 31
0.0
  0
LINE
  5
167D5
330
1650C
100
AcDbEntity
  8
D-STR-DIM
370
    -2
100
AcDbLine
 10
3014.999899999999
 20
3598.258327178746
 30
0.0
 11
3039.999899999999
 21
3598.258327178746
 31
0.0
  0
MTEXT
  5
167D6
330
1650C
100
AcDbEntity
  8
D-STR-DIM
100
AcDbMText
 10
2898.245964589896
 20
3623.536890904698
 30
0.0
 40
30.0
 41
0.0
 71
     5
 72
     1
  1
50
 73
     1
 44
1.0
  0
LINE
  5
167D7
330
1650C
100
AcDbEntity
  8
D-STR-DIM
370
    -2
100
AcDbLine
 10
2939.999939999999
 20
3598.258327178746
 30
0.0
 11
2989.999899999999
 21
3598.258327178746
 31
0.0
  0
INSERT
  5
167D8
330
1650C
100
AcDbEntity
  8
D-STR-DIM
370
    -2
100
AcDbBlockReference
  2
_OPEN30
 10
2939.999939999999
 20
3598.258327178746
 30
0.0
 41
25.0
 42
25.0
 43
25.0
  0
INSERT
  5
167D9
330
1650C
100
AcDbEntity
  8
D-STR-DIM
370
    -2
100
AcDbBlockReference
  2
_OPEN30
 10
2989.999899999999
 20
3598.258327178746
 30
0.0
 41
25.0
 42
25.0
 43
25.0
 50
180.0
  0
POINT
  5
167DA
330
1650C
100
AcDbEntity
  8
DEFPOINTS
 62
     0
100
AcDbPoint
 10
2939.999939999999
 20
3673.258327178746
 30
0.0
  0
POINT
  5
167DB
330
1650C
100
AcDbEntity
  8
DEFPOINTS
 62
     0
100
AcDbPoint
 10
2989.999899999999
 20
3673.258327178746
 30
0.0
  0
POINT
  5
167DC
330
1650C
100
AcDbEntity
  8
DEFPOINTS
 62
     0
100
AcDbPoint
 10
2989.999899999999
 20
3598.258327178746
 30
0.0
  0
ENDBLK
  5
16517
330
1650C
100
AcDbEntity
  8
0
100
AcDbBlockEnd
  0
BLOCK
  5
16524
330
16518
100
AcDbEntity
  8
0
100
AcDbBlockBegin
  2
*D27
 70
     1
 10
0.0
 20
0.0
 30
0.0
  3
*D27
  1

  0
LINE
  5
16805
330
16518
100
AcDbEntity
  8
D-STR-DIM
370
    -2
100
AcDbLine
 10
3210.0
 20
3663.258327178746
 30
0.0
 11
3210.0
 21
3578.258327178746
 31
0.0
  0
LINE
  5
16806
330
16518
100
AcDbEntity
  8
D-STR-DIM
370
    -2
100
AcDbLine
 10
3259.999979999999
 20
3663.258327178746
 30
0.0
 11
3259.999979999999
 21
3578.258327178746
 31
0.0
  0
LINE
  5
16807
330
16518
100
AcDbEntity
  8
D-STR-DIM
370
    -2
100
AcDbLine
 10
3185.0
 20
3598.258327178746
 30
0.0
 11
3160.0
 21
3598.258327178746
 31
0.0
  0
LINE
  5
16808
330
16518
100
AcDbEntity
  8
D-STR-DIM
370
    -2
100
AcDbLine
 10
3284.99998
 20
3598.258327178746
 30
0.0
 11
3309.99998
 21
3598.258327178746
 31
0.0
  0
MTEXT
  5
16809
330
16518
100
AcDbEntity
  8
D-STR-DIM
100
AcDbMText
 10
3308.636542560729
 20
3623.402435556148
 30
0.0
 40
30.0
 41
0.0
 71
     5
 72
     1
  1
50
 73
     1
 44
1.0
  0
LINE
  5
1680A
330
16518
100
AcDbEntity
  8
D-STR-DIM
370
    -2
100
AcDbLine
 10
3210.0
 20
3598.258327178746
 30
0.0
 11
3259.999979999999
 21
3598.258327178746
 31
0.0
  0
INSERT
  5
1680B
330
16518
100
AcDbEntity
  8
D-STR-DIM
370
    -2
100
AcDbBlockReference
  2
_OPEN30
 10
3210.0
 20
3598.258327178746
 30
0.0
 41
25.0
 42
25.0
 43
25.0
  0
INSERT
  5
1680C
330
16518
100
AcDbEntity
  8
D-STR-DIM
370
    -2
100
AcDbBlockReference
  2
_OPEN30
 10
3259.999979999999
 20
3598.258327178746
 30
0.0
 41
25.0
 42
25.0
 43
25.0
 50
180.0
  0
POINT
  5
1680D
330
16518
100
AcDbEntity
  8
DEFPOINTS
 62
     0
100
AcDbPoint
 10
3210.0
 20
3673.258327178746
 30
0.0
  0
POINT
  5
1680E
330
16518
100
AcDbEntity
  8
DEFPOINTS
 62
     0
100
AcDbPoint
 10
3259.999979999999
 20
3673.258327178746
 30
0.0
  0
POINT
  5
1680F
330
16518
100
AcDbEntity
  8
DEFPOINTS
 62
     0
100
AcDbPoint
 10
3259.999979999999
 20
3598.258327178746
 30
0.0
  0
ENDBLK
  5
16525
330
16518
100
AcDbEntity
  8
0
100
AcDbBlockEnd
  0
BLOCK
  5
16626
330
1661C
100
AcDbEntity
  8
0
100
AcDbBlockBegin
  2
*D28
 70
     1
 10
0.0
 20
0.0
 30
0.0
  3
*D28
  1

  0
LINE
  5
16822
330
1661C
100
AcDbEntity
  8
D-STR-DIM
370
    -2
100
AcDbLine
 10
3700.0001
 20
3833.258367178746
 30
0.0
 11
3797.500170000001
 21
3833.258367178746
 31
0.0
  0
LINE
  5
16823
330
1661C
100
AcDbEntity
  8
D-STR-DIM
370
    -2
100
AcDbLine
 10
3700.000099999999
 20
3673.258327178746
 30
0.0
 11
3797.500170000001
 21
3673.258327178746
 31
0.0
  0
LINE
  5
16824
330
1661C
100
AcDbEntity
  8
D-STR-DIM
370
    -2
100
AcDbLine
 10
3777.500170000001
 20
3808.258367178746
 30
0.0
 11
3777.500170000001
 21
3698.258327178746
 31
0.0
  0
INSERT
  5
16825
330
1661C
100
AcDbEntity
  8
D-STR-DIM
370
    -2
100
AcDbBlockReference
  2
_OPEN30
 10
3777.500170000001
 20
3833.258367178746
 30
0.0
 41
25.0
 42
25.0
 43
25.0
 50
90.0
  0
INSERT
  5
16826
330
1661C
100
AcDbEntity
  8
D-STR-DIM
370
    -2
100
AcDbBlockReference
  2
_OPEN30
 10
3777.500170000001
 20
3673.258327178746
 30
0.0
 41
25.0
 42
25.0
 43
25.0
 50
270.0
  0
MTEXT
  5
16827
330
1661C
100
AcDbEntity
  8
D-STR-DIM
100
AcDbMText
 10
3752.500170000001
 20
3753.258347178746
 30
0.0
 40
30.0
 41
0.0
 71
     5
 72
     1
  1
160
 11
0.0000000000000001
 21
1.0
 31
0.0
 73
     1
 44
1.0
  0
POINT
  5
16828
330
1661C
100
AcDbEntity
  8
DEFPOINTS
 62
     0
100
AcDbPoint
 10
3690.0001
 20
3833.258367178746
 30
0.0
  0
POINT
  5
16829
330
1661C
100
AcDbEntity
  8
DEFPOINTS
 62
     0
100
AcDbPoint
 10
3690.000099999999
 20
3673.258327178746
 30
0.0
  0
POINT
  5
1682A
330
1661C
100
AcDbEntity
  8
DEFPOINTS
 62
     0
100
AcDbPoint
 10
3777.500170000001
 20
3673.258327178746
 30
0.0
  0
ENDBLK
  5
16627
330
1661C
100
AcDbEntity
  8
0
100
AcDbBlockEnd
  0
BLOCK
  5
1663C
330
16632
100
AcDbEntity
  8
0
100
AcDbBlockBegin
  2
*D29
 70
     1
 10
0.0
 20
0.0
 30
0.0
  3
*D29
  1

  0
LINE
  5
1679A
330
16632
100
AcDbEntity
  8
D-STR-DIM
370
    -2
100
AcDbLine
 10
3700.0001
 20
4423.258347178745
 30
0.0
 11
3885.000240000002
 21
4423.258347178745
 31
0.0
  0
LINE
  5
1679B
330
16632
100
AcDbEntity
  8
D-STR-DIM
370
    -2
100
AcDbLine
 10
3700.0001
 20
3673.258327178746
 30
0.0
 11
3885.000240000002
 21
3673.258327178746
 31
0.0
  0
LINE
  5
1679C
330
16632
100
AcDbEntity
  8
D-STR-DIM
370
    -2
100
AcDbLine
 10
3865.000240000002
 20
4398.258347178745
 30
0.0
 11
3865.000240000002
 21
3698.258327178746
 31
0.0
  0
INSERT
  5
1679D
330
16632
100
AcDbEntity
  8
D-STR-DIM
370
    -2
100
AcDbBlockReference
  2
_OPEN30
 10
3865.000240000002
 20
4423.258347178745
 30
0.0
 41
25.0
 42
25.0
 43
25.0
 50
90.0
  0
INSERT
  5
1679E
330
16632
100
AcDbEntity
  8
D-STR-DIM
370
    -2
100
AcDbBlockReference
  2
_OPEN30
 10
3865.000240000002
 20
3673.258327178746
 30
0.0
 41
25.0
 42
25.0
 43
25.0
 50
270.0
  0
MTEXT
  5
1679F
330
16632
100
AcDbEntity
  8
D-STR-DIM
100
AcDbMText
 10
3840.000240000001
 20
4048.258337178746
 30
0.0
 40
30.0
 41
0.0
 71
     5
 72
     1
  1
750
 11
0.0000000000000001
 21
1.0
 31
0.0
 73
     1
 44
1.0
  0
POINT
  5
167A0
330
16632
100
AcDbEntity
  8
DEFPOINTS
 62
     0
100
AcDbPoint
 10
3690.0001
 20
4423.258347178745
 30
0.0
  0
POINT
  5
167A1
330
16632
100
AcDbEntity
  8
DEFPOINTS
 62
     0
100
AcDbPoint
 10
3690.0001
 20
3673.258327178746
 30
0.0
  0
POINT
  5
167A2
330
16632
100
AcDbEntity
  8
DEFPOINTS
 62
     0
100
AcDbPoint
 10
3865.000240000002
 20
3673.258327178746
 30
0.0
  0
ENDBLK
  5
1663D
330
16632
100
AcDbEntity
  8
0
100
AcDbBlockEnd
  0
BLOCK
  5
16671
330
16667
100
AcDbEntity
  8
0
100
AcDbBlockBegin
  2
*D30
 70
     1
 10
0.0
 20
0.0
 30
0.0
  3
*D30
  1

  0
LINE
  5
16791
330
16667
100
AcDbEntity
  8
D-STR-DIM
370
    -2
100
AcDbLine
 10
3460.0
 20
4293.258347178745
 30
0.0
 11
3460.0
 21
4518.258347178746
 31
0.0
  0
LINE
  5
16792
330
16667
100
AcDbEntity
  8
D-STR-DIM
370
    -2
100
AcDbLine
 10
3640.0001
 20
4433.258347178745
 30
0.0
 11
3640.0001
 21
4518.258347178746
 31
0.0
  0
LINE
  5
16793
330
16667
100
AcDbEntity
  8
D-STR-DIM
370
    -2
100
AcDbLine
 10
3485.0
 20
4498.258347178746
 30
0.0
 11
3615.0001
 21
4498.258347178746
 31
0.0
  0
INSERT
  5
16794
330
16667
100
AcDbEntity
  8
D-STR-DIM
370
    -2
100
AcDbBlockReference
  2
_OPEN30
 10
3460.0
 20
4498.258347178746
 30
0.0
 41
25.0
 42
25.0
 43
25.0
 50
180.0
  0
INSERT
  5
16795
330
16667
100
AcDbEntity
  8
D-STR-DIM
370
    -2
100
AcDbBlockReference
  2
_OPEN30
 10
3640.0001
 20
4498.258347178746
 30
0.0
 41
25.0
 42
25.0
 43
25.0
  0
MTEXT
  5
16796
330
16667
100
AcDbEntity
  8
D-STR-DIM
100
AcDbMText
 10
3550.000049999999
 20
4523.258347178745
 30
0.0
 40
30.0
 41
0.0
 71
     5
 72
     1
  1
180
 73
     1
 44
1.0
  0
POINT
  5
16797
330
16667
100
AcDbEntity
  8
DEFPOINTS
 62
     0
100
AcDbPoint
 10
3460.0
 20
4283.258347178746
 30
0.0
  0
POINT
  5
16798
330
16667
100
AcDbEntity
  8
DEFPOINTS
 62
     0
100
AcDbPoint
 10
3640.0001
 20
4423.258347178745
 30
0.0
  0
POINT
  5
16799
330
16667
100
AcDbEntity
  8
DEFPOINTS
 62
     0
100
AcDbPoint
 10
3640.0001
 20
4498.258347178746
 30
0.0
  0
ENDBLK
  5
16672
330
16667
100
AcDbEntity
  8
0
100
AcDbBlockEnd
  0
BLOCK
  5
1667D
330
16673
100
AcDbEntity
  8
0
100
AcDbBlockBegin
  2
*D31
 70
     1
 10
0.0
 20
0.0
 30
0.0
  3
*D31
  1

  0
LINE
  5
16834
330
16673
100
AcDbEntity
  8
D-STR-DIM
370
    -2
100
AcDbLine
 10
3640.0001
 20
4433.258347178745
 30
0.0
 11
3640.0001
 21
4518.258347178746
 31
0.0
  0
LINE
  5
16835
330
16673
100
AcDbEntity
  8
D-STR-DIM
370
    -2
100
AcDbLine
 10
3690.0001
 20
4433.258347178745
 30
0.0
 11
3690.0001
 21
4518.258347178746
 31
0.0
  0
LINE
  5
16836
330
16673
100
AcDbEntity
  8
D-STR-DIM
370
    -2
100
AcDbLine
 10
3615.0001
 20
4498.258347178746
 30
0.0
 11
3590.0001
 21
4498.258347178746
 31
0.0
  0
LINE
  5
16837
330
16673
100
AcDbEntity
  8
D-STR-DIM
370
    -2
100
AcDbLine
 10
3715.0001
 20
4498.258347178746
 30
0.0
 11
3740.0001
 21
4498.258347178746
 31
0.0
  0
MTEXT
  5
16838
330
16673
100
AcDbEntity
  8
D-STR-DIM
100
AcDbMText
 10
3666.412444720161
 20
4524.049464703374
 30
0.0
 40
30.0
 41
0.0
 71
     5
 72
     1
  1
50
 73
     1
 44
1.0
  0
LINE
  5
16839
330
16673
100
AcDbEntity
  8
D-STR-DIM
370
    -2
100
AcDbLine
 10
3640.0001
 20
4498.258347178746
 30
0.0
 11
3690.0001
 21
4498.258347178746
 31
0.0
  0
INSERT
  5
1683A
330
16673
100
AcDbEntity
  8
D-STR-DIM
370
    -2
100
AcDbBlockReference
  2
_OPEN30
 10
3640.0001
 20
4498.258347178746
 30
0.0
 41
25.0
 42
25.0
 43
25.0
  0
INSERT
  5
1683B
330
16673
100
AcDbEntity
  8
D-STR-DIM
370
    -2
100
AcDbBlockReference
  2
_OPEN30
 10
3690.0001
 20
4498.258347178746
 30
0.0
 41
25.0
 42
25.0
 43
25.0
 50
180.0
  0
POINT
  5
1683C
330
16673
100
AcDbEntity
  8
DEFPOINTS
 62
     0
100
AcDbPoint
 10
3640.0001
 20
4423.258347178745
 30
0.0
  0
POINT
  5
1683D
330
16673
100
AcDbEntity
  8
DEFPOINTS
 62
     0
100
AcDbPoint
 10
3690.0001
 20
4423.258347178745
 30
0.0
  0
POINT
  5
1683E
330
16673
100
AcDbEntity
  8
DEFPOINTS
 62
     0
100
AcDbPoint
 10
3690.0001
 20
4498.258347178746
 30
0.0
  0
ENDBLK
  5
1667E
330
16673
100
AcDbEntity
  8
0
100
AcDbBlockEnd
  0
BLOCK
  5
16689
330
1667F
100
AcDbEntity
  8
0
100
AcDbBlockBegin
  2
*D32
 70
     1
 10
0.0
 20
0.0
 30
0.0
  3
*D32
  1

  0
LINE
  5
16788
330
1667F
100
AcDbEntity
  8
D-STR-DIM
370
    -2
100
AcDbLine
 10
3460.0
 20
4293.258347178745
 30
0.0
 11
3460.0
 21
4593.258347178745
 31
0.0
  0
LINE
  5
16789
330
1667F
100
AcDbEntity
  8
D-STR-DIM
370
    -2
100
AcDbLine
 10
3690.0001
 20
4433.258347178745
 30
0.0
 11
3690.0001
 21
4593.258347178745
 31
0.0
  0
LINE
  5
1678A
330
1667F
100
AcDbEntity
  8
D-STR-DIM
370
    -2
100
AcDbLine
 10
3485.0
 20
4573.258347178746
 30
0.0
 11
3665.0001
 21
4573.258347178746
 31
0.0
  0
INSERT
  5
1678B
330
1667F
100
AcDbEntity
  8
D-STR-DIM
370
    -2
100
AcDbBlockReference
  2
_OPEN30
 10
3460.0
 20
4573.258347178746
 30
0.0
 41
25.0
 42
25.0
 43
25.0
 50
180.0
  0
INSERT
  5
1678C
330
1667F
100
AcDbEntity
  8
D-STR-DIM
370
    -2
100
AcDbBlockReference
  2
_OPEN30
 10
3690.0001
 20
4573.258347178746
 30
0.0
 41
25.0
 42
25.0
 43
25.0
  0
MTEXT
  5
1678D
330
1667F
100
AcDbEntity
  8
D-STR-DIM
100
AcDbMText
 10
3575.000049999999
 20
4598.258347178745
 30
0.0
 40
30.0
 41
0.0
 71
     5
 72
     1
  1
230
 73
     1
 44
1.0
  0
POINT
  5
1678E
330
1667F
100
AcDbEntity
  8
DEFPOINTS
 62
     0
100
AcDbPoint
 10
3460.0
 20
4283.258347178746
 30
0.0
  0
POINT
  5
1678F
330
1667F
100
AcDbEntity
  8
DEFPOINTS
 62
     0
100
AcDbPoint
 10
3690.0001
 20
4423.258347178745
 30
0.0
  0
POINT
  5
16790
330
1667F
100
AcDbEntity
  8
DEFPOINTS
 62
     0
100
AcDbPoint
 10
3690.0001
 20
4573.258347178746
 30
0.0
  0
ENDBLK
  5
1668A
330
1667F
100
AcDbEntity
  8
0
100
AcDbBlockEnd
  0
BLOCK
  5
166FF
330
166F5
100
AcDbEntity
  8
0
100
AcDbBlockBegin
  2
*D33
 70
     1
 10
0.0
 20
0.0
 30
0.0
  3
*D33
  1

  0
LINE
  5
1682B
330
166F5
100
AcDbEntity
  8
D-STR-DIM
370
    -2
100
AcDbLine
 10
2939.999939999999
 20
4433.258347178745
 30
0.0
 11
2939.999939999999
 21
4518.258347178746
 31
0.0
  0
LINE
  5
1682C
330
166F5
100
AcDbEntity
  8
D-STR-DIM
370
    -2
100
AcDbLine
 10
3259.999979999999
 20
4433.258347178745
 30
0.0
 11
3259.999979999999
 21
4518.258347178746
 31
0.0
  0
LINE
  5
1682D
330
166F5
100
AcDbEntity
  8
D-STR-DIM
370
    -2
100
AcDbLine
 10
2964.99994
 20
4498.258347178746
 30
0.0
 11
3234.999979999999
 21
4498.258347178746
 31
0.0
  0
INSERT
  5
1682E
330
166F5
100
AcDbEntity
  8
D-STR-DIM
370
    -2
100
AcDbBlockReference
  2
_OPEN30
 10
2939.999939999999
 20
4498.258347178746
 30
0.0
 41
25.0
 42
25.0
 43
25.0
 50
180.0
  0
INSERT
  5
1682F
330
166F5
100
AcDbEntity
  8
D-STR-DIM
370
    -2
100
AcDbBlockReference
  2
_OPEN30
 10
3259.999979999999
 20
4498.258347178746
 30
0.0
 41
25.0
 42
25.0
 43
25.0
  0
MTEXT
  5
16830
330
166F5
100
AcDbEntity
  8
D-STR-DIM
100
AcDbMText
 10
3099.999959999999
 20
4523.258347178745
 30
0.0
 40
30.0
 41
0.0
 71
     5
 72
     1
  1
320
 73
     1
 44
1.0
  0
POINT
  5
16831
330
166F5
100
AcDbEntity
  8
DEFPOINTS
 62
     0
100
AcDbPoint
 10
2939.999939999999
 20
4423.258347178745
 30
0.0
  0
POINT
  5
16832
330
166F5
100
AcDbEntity
  8
DEFPOINTS
 62
     0
100
AcDbPoint
 10
3259.999979999999
 20
4423.258347178745
 30
0.0
  0
POINT
  5
16833
330
166F5
100
AcDbEntity
  8
DEFPOINTS
 62
     0
100
AcDbPoint
 10
3259.999979999999
 20
4498.258347178746
 30
0.0
  0
ENDBLK
  5
16700
330
166F5
100
AcDbEntity
  8
0
100
AcDbBlockEnd
  0
ENDSEC
  0
SECTION
  2
ENTITIES
  0
LINE
  5
14BBA
330
1F
100
AcDbEntity
  8
D-TTL
100
AcDbLine
 10
0.0
 20
5940.0
 30
0.0
 11
8399.999999999998
 21
5940.0
 31
0.0
  0
MTEXT
  5
14BBB
330
1F
100
AcDbEntity
  8
D-STR-TXT
370
    -3
100
AcDbMText
 10
1679.999894999999
 20
5461.450196724041
 30
0.0
 40
50.0
 41
0.0
 71
     5
 72
     1
  1
{\L角落し450型}
 73
     1
 44
1.0
  0
MTEXT
  5
14BBC
330
1F
100
AcDbEntity
  8
D-STR-TXT
370
    -3
100
AcDbMText
 10
1776.953095686438
 20
5388.368853182027
 30
0.0
 40
50.0
 41
0.0
 71
     5
 72
     1
  1
S=1/10
 73
     1
 44
1.0
  0
MTEXT
  5
14BBE
330
1F
100
AcDbEntity
  8
D-STR-TXT
370
    -3
100
AcDbMText
 10
3359.99987
 20
5461.450196724041
 30
0.0
 40
50.0
 41
0.0
 71
     5
 72
     1
  1
{\L角落し750型}
 73
     1
 44
1.0
  0
MTEXT
  5
14BBF
330
1F
100
AcDbEntity
  8
D-STR-TXT
370
    -3
100
AcDbMText
 10
3456.953070686439
 20
5388.368853182027
 30
0.0
 40
50.0
 41
0.0
 71
     5
 72
     1
  1
S=1/10
 73
     1
 44
1.0
  0
LINE
  5
14BC3
330
1F
100
AcDbEntity
  8
D-TTL
100
AcDbLine
 10
8399.999999999998
 20
5940.0
 30
0.0
 11
8399.999999999998
 21
0.0
 31
0.0
  0
LINE
  5
14BC4
330
1F
100
AcDbEntity
  8
D-TTL
100
AcDbLine
 10
0.0
 20
5940.0
 30
0.0
 11
0.0
 21
0.0
 31
0.0
  0
LINE
  5
15208
330
1F
100
AcDbEntity
  8
D-TTL
100
AcDbLine
 10
0.0
 20
0.0
 30
0.0
 11
8399.999999999998
 21
0.0
 31
0.0
  0
LINE
  5
1603A
330
1F
100
AcDbEntity
  8
D-STR
  6
Continuous
100
AcDbLine
 10
1580.0
 20
4273.258342178746
 30
0.0
 11
1259.99996
 21
4273.258342178746
 31
0.0
  0
LINE
  5
1603B
330
1F
100
AcDbEntity
  8
D-STR
  6
Continuous
100
AcDbLine
 10
1580.0
 20
3823.258332178745
 30
0.0
 11
1259.99996
 21
3823.258332178745
 31
0.0
  0
LINE
  5
1603C
330
1F
100
AcDbEntity
  8
D-STR
  6
DASHED1
100
AcDbLine
 10
1540.0
 20
3913.258322178746
 30
0.0
 11
1299.99993
 21
3913.258322178746
 31
0.0
  0
LINE
  5
1603D
330
1F
100
AcDbEntity
  8
D-STR
  6
Continuous
100
AcDbLine
 10
1259.99996
 20
4273.258342178746
 30
0.0
 11
1259.99996
 21
3823.258332178745
 31
0.0
  0
LINE
  5
1603E
330
1F
100
AcDbEntity
  8
D-STR
  6
DASHED1
100
AcDbLine
 10
1299.99993
 20
3913.258322178746
 30
0.0
 11
1299.99993
 21
4273.258342178746
 31
0.0
  0
CIRCLE
  5
1603F
330
1F
100
AcDbEntity
  8
D-STR
  6
DASHED1
100
AcDbCircle
 10
1420.0
 20
4013.258372178746
 30
0.0
 40
90.00000099999999
  0
CIRCLE
  5
16040
330
1F
100
AcDbEntity
  8
D-STR
  6
Continuous
100
AcDbCircle
 10
1420.0
 20
4013.258372178746
 30
0.0
 40
85.0
  0
LINE
  5
16041
330
1F
100
AcDbEntity
  8
D-STR
  6
Continuous
100
AcDbLine
 10
1580.0
 20
4273.258342178746
 30
0.0
 11
1580.0
 21
3823.258332178745
 31
0.0
  0
LINE
  5
16042
330
1F
100
AcDbEntity
  8
D-STR
  6
Continuous
100
AcDbLine
 10
1329.99997
 20
4273.258342178746
 30
0.0
 11
1329.99997
 21
3923.258332178745
 31
0.0
  0
LINE
  5
16043
330
1F
100
AcDbEntity
  8
D-STR
  6
Continuous
100
AcDbLine
 10
1510.0
 20
4273.258342178746
 30
0.0
 11
1510.0
 21
3923.258332178745
 31
0.0
  0
LINE
  5
16044
330
1F
100
AcDbEntity
  8
D-STR
  6
DASHED1
100
AcDbLine
 10
1540.0
 20
4273.258342178746
 30
0.0
 11
1540.0
 21
3913.258322178746
 31
0.0
  0
LINE
  5
16045
330
1F
100
AcDbEntity
  8
D-STR
  6
Continuous
100
AcDbLine
 10
1510.0
 20
3923.258332178745
 30
0.0
 11
1329.99997
 21
3923.258332178745
 31
0.0
  0
LINE
  5
16046
330
1F
100
AcDbEntity
  8
D-STR
  6
Continuous
100
AcDbLine
 10
1959.999899999999
 20
4273.258342178746
 30
0.0
 11
1959.999899999999
 21
3823.258332178745
 31
0.0
  0
LINE
  5
16047
330
1F
100
AcDbEntity
  8
D-STR
  6
DASHED1
100
AcDbLine
 10
1884.999899999999
 20
4273.258342178746
 30
0.0
 11
1884.999899999999
 21
3923.258332178745
 31
0.0
  0
LINE
  5
16048
330
1F
100
AcDbEntity
  8
D-STR
  6
DASHED1
100
AcDbLine
 10
1844.999799999999
 20
4273.258342178746
 30
0.0
 11
1844.999799999999
 21
3913.258322178746
 31
0.0
  0
LINE
  5
16049
330
1F
100
AcDbEntity
  8
D-STR
  6
Continuous
100
AcDbLine
 10
1780.0
 20
4273.258342178746
 30
0.0
 11
1780.0
 21
3823.258332178745
 31
0.0
  0
LINE
  5
1604A
330
1F
100
AcDbEntity
  8
D-STR
  6
DASHED1
100
AcDbLine
 10
1824.999899999999
 20
4273.258342178746
 30
0.0
 11
1824.999899999999
 21
3913.258322178746
 31
0.0
  0
LINE
  5
1604B
330
1F
100
AcDbEntity
  8
D-STR
  6
DASHED1
100
AcDbLine
 10
1839.999899999999
 20
4273.258342178746
 30
0.0
 11
1839.999899999999
 21
3913.258322178746
 31
0.0
  0
LINE
  5
1604C
330
1F
100
AcDbEntity
  8
D-STR
  6
DASHED1
100
AcDbLine
 10
1820.0
 20
4273.258342178746
 30
0.0
 11
1820.0
 21
3913.258322178746
 31
0.0
  0
LINE
  5
1604D
330
1F
100
AcDbEntity
  8
D-STR
  6
Continuous
100
AcDbLine
 10
1780.0
 20
3823.258332178745
 30
0.0
 11
1959.999899999999
 21
3823.258332178745
 31
0.0
  0
LINE
  5
1604E
330
1F
100
AcDbEntity
  8
D-STR
  6
DASHED1
100
AcDbLine
 10
1884.999899999999
 20
3928.258342178745
 30
0.0
 11
1959.999899999999
 21
3923.258332178745
 31
0.0
  0
LINE
  5
1604F
330
1F
100
AcDbEntity
  8
D-STR
  6
DASHED1
100
AcDbLine
 10
1780.0
 20
3923.258332178745
 30
0.0
 11
1884.999899999999
 21
3923.258332178745
 31
0.0
  0
LINE
  5
16050
330
1F
100
AcDbEntity
  8
D-STR
  6
DASHED1
100
AcDbLine
 10
1820.0
 20
3913.258322178746
 30
0.0
 11
1844.999799999999
 21
3913.258322178746
 31
0.0
  0
LINE
  5
16051
330
1F
100
AcDbEntity
  8
D-STR
  6
DASHED1
100
AcDbLine
 10
1884.999899999999
 20
4098.258312178745
 30
0.0
 11
1959.999899999999
 21
4103.258312178746
 31
0.0
  0
LINE
  5
16052
330
1F
100
AcDbEntity
  8
D-STR
  6
Continuous
100
AcDbLine
 10
1780.0
 20
4273.258342178746
 30
0.0
 11
1959.999899999999
 21
4273.258342178746
 31
0.0
  0
LINE
  5
16053
330
1F
100
AcDbEntity
  8
D-STR
  6
Continuous
100
AcDbLine
 10
1774.9999
 20
1878.938108573813
 30
0.0
 11
1795.0
 21
1878.938108573813
 31
0.0
  0
LINE
  5
16054
330
1F
100
AcDbEntity
  8
D-STR
  6
Continuous
100
AcDbLine
 10
1774.9999
 20
1518.938088573813
 30
0.0
 11
1795.0
 21
1518.938088573813
 31
0.0
  0
LINE
  5
16055
330
1F
100
AcDbEntity
  8
D-STR
  6
Continuous
100
AcDbLine
 10
1345.0001
 20
1878.938108573813
 30
0.0
 11
1345.0001
 21
1518.938088573813
 31
0.0
  0
LINE
  5
16057
330
1F
100
AcDbEntity
  8
D-STR
  6
Continuous
100
AcDbLine
 10
1774.9999
 20
1878.938108573813
 30
0.0
 11
1774.9999
 21
1518.938088573813
 31
0.0
  0
LINE
  5
16058
330
1F
100
AcDbEntity
  8
D-STR
  6
Continuous
100
AcDbLine
 10
1345.0001
 20
1518.938088573813
 30
0.0
 11
1575.0001
 21
1518.938088573812
 31
0.0
  0
LINE
  5
16059
330
1F
100
AcDbEntity
  8
D-STR
  6
Continuous
100
AcDbLine
 10
1345.0001
 20
1878.938108573813
 30
0.0
 11
1575.0001
 21
1878.938108573813
 31
0.0
  0
LINE
  5
1605A
330
1F
100
AcDbEntity
  8
D-STR
  6
Continuous
100
AcDbLine
 10
1795.0
 20
1878.938108573813
 30
0.0
 11
1795.0
 21
1518.938088573813
 31
0.0
  0
DIMENSION
  5
1605B
330
1F
100
AcDbEntity
  8
D-STR-DIM
100
AcDbDimension
  2
*D3
 10
1172.499889999998
 20
3823.258332178745
 30
0.0
 11
1147.499889999997
 21
3873.258332178746
 31
0.0
 70
    32
 71
     5
 42
100.0
  3
S10
100
AcDbAlignedDimension
 13
1259.99996
 23
3923.258332178745
 33
0.0
 14
1259.99996
 24
3823.258332178745
 34
0.0
 50
90.0
100
AcDbRotatedDimension
  0
DIMENSION
  5
1605C
330
1F
100
AcDbEntity
  8
D-STR-DIM
100
AcDbDimension
  2
*D2
 10
1097.499889999998
 20
4273.258342178746
 30
0.0
 11
1072.499889999997
 21
4048.258337178746
 31
0.0
 70
    32
 71
     5
 42
450.0000099999993
  3
S10
100
AcDbAlignedDimension
 13
1259.99996
 23
3823.258332178745
 33
0.0
 14
1259.99996
 24
4273.258342178746
 34
0.0
 50
90.0
100
AcDbRotatedDimension
  0
DIMENSION
  5
160A2
330
1F
100
AcDbEntity
  8
D-STR-DIM
100
AcDbDimension
  2
*D5
 10
1580.0
 20
3673.258332178745
 30
0.0
 11
1419.99998
 21
3698.258332178745
 31
0.0
 70
    32
 71
     5
 42
320.0000399999999
  3
S10
100
AcDbAlignedDimension
 13
1259.99996
 23
3823.258332178745
 33
0.0
 14
1580.0
 24
3823.258332178745
 34
0.0
100
AcDbRotatedDimension
  0
DIMENSION
  5
160A3
330
1F
100
AcDbEntity
  8
D-STR-DIM
100
AcDbDimension
  2
*D4
 10
1510.0
 20
3748.258332178746
 30
0.0
 11
1419.999985
 21
3773.258332178746
 31
0.0
 70
    32
 71
     5
 42
180.0000300000001
  3
S10
100
AcDbAlignedDimension
 13
1329.99997
 23
3823.258332178745
 33
0.0
 14
1510.0
 24
3823.258332178745
 34
0.0
100
AcDbRotatedDimension
  0
DIMENSION
  5
160A4
330
1F
100
AcDbEntity
  8
D-STR-DIM
100
AcDbDimension
  2
*D6
 10
1329.99997
 20
3748.258332178746
 30
0.0
 11
1294.999965
 21
3773.258332178746
 31
0.0
 70
    32
 71
     5
 42
70.00000999999975
  3
S10
100
AcDbAlignedDimension
 13
1259.99996
 23
3823.258332178745
 33
0.0
 14
1329.99997
 24
3823.258332178745
 34
0.0
100
AcDbRotatedDimension
1001
ACAD
1000
DSTYLE
1002
{
1070
   279
1070
     1
1002
}
  0
DIMENSION
  5
160A5
330
1F
100
AcDbEntity
  8
D-STR-DIM
100
AcDbDimension
  2
*D7
 10
1580.0
 20
3748.258332178746
 30
0.0
 11
1545.0
 21
3773.258332178746
 31
0.0
 70
    32
 71
     5
 42
70.0
  3
S10
100
AcDbAlignedDimension
 13
1510.0
 23
3823.258332178745
 33
0.0
 14
1580.0
 24
3823.258332178745
 34
0.0
100
AcDbRotatedDimension
1001
ACAD
1000
DSTYLE
1002
{
1070
   279
1070
     1
1002
}
  0
DIMENSION
  5
16199
330
1F
100
AcDbEntity
  8
D-STR-DIM
100
AcDbDimension
  2
*D8
 10
2047.49997
 20
3823.258332178745
 30
0.0
 11
2022.49997
 21
3918.258327178746
 31
0.0
 70
    32
 71
     5
 42
189.9999899999993
  3
S10
100
AcDbAlignedDimension
 13
1959.999899999999
 23
4013.258322178745
 33
0.0
 14
1959.999899999998
 24
3823.258332178745
 34
0.0
 50
90.0
100
AcDbRotatedDimension
  0
DIMENSION
  5
161D7
330
1F
100
AcDbEntity
  8
D-STR-DIM
100
AcDbDimension
  2
*D9
 10
1580.0
 20
4348.258342178746
 30
0.0
 11
1419.99998
 21
4373.258342178746
 31
0.0
 70
    32
 71
     5
 42
320.0000399999999
  3
S10
100
AcDbAlignedDimension
 13
1259.99996
 23
4273.258342178746
 33
0.0
 14
1580.0
 24
4273.258342178746
 34
0.0
100
AcDbRotatedDimension
  0
DIMENSION
  5
161F6
330
1F
100
AcDbEntity
  8
D-STR-DIM
100
AcDbDimension
  2
*D10
 10
1884.999899999999
 20
4348.258342178746
 30
0.0
 11
1832.49995
 21
4373.258342178746
 31
0.0
 70
    32
 71
     5
 42
104.9998999999997
  3
S10
100
AcDbAlignedDimension
 13
1780.0
 23
4273.258342178746
 33
0.0
 14
1884.999899999999
 24
4273.258342178746
 34
0.0
100
AcDbRotatedDimension
  0
DIMENSION
  5
1621E
330
1F
100
AcDbEntity
  8
D-STR-DIM
100
AcDbDimension
  2
*D11
 10
1959.999899999999
 20
4348.258342178746
 30
0.0
 11
1922.499899999999
 21
4373.258342178746
 31
0.0
 70
    32
 71
     5
 42
75.0
  3
S10
100
AcDbAlignedDimension
 13
1884.999899999999
 23
4273.258342178746
 33
0.0
 14
1959.999899999999
 24
4273.258342178746
 34
0.0
100
AcDbRotatedDimension
  0
DIMENSION
  5
1623D
330
1F
100
AcDbEntity
  8
D-STR-DIM
100
AcDbDimension
  2
*D12
 10
1959.999899999999
 20
4423.258342178746
 30
0.0
 11
1869.99995
 21
4448.258342178745
 31
0.0
 70
    32
 71
     5
 42
179.9998999999997
  3
S10
100
AcDbAlignedDimension
 13
1780.0
 23
4273.258342178746
 33
0.0
 14
1959.999899999999
 24
4273.258342178746
 34
0.0
100
AcDbRotatedDimension
  0
DIMENSION
  5
1626E
330
1F
100
AcDbEntity
  8
D-STR-DIM
100
AcDbDimension
  2
*D13
 10
1575.0001
 20
1953.938108573813
 30
0.0
 11
1460.0001
 21
1978.938108573813
 31
0.0
 70
    32
 71
     5
 42
230.0
  3
S10
100
AcDbAlignedDimension
 13
1345.0001
 23
1878.938108573813
 33
0.0
 14
1575.0001
 24
1878.938108573813
 34
0.0
100
AcDbRotatedDimension
  0
DIMENSION
  5
1628D
330
1F
100
AcDbEntity
  8
D-STR-DIM
100
AcDbDimension
  2
*D14
 10
1795.0
 20
1953.938108573813
 30
0.0
 11
1785.891058183796
 21
1953.657479194783
 31
0.0
 70
   160
 71
     5
 42
20.00009999999929
  3
S10
100
AcDbAlignedDimension
 13
1774.9999
 23
1878.938108573813
 33
0.0
 14
1795.0
 24
1878.938108573813
 34
0.0
100
AcDbRotatedDimension
1001
ACAD
1000
DSTYLE
1002
{
1070
   279
1070
     1
1002
}
  0
DIMENSION
  5
162C4
330
1F
100
AcDbEntity
  8
D-STR-DIM
100
AcDbDimension
  2
*D15
 10
1257.500029999998
 20
1518.938088573813
 30
0.0
 11
1232.500029999998
 21
1698.938098573813
 31
0.0
 70
    32
 71
     5
 42
360.0000199999994
  3
S10
100
AcDbAlignedDimension
 13
1345.0001
 23
1878.938108573813
 33
0.0
 14
1345.0001
 24
1518.938088573813
 34
0.0
 50
90.0
100
AcDbRotatedDimension
  0
MTEXT
  5
16391
330
1F
100
AcDbEntity
  8
D-STR-TXT
370
    -3
100
AcDbMText
 10
3359.99987
 20
2702.87682353027
 30
0.0
 40
50.0
 41
0.0
 71
     5
 72
     1
  1
{\L制水板750型用}
 73
     1
 44
1.0
  0
MTEXT
  5
16392
330
1F
100
AcDbEntity
  8
D-STR-TXT
370
    -3
100
AcDbMText
 10
3456.953070686439
 20
2629.795479988256
 30
0.0
 40
50.0
 41
0.0
 71
     5
 72
     1
  1
S=1/10
 73
     1
 44
1.0
  0
MTEXT
  5
16393
330
1F
100
AcDbEntity
  8
D-STR-TXT
370
    -3
100
AcDbMText
 10
1679.999894999999
 20
2702.87682353027
 30
0.0
 40
50.0
 41
0.0
 71
     5
 72
     1
  1
{\L制水板450型用}
 73
     1
 44
1.0
  0
MTEXT
  5
16394
330
1F
100
AcDbEntity
  8
D-STR-TXT
370
    -3
100
AcDbMText
 10
1776.953095686438
 20
2629.795479988256
 30
0.0
 40
50.0
 41
0.0
 71
     5
 72
     1
  1
S=1/10
 73
     1
 44
1.0
  0
LINE
  5
163E9
330
1F
100
AcDbEntity
  8
D-STR
  6
Continuous
100
AcDbLine
 10
3690.0001
 20
4423.258347178745
 30
0.0
 11
3690.0001
 21
3673.258327178746
 31
0.0
  0
LINE
  5
163EA
330
1F
100
AcDbEntity
  8
D-STR
  6
Continuous
100
AcDbLine
 10
3020.00005
 20
1878.938108573813
 30
0.0
 11
3020.00005
 21
1578.938008573814
 31
0.0
  0
LINE
  5
163EB
330
1F
100
AcDbEntity
  8
D-STR
  6
Continuous
100
AcDbLine
 10
3260.00005
 20
1878.938108573813
 30
0.0
 11
3260.00005
 21
1578.938008573814
 31
0.0
  0
LINE
  5
163EC
330
1F
100
AcDbEntity
  8
D-STR
  6
Continuous
100
AcDbLine
 10
3459.99995
 20
1878.938108573813
 30
0.0
 11
3459.99995
 21
1578.938008573814
 31
0.0
  0
LINE
  5
163ED
330
1F
100
AcDbEntity
  8
D-STR
  6
Continuous
100
AcDbLine
 10
3484.99995
 20
1878.938108573813
 30
0.0
 11
3484.99995
 21
1578.938008573814
 31
0.0
  0
LINE
  5
163EE
330
1F
100
AcDbEntity
  8
D-STR
  6
Continuous
100
AcDbLine
 10
3460.0
 20
4283.258347178746
 30
0.0
 11
3460.0
 21
3673.258327178746
 31
0.0
  0
LINE
  5
163EF
330
1F
100
AcDbEntity
  8
D-STR
  6
DASHED1
100
AcDbLine
 10
3505.0
 20
4318.258147178746
 30
0.0
 11
3505.0
 21
3713.258297178746
 31
0.0
  0
LINE
  5
163F0
330
1F
100
AcDbEntity
  8
D-STR
  6
DASHED1
100
AcDbLine
 10
3510.0001
 20
4322.147147178746
 30
0.0
 11
3510.0001
 21
3713.258297178746
 31
0.0
  0
LINE
  5
163F1
330
1F
100
AcDbEntity
  8
D-STR
  6
DASHED1
100
AcDbLine
 10
3540.0001
 20
4345.480547178746
 30
0.0
 11
3540.0001
 21
3713.258297178746
 31
0.0
  0
LINE
  5
163F2
330
1F
100
AcDbEntity
  8
D-STR
  6
DASHED1
100
AcDbLine
 10
3545.0
 20
4349.369447178745
 30
0.0
 11
3545.0
 21
3713.258297178746
 31
0.0
  0
LINE
  5
163F3
330
1F
100
AcDbEntity
  8
D-STR
  6
DASHED1
100
AcDbLine
 10
3640.0001
 20
4423.258347178745
 30
0.0
 11
3640.0001
 21
3723.258307178745
 31
0.0
  0
LINE
  5
163F4
330
1F
100
AcDbEntity
  8
D-STR
  6
Continuous
100
AcDbLine
 10
2939.999939999999
 20
4423.258347178745
 30
0.0
 11
2939.999939999999
 21
3673.258327178746
 31
0.0
  0
LINE
  5
163F5
330
1F
100
AcDbEntity
  8
D-STR
  6
Continuous
100
AcDbLine
 10
3260.0
 20
4423.258347178745
 30
0.0
 11
3260.0
 21
3673.258327178746
 31
0.0
  0
LINE
  5
163F6
330
1F
100
AcDbEntity
  8
D-STR
  6
Continuous
100
AcDbLine
 10
2989.999899999999
 20
4423.258347178745
 30
0.0
 11
2989.999899999999
 21
3723.258307178745
 31
0.0
  0
LINE
  5
163F7
330
1F
100
AcDbEntity
  8
D-STR
  6
Continuous
100
AcDbLine
 10
3210.0
 20
4423.258347178745
 30
0.0
 11
3210.0
 21
3723.258307178745
 31
0.0
  0
LINE
  5
163F8
330
1F
100
AcDbEntity
  8
D-STR
  6
DASHED1
100
AcDbLine
 10
2974.9999
 20
4322.147147178746
 30
0.0
 11
2974.9999
 21
3713.258297178746
 31
0.0
  0
LINE
  5
163F9
330
1F
100
AcDbEntity
  8
D-STR
  6
DASHED1
100
AcDbLine
 10
3225.0
 20
4322.147147178746
 30
0.0
 11
3225.0
 21
3713.258297178746
 31
0.0
  0
LINE
  5
163FA
330
1F
100
AcDbEntity
  8
D-STR
  6
Continuous
100
AcDbLine
 10
3210.0
 20
3723.258307178745
 30
0.0
 11
2989.999899999999
 21
3723.258307178745
 31
0.0
  0
CIRCLE
  5
163FB
330
1F
100
AcDbEntity
  8
D-STR
  6
DASHED1
100
AcDbCircle
 10
3099.9999
 20
3818.258307178745
 30
0.0
 40
94.999997
  0
CIRCLE
  5
163FC
330
1F
100
AcDbEntity
  8
D-STR
  6
Continuous
100
AcDbCircle
 10
3099.9999
 20
3818.258307178745
 30
0.0
 40
90.00000099999999
  0
LINE
  5
163FD
330
1F
100
AcDbEntity
  8
D-STR
  6
Continuous
100
AcDbLine
 10
3260.0
 20
3673.258327178746
 30
0.0
 11
2939.999939999999
 21
3673.258327178746
 31
0.0
  0
LINE
  5
163FE
330
1F
100
AcDbEntity
  8
D-STR
  6
DASHED1
100
AcDbLine
 10
3225.0
 20
3713.258297178746
 30
0.0
 11
2974.9999
 21
3713.258297178746
 31
0.0
  0
LINE
  5
163FF
330
1F
100
AcDbEntity
  8
D-STR
  6
Continuous
100
AcDbLine
 10
3020.00005
 20
1578.938008573814
 30
0.0
 11
3260.00005
 21
1578.938008573814
 31
0.0
  0
LINE
  5
16400
330
1F
100
AcDbEntity
  8
D-STR
  6
Continuous
100
AcDbLine
 10
4710.0
 20
1878.938108573813
 30
0.0
 11
4950.0
 21
1878.938108573813
 31
0.0
  0
LINE
  5
16401
330
1F
100
AcDbEntity
  8
D-STR
  6
Continuous
100
AcDbLine
 10
4710.0
 20
1728.937998573813
 30
0.0
 11
4950.0
 21
1728.937998573813
 31
0.0
  0
LINE
  5
16402
330
1F
100
AcDbEntity
  8
D-STR
  6
DASHED1
100
AcDbLine
 10
3460.0
 20
3723.258307178745
 30
0.0
 11
3640.0001
 21
3723.258307178745
 31
0.0
  0
LINE
  5
16403
330
1F
100
AcDbEntity
  8
D-STR
  6
Continuous
100
AcDbLine
 10
3460.0
 20
3673.258327178746
 30
0.0
 11
3690.0001
 21
3673.258327178746
 31
0.0
  0
LINE
  5
16404
330
1F
100
AcDbEntity
  8
D-STR
  6
DASHED1
100
AcDbLine
 10
3505.0
 20
3713.258297178746
 30
0.0
 11
3545.0
 21
3713.258297178746
 31
0.0
  0
LINE
  5
16405
330
1F
100
AcDbEntity
  8
D-STR
  6
DASHED1
100
AcDbLine
 10
3690.0001
 20
3738.258327178746
 30
0.0
 11
3640.0001
 21
3743.258337178746
 31
0.0
  0
LINE
  5
16406
330
1F
100
AcDbEntity
  8
D-STR
  6
Continuous
100
AcDbLine
 10
4710.0
 20
1878.938108573813
 30
0.0
 11
4710.0
 21
1728.937998573813
 31
0.0
  0
LINE
  5
16407
330
1F
100
AcDbEntity
  8
D-STR
  6
DASHED1
100
AcDbLine
 10
3690.0001
 20
3928.258407178746
 30
0.0
 11
3640.0001
 21
3923.258407178746
 31
0.0
  0
LINE
  5
16408
330
1F
100
AcDbEntity
  8
D-STR
  6
Continuous
100
AcDbLine
 10
4950.0
 20
1878.938108573813
 30
0.0
 11
4950.0
 21
1728.937998573813
 31
0.0
  0
LINE
  5
16409
330
1F
100
AcDbEntity
  8
D-STR
  6
Continuous
100
AcDbLine
 10
5149.9999
 20
1878.938108573813
 30
0.0
 11
5149.9999
 21
1728.937998573813
 31
0.0
  0
LINE
  5
1640A
330
1F
100
AcDbEntity
  8
D-STR
  6
Continuous
100
AcDbLine
 10
5174.9999
 20
1878.938108573813
 30
0.0
 11
5174.9999
 21
1728.937998573813
 31
0.0
  0
LINE
  5
1640B
330
1F
100
AcDbEntity
  8
D-STR
  6
Continuous
100
AcDbLine
 10
5149.9999
 20
1728.937998573813
 30
0.0
 11
5174.9999
 21
1728.937998573813
 31
0.0
  0
LINE
  5
1640C
330
1F
100
AcDbEntity
  8
D-STR
  6
Continuous
100
AcDbLine
 10
5149.9999
 20
1878.938108573813
 30
0.0
 11
5174.9999
 21
1878.938108573813
 31
0.0
  0
LINE
  5
1640D
330
1F
100
AcDbEntity
  8
D-STR
  6
Continuous
100
AcDbLine
 10
3459.99995
 20
1578.938008573814
 30
0.0
 11
3484.99995
 21
1578.938008573814
 31
0.0
  0
LINE
  5
1640E
330
1F
100
AcDbEntity
  8
D-STR
  6
Continuous
100
AcDbLine
 10
3260.0
 20
4423.258347178745
 30
0.0
 11
2939.999939999999
 21
4423.258347178745
 31
0.0
  0
LINE
  5
1640F
330
1F
100
AcDbEntity
  8
D-STR
  6
Continuous
100
AcDbLine
 10
2974.9999
 20
4345.632847178745
 30
0.0
 11
2974.9999
 21
4322.147147178746
 31
0.0
  0
LINE
  5
16410
330
1F
100
AcDbEntity
  8
D-STR
  6
Continuous
100
AcDbLine
 10
2989.999899999999
 20
4283.258347178746
 30
0.0
 11
2939.999939999999
 21
4283.258347178746
 31
0.0
  0
LINE
  5
16411
330
1F
100
AcDbEntity
  8
D-STR
  6
Continuous
100
AcDbLine
 10
2974.9999
 20
4322.147147178746
 30
0.0
 11
2989.999899999999
 21
4318.258147178746
 31
0.0
  0
LINE
  5
16412
330
1F
100
AcDbEntity
  8
D-STR
  6
Continuous
100
AcDbLine
 10
2974.9999
 20
4345.632847178745
 30
0.0
 11
2989.999899999999
 21
4349.369447178745
 31
0.0
  0
LINE
  5
16413
330
1F
100
AcDbEntity
  8
D-STR
  6
Continuous
100
AcDbLine
 10
3020.00005
 20
1878.938108573813
 30
0.0
 11
3260.00005
 21
1878.938108573813
 31
0.0
  0
LINE
  5
16414
330
1F
100
AcDbEntity
  8
D-STR
  6
Continuous
100
AcDbLine
 10
3640.0001
 20
4423.258347178745
 30
0.0
 11
3460.0
 21
4283.258347178746
 31
0.0
  0
LINE
  5
16415
330
1F
100
AcDbEntity
  8
D-STR
  6
Continuous
100
AcDbLine
 10
3225.0
 20
4345.632847178745
 30
0.0
 11
3225.0
 21
4322.147147178746
 31
0.0
  0
LINE
  5
16416
330
1F
100
AcDbEntity
  8
D-STR
  6
Continuous
100
AcDbLine
 10
3260.0
 20
4283.258347178746
 30
0.0
 11
3210.0
 21
4283.258347178746
 31
0.0
  0
LINE
  5
16417
330
1F
100
AcDbEntity
  8
D-STR
  6
Continuous
100
AcDbLine
 10
3225.0
 20
4322.147147178746
 30
0.0
 11
3210.0
 21
4318.258147178746
 31
0.0
  0
LINE
  5
16418
330
1F
100
AcDbEntity
  8
D-STR
  6
Continuous
100
AcDbLine
 10
3210.0
 20
4349.369447178745
 30
0.0
 11
3225.0
 21
4345.632847178745
 31
0.0
  0
LINE
  5
16419
330
1F
100
AcDbEntity
  8
D-STR
  6
Continuous
100
AcDbLine
 10
3640.0001
 20
4423.258347178745
 30
0.0
 11
3690.0001
 21
4423.258347178745
 31
0.0
  0
LINE
  5
1641A
330
1F
100
AcDbEntity
  8
D-STR
  6
Continuous
100
AcDbLine
 10
3459.99995
 20
1878.938108573813
 30
0.0
 11
3484.99995
 21
1878.938108573813
 31
0.0
  0
DIMENSION
  5
16420
330
1F
100
AcDbEntity
  8
D-STR-DIM
100
AcDbDimension
  2
*D16
 10
3260.00005
 20
1953.938108573813
 30
0.0
 11
3140.00005
 21
1978.938108573813
 31
0.0
 70
    32
 71
     5
 42
240.0
  3
S10
100
AcDbAlignedDimension
 13
3020.00005
 23
1878.938108573813
 33
0.0
 14
3260.00005
 24
1878.938108573813
 34
0.0
100
AcDbRotatedDimension
  0
DIMENSION
  5
16421
330
1F
100
AcDbEntity
  8
D-STR-DIM
100
AcDbDimension
  2
*D17
 10
2932.499979999998
 20
1578.938008573814
 30
0.0
 11
2907.499979999998
 21
1728.938058573814
 31
0.0
 70
    32
 71
     5
 42
300.0000999999993
  3
S10
100
AcDbAlignedDimension
 13
3020.00005
 23
1878.938108573813
 33
0.0
 14
3020.00005
 24
1578.938008573814
 34
0.0
 50
90.0
100
AcDbRotatedDimension
  0
DIMENSION
  5
1645E
330
1F
100
AcDbEntity
  8
D-STR-DIM
100
AcDbDimension
  2
*D18
 10
3484.99995
 20
1953.938108573813
 30
0.0
 11
3470.891108183795
 21
1953.657479194783
 31
0.0
 70
   160
 71
     5
 42
25.0
  3
S10
100
AcDbAlignedDimension
 13
3459.99995
 23
1878.938108573813
 33
0.0
 14
3484.99995
 24
1878.938108573813
 34
0.0
100
AcDbRotatedDimension
1001
ACAD
1000
DSTYLE
1002
{
1070
   279
1070
     1
1002
}
  0
MTEXT
  5
16484
330
1F
100
AcDbEntity
  8
D-STR-TXT
370
    -3
100
AcDbMText
 10
5146.953020686439
 20
2629.795479988256
 30
0.0
 40
50.0
 41
0.0
 71
     5
 72
     1
  1
S=1/10
 73
     1
 44
1.0
  0
MTEXT
  5
16485
330
1F
100
AcDbEntity
  8
D-STR-TXT
370
    -3
100
AcDbMText
 10
5049.99982
 20
2702.87682353027
 30
0.0
 40
50.0
 41
0.0
 71
     5
 72
     1
  1
{\L制水板750型用1/2}
 73
     1
 44
1.0
  0
DIMENSION
  5
16487
330
1F
100
AcDbEntity
  8
D-STR-DIM
100
AcDbDimension
  2
*D19
 10
4950.0
 20
1953.938108573813
 30
0.0
 11
4830.0
 21
1978.938108573813
 31
0.0
 70
    32
 71
     5
 42
240.0
  3
S10
100
AcDbAlignedDimension
 13
4710.0
 23
1878.938108573813
 33
0.0
 14
4950.0
 24
1878.938108573813
 34
0.0
100
AcDbRotatedDimension
  0
DIMENSION
  5
16488
330
1F
100
AcDbEntity
  8
D-STR-DIM
100
AcDbDimension
  2
*D20
 10
4622.499929999998
 20
1728.937998573813
 30
0.0
 11
4597.499929999997
 21
1803.938053573814
 31
0.0
 70
    32
 71
     5
 42
150.0001099999999
  3
S10
100
AcDbAlignedDimension
 13
4710.0
 23
1878.938108573813
 33
0.0
 14
4710.0
 24
1728.937998573813
 34
0.0
 50
90.0
100
AcDbRotatedDimension
  0
DIMENSION
  5
164BC
330
1F
100
AcDbEntity
  8
D-STR-DIM
100
AcDbDimension
  2
*D21
 10
5174.9999
 20
1953.938108573813
 30
0.0
 11
5160.891058183795
 21
1953.657479194783
 31
0.0
 70
   160
 71
     5
 42
25.0
  3
S10
100
AcDbAlignedDimension
 13
5149.9999
 23
1878.938108573813
 33
0.0
 14
5174.9999
 24
1878.938108573813
 34
0.0
100
AcDbRotatedDimension
1001
ACAD
1000
DSTYLE
1002
{
1070
   279
1070
     1
1002
}
  0
DIMENSION
  5
164D6
330
1F
100
AcDbEntity
  8
D-STR-DIM
100
AcDbDimension
  2
*D25
 10
3210.0
 20
3598.258327178746
 30
0.0
 11
3099.99995
 21
3623.258327178746
 31
0.0
 70
    32
 71
     5
 42
220.0001000000002
  3
S10
100
AcDbAlignedDimension
 13
2989.999899999999
 23
3673.258327178746
 33
0.0
 14
3210.0
 24
3673.258327178746
 34
0.0
100
AcDbRotatedDimension
  0
DIMENSION
  5
164D7
330
1F
100
AcDbEntity
  8
D-STR-DIM
100
AcDbDimension
  2
*D24
 10
3259.999979999999
 20
3523.258327178746
 30
0.0
 11
3099.999959999999
 21
3548.258327178746
 31
0.0
 70
    32
 71
     5
 42
320.0000399999999
  3
S10
100
AcDbAlignedDimension
 13
2939.999939999999
 23
3673.258327178746
 33
0.0
 14
3259.999979999999
 24
3673.258327178746
 34
0.0
100
AcDbRotatedDimension
  0
DIMENSION
  5
164D8
330
1F
100
AcDbEntity
  8
D-STR-DIM
100
AcDbDimension
  2
*D26
 10
2989.999899999999
 20
3598.258327178746
 30
0.0
 11
2898.245964589896
 21
3598.536890904699
 31
0.0
 70
   160
 71
     5
 42
49.9999600000001
  3
S10
100
AcDbAlignedDimension
 13
2939.999939999999
 23
3673.258327178746
 33
0.0
 14
2989.999899999999
 24
3673.258327178746
 34
0.0
100
AcDbRotatedDimension
1001
ACAD
1000
DSTYLE
1002
{
1070
   279
1070
     1
1002
}
  0
DIMENSION
  5
164D9
330
1F
100
AcDbEntity
  8
D-STR-DIM
100
AcDbDimension
  2
*D27
 10
3259.999979999999
 20
3598.258327178746
 30
0.0
 11
3308.636542560729
 21
3598.402435556149
 31
0.0
 70
   160
 71
     5
 42
49.99997999999959
  3
S10
100
AcDbAlignedDimension
 13
3210.0
 23
3673.258327178746
 33
0.0
 14
3259.999979999999
 24
3673.258327178746
 34
0.0
100
AcDbRotatedDimension
1001
ACAD
1000
DSTYLE
1002
{
1070
   279
1070
     1
1002
}
  0
DIMENSION
  5
164DA
330
1F
100
AcDbEntity
  8
D-STR-DIM
100
AcDbDimension
  2
*D22
 10
2852.499869999998
 20
3673.258327178746
 30
0.0
 11
2852.124510416862
 21
3702.186307457081
 31
0.0
 70
   160
 71
     5
 42
49.99997999999959
  3
S10
100
AcDbAlignedDimension
 13
2939.999939999999
 23
3723.258307178745
 33
0.0
 14
2939.999939999999
 24
3673.258327178746
 34
0.0
 50
90.0
100
AcDbRotatedDimension
1001
ACAD
1000
DSTYLE
1002
{
1070
   279
1070
     1
1002
}
  0
DIMENSION
  5
164DB
330
1F
100
AcDbEntity
  8
D-STR-DIM
100
AcDbDimension
  2
*D23
 10
2777.499869999997
 20
4283.258347178746
 30
0.0
 11
2752.499869999997
 21
3978.258337178747
 31
0.0
 70
    32
 71
     5
 42
610.0000199999999
  3
S10
100
AcDbAlignedDimension
 13
2939.999939999999
 23
3673.258327178746
 33
0.0
 14
2939.999939999999
 24
4283.258347178746
 34
0.0
 50
90.0
100
AcDbRotatedDimension
  0
DIMENSION
  5
1661B
330
1F
100
AcDbEntity
  8
D-STR-DIM
100
AcDbDimension
  2
*D28
 10
3777.500170000001
 20
3673.258327178746
 30
0.0
 11
3752.500170000001
 21
3753.258347178746
 31
0.0
 70
    32
 71
     5
 42
160.0000399999998
  3
S10
100
AcDbAlignedDimension
 13
3690.0001
 23
3833.258367178746
 33
0.0
 14
3690.000099999999
 24
3673.258327178746
 34
0.0
 50
90.0
100
AcDbRotatedDimension
  0
DIMENSION
  5
16631
330
1F
100
AcDbEntity
  8
D-STR-DIM
100
AcDbDimension
  2
*D29
 10
3865.000240000002
 20
3673.258327178746
 30
0.0
 11
3840.000240000001
 21
4048.258337178746
 31
0.0
 70
    32
 71
     5
 42
750.0000199999995
  3
S10
100
AcDbAlignedDimension
 13
3690.0001
 23
4423.258347178745
 33
0.0
 14
3690.0001
 24
3673.258327178746
 34
0.0
 50
90.0
100
AcDbRotatedDimension
  0
DIMENSION
  5
16664
330
1F
100
AcDbEntity
  8
D-STR-DIM
100
AcDbDimension
  2
*D31
 10
3690.0001
 20
4498.258347178746
 30
0.0
 11
3666.412444720161
 21
4499.049464703374
 31
0.0
 70
   160
 71
     5
 42
50.0
  3
S10
100
AcDbAlignedDimension
 13
3640.0001
 23
4423.258347178745
 33
0.0
 14
3690.0001
 24
4423.258347178745
 34
0.0
100
AcDbRotatedDimension
1001
ACAD
1000
DSTYLE
1002
{
1070
   279
1070
     1
1002
}
  0
DIMENSION
  5
16665
330
1F
100
AcDbEntity
  8
D-STR-DIM
100
AcDbDimension
  2
*D30
 10
3640.0001
 20
4498.258347178746
 30
0.0
 11
3550.000049999999
 21
4523.258347178745
 31
0.0
 70
    32
 71
     5
 42
180.0001000000001
  3
S10
100
AcDbAlignedDimension
 13
3460.0
 23
4283.258347178746
 33
0.0
 14
3640.0001
 24
4423.258347178745
 34
0.0
100
AcDbRotatedDimension
  0
DIMENSION
  5
16666
330
1F
100
AcDbEntity
  8
D-STR-DIM
100
AcDbDimension
  2
*D32
 10
3690.0001
 20
4573.258347178746
 30
0.0
 11
3575.000049999999
 21
4598.258347178745
 31
0.0
 70
    32
 71
     5
 42
230.0001000000002
  3
S10
100
AcDbAlignedDimension
 13
3460.0
 23
4283.258347178746
 33
0.0
 14
3690.0001
 24
4423.258347178745
 34
0.0
100
AcDbRotatedDimension
  0
DIMENSION
  5
166F4
330
1F
100
AcDbEntity
  8
D-STR-DIM
100
AcDbDimension
  2
*D33
 10
3259.999979999999
 20
4498.258347178746
 30
0.0
 11
3099.999959999999
 21
4523.258347178745
 31
0.0
 70
    32
 71
     5
 42
320.0000399999999
  3
S10
100
AcDbAlignedDimension
 13
2939.999939999999
 23
4423.258347178745
 33
0.0
 14
3259.999979999999
 24
4423.258347178745
 34
0.0
100
AcDbRotatedDimension
  0
LINE
  5
1671E
330
1F
100
AcDbEntity
  8
D-STR
  6
Continuous
100
AcDbLine
 10
1575.0001
 20
1878.938108573813
 30
0.0
 11
1575.0001
 21
1518.938088573812
 31
0.0
  0
ENDSEC
  0
SECTION
  2
OBJECTS
  0
DICTIONARY
  5
C
330
0
100
AcDbDictionary
281
     1
  3
ACAD_GROUP
350
D
  3
ACAD_LAYOUT
350
1A
  3
ACAD_MLINESTYLE
350
17
  3
ACAD_PLOTSETTINGS
350
19
  3
ACAD_PLOTSTYLENAME
350
E
  3
AcadDim
350
23B1
  3
AcDbVariableDictionary
350
B0
  3
AEC_PROPERTY_SET_DEFS
350
67
  3
ASE_INDEX_DICTIONARY
350
16716
  0
DICTIONARY
  5
D
102
{ACAD_REACTORS
330
C
102
}
330
C
100
AcDbDictionary
281
     1
  0
DICTIONARY
  5
1A
102
{ACAD_REACTORS
330
C
102
}
330
C
100
AcDbDictionary
281
     1
  3
Model
350
22
  3
ﾚｲｱｳﾄ1
350
1E
  3
ﾚｲｱｳﾄ2
350
26
  0
DICTIONARY
  5
17
102
{ACAD_REACTORS
330
C
102
}
330
C
100
AcDbDictionary
281
     1
  3
Standard
350
18
  0
DICTIONARY
  5
19
102
{ACAD_REACTORS
330
C
102
}
330
C
100
AcDbDictionary
281
     1
  0
ACDBDICTIONARYWDFLT
  5
E
102
{ACAD_REACTORS
330
C
102
}
330
C
100
AcDbDictionary
281
     1
  3
Normal
350
F
100
AcDbDictionaryWithDefault
340
F
  0
XRECORD
  5
23B1
102
{ACAD_REACTORS
330
C
102
}
330
C
100
AcDbXrecord
280
     1
 90
   990106
  3
OPEN30
 60
     0
 61
     0
 62
     4
 63
     4
 64
     1
 65
     0
 66
     0
 67
     3
 68
     1
 69
     0
 70
     0
 71
     0
 72
     0
 40
0.0
170
     2
340
0
  0
DICTIONARY
  5
B0
102
{ACAD_REACTORS
330
C
102
}
330
C
100
AcDbDictionary
281
     1
  3
DIMASSOC
350
B2
  3
HIDETEXT
350
B1
  0
DICTIONARY
  5
67
102
{ACAD_REACTORS
330
C
102
}
330
C
100
AcDbDictionary
281
     1
  0
DICTIONARY
  5
16716
102
{ACAD_REACTORS
330
C
102
}
330
C
100
AcDbDictionary
281
     1
  3
ASEBlockHierarchyIndexRecord
350
16718
1001
DCO15
1040
1594533427.616
  0
LAYOUT
  5
22
102
{ACAD_REACTORS
330
1A
102
}
330
1A
100
AcDbPlotSettings
  1

  2
DocuPrint C2220
  4
A3
  6

 40
4.900083065032958
 41
4.857729434967041
 42
4.900054931640625
 43
4.90008544921875
 44
297.0106506347656
 45
419.9889831542968
 46
-4.889999999999999
 47
-4.879999999999999
 48
-6050.531871514934
 49
2736.096085329516
140
2349.468128485065
141
8676.096085329517
142
1.0
143
20.0
 70
 11940
 72
     1
 73
     1
 74
     4
  7
monochrome.ctb
 75
     0
147
0.05
148
6050.531871514934
149
-2736.096085329516
100
AcDbLayout
  1
Model
 70
     1
 71
     0
 10
0.0
 20
0.0
 11
12.0
 21
9.0
 12
0.0
 22
0.0
 32
0.0
 14
0.0
 24
0.0
 34
0.0
 15
0.0
 25
0.0
 35
0.0
146
0.0
 13
0.0
 23
0.0
 33
0.0
 16
1.0
 26
0.0
 36
0.0
 17
0.0
 27
1.0
 37
0.0
 76
     0
330
1F
  0
LAYOUT
  5
1E
102
{ACAD_REACTORS
330
1A
102
}
330
1A
100
AcDbPlotSettings
  1

  2
NEC PC-PR2000/4R No.2
  4

  6

 40
0.0
 41
0.0
 42
0.0
 43
0.0
 44
0.0
 45
0.0
 46
0.0
 47
0.0
 48
0.0
 49
0.0
140
0.0
141
0.0
142
1.0
143
1.0
 70
   688
 72
     0
 73
     0
 74
     5
  7
monochrome.ctb
 75
    16
147
1.0
148
0.0
149
0.0
100
AcDbLayout
  1
ﾚｲｱｳﾄ1
 70
     1
 71
     1
 10
0.0
 20
0.0
 11
420.0
 21
297.0
 12
0.0
 22
0.0
 32
0.0
 14
1.000000000000000E+20
 24
1.000000000000000E+20
 34
1.000000000000000E+20
 15
-1.000000000000000E+20
 25
-1.000000000000000E+20
 35
-1.000000000000000E+20
146
0.0
 13
0.0
 23
0.0
 33
0.0
 16
1.0
 26
0.0
 36
0.0
 17
0.0
 27
1.0
 37
0.0
 76
     0
330
1B
  0
LAYOUT
  5
26
102
{ACAD_REACTORS
330
1A
102
}
330
1A
100
AcDbPlotSettings
  1

  2
NEC PC-PR2000/4R No.2
  4

  6

 40
0.0
 41
0.0
 42
0.0
 43
0.0
 44
0.0
 45
0.0
 46
0.0
 47
0.0
 48
0.0
 49
0.0
140
0.0
141
0.0
142
1.0
143
1.0
 70
   688
 72
     0
 73
     0
 74
     5
  7
monochrome.ctb
 75
    16
147
1.0
148
0.0
149
0.0
100
AcDbLayout
  1
ﾚｲｱｳﾄ2
 70
     1
 71
     2
 10
0.0
 20
0.0
 11
12.0
 21
9.0
 12
0.0
 22
0.0
 32
0.0
 14
0.0
 24
0.0
 34
0.0
 15
0.0
 25
0.0
 35
0.0
146
0.0
 13
0.0
 23
0.0
 33
0.0
 16
1.0
 26
0.0
 36
0.0
 17
0.0
 27
1.0
 37
0.0
 76
     0
330
23
  0
MLINESTYLE
  5
18
102
{ACAD_REACTORS
330
17
102
}
330
17
100
AcDbMlineStyle
  2
STANDARD
 70
     0
  3

 62
   256
 51
90.0
 52
90.0
 71
     2
 49
0.5
 62
   256
  6
BYLAYER
 49
-0.5
 62
   256
  6
BYLAYER
  0
ACDBPLACEHOLDER
  5
F
102
{ACAD_REACTORS
330
E
102
}
330
E
  0
DICTIONARYVAR
  5
B2
102
{ACAD_REACTORS
330
B0
102
}
330
B0
100
DictionaryVariables
280
     0
  1
2
  0
DICTIONARYVAR
  5
B1
102
{ACAD_REACTORS
330
B0
102
}
330
B0
100
DictionaryVariables
280
     0
  1
1
  0
XRECORD
  5
16718
102
{ACAD_REACTORS
330
16716
102
}
330
16716
100
AcDbXrecord
280
     1
330
16305
330
16306
330
1630E
330
1630F
330
1632B
330
1632C
330
16322
330
16323
330
16334
330
16335
330
16319
330
1631A
330
16346
330
16347
330
1633D
330
1633E
330
162FC
330
162FD
330
1634F
330
16350
330
162F3
330
162F4
330
0
330
0
330
163A4
330
163A5
330
163AC
330
163AD
330
1644F
330
16450
330
16458
330
16459
330
1647E
330
1647F
330
164A4
330
164A5
330
164B6
330
164B7
330
164D1
330
164D2
330
16616
330
16617
330
165E9
330
165EA
330
1653B
330
1653C
330
165D5
330
165D6
330
165CD
330
165CE
330
165E1
330
165E2
330
16655
330
16656
330
1665E
330
1665F
330
166BD
330
166BE
330
166EF
330
166F0
330
166D8
330
166D9
330
16704
330
16705
  0
ENDSEC
  0
EOF
