  0
SECTION
  2
HEADER
  9
$ACADVER
  1
AC1015
  9
$ACADMAINTVER
 70
    14
  9
$DWGCODEPAGE
  3
ANSI_932
  9
$INSBASE
 10
0.0
 20
0.0
 30
0.0
  9
$EXTMIN
 10
-722.5364966062072
 20
-363.3218350911397
 30
0.0
  9
$EXTMAX
 10
7677.46350339379
 20
5576.678164908861
 30
0.0
  9
$LIMMIN
 10
0.0
 20
0.0
  9
$LIMMAX
 10
420.0
 20
297.0
  9
$ORTHOMODE
 70
     1
  9
$REGENMODE
 70
     1
  9
$FILLMODE
 70
     1
  9
$QTEXTMODE
 70
     0
  9
$MIRRTEXT
 70
     1
  9
$LTSCALE
 40
50.0
  9
$ATTMODE
 70
     1
  9
$TEXTSIZE
 40
2.5
  9
$TRACEWID
 40
1.0
  9
$TEXTSTYLE
  7
Standard
  9
$CLAYER
  8
D-STR
  9
$CELTYPE
  6
ByLayer
  9
$CECOLOR
 62
   256
  9
$CELTSCALE
 40
1.0
  9
$DISPSILH
 70
     0
  9
$DIMSCALE
 40
10.0
  9
$DIMASZ
 40
2.0
  9
$DIMEXO
 40
1.0
  9
$DIMDLI
 40
10.0
  9
$DIMRND
 40
0.0
  9
$DIMDLE
 40
0.0
  9
$DIMEXE
 40
2.0
  9
$DIMTP
 40
0.0
  9
$DIMTM
 40
0.0
  9
$DIMTXT
 40
3.0
  9
$DIMCEN
 40
3.0
  9
$DIMTSZ
 40
0.0
  9
$DIMTOL
 70
     0
  9
$DIMLIM
 70
     0
  9
$DIMTIH
 70
     0
  9
$DIMTOH
 70
     0
  9
$DIMSE1
 70
     0
  9
$DIMSE2
 70
     0
  9
$DIMTAD
 70
     1
  9
$DIMZIN
 70
     8
  9
$DIMBLK
  1
OPEN30
  9
$DIMASO
 70
     1
  9
$DIMSHO
 70
     1
  9
$DIMPOST
  1

  9
$DIMAPOST
  1

  9
$DIMALT
 70
     0
  9
$DIMALTD
 70
     2
  9
$DIMALTF
 40
25.4
  9
$DIMLFAC
 40
1.0
  9
$DIMTOFL
 70
     1
  9
$DIMTVP
 40
0.0
  9
$DIMTIX
 70
     0
  9
$DIMSOXD
 70
     0
  9
$DIMSAH
 70
     0
  9
$DIMBLK1
  1

  9
$DIMBLK2
  1

  9
$DIMSTYLE
  2
S10
  9
$DIMCLRD
 70
   256
  9
$DIMCLRE
 70
   256
  9
$DIMCLRT
 70
   256
  9
$DIMTFAC
 40
1.0
  9
$DIMGAP
 40
1.0
  9
$DIMJUST
 70
     0
  9
$DIMSD1
 70
     0
  9
$DIMSD2
 70
     0
  9
$DIMTOLJ
 70
     1
  9
$DIMTZIN
 70
     0
  9
$DIMALTZ
 70
     0
  9
$DIMALTTZ
 70
     0
  9
$DIMUPT
 70
     0
  9
$DIMDEC
 70
     0
  9
$DIMTDEC
 70
     0
  9
$DIMALTU
 70
     2
  9
$DIMALTTD
 70
     2
  9
$DIMTXSTY
  7
Standard
  9
$DIMAUNIT
 70
     0
  9
$DIMADEC
 70
     0
  9
$DIMALTRND
 40
0.0
  9
$DIMAZIN
 70
     0
  9
$DIMDSEP
 70
    46
  9
$DIMATFIT
 70
     3
  9
$DIMFRAC
 70
     0
  9
$DIMLDRBLK
  1
OPEN30
  9
$DIMLUNIT
 70
     2
  9
$DIMLWD
 70
    -2
  9
$DIMLWE
 70
    -2
  9
$DIMTMOVE
 70
     2
  9
$LUNITS
 70
     2
  9
$LUPREC
 70
     4
  9
$SKETCHINC
 40
1.0
  9
$FILLETRAD
 40
10.0
  9
$AUNITS
 70
     0
  9
$AUPREC
 70
     0
  9
$MENU
  1
.
  9
$ELEVATION
 40
0.0
  9
$PELEVATION
 40
0.0
  9
$THICKNESS
 40
0.0
  9
$LIMCHECK
 70
     0
  9
$CHAMFERA
 40
0.0
  9
$CHAMFERB
 40
0.0
  9
$CHAMFERC
 40
20.0
  9
$CHAMFERD
 40
0.0
  9
$SKPOLY
 70
     0
  9
$TDCREATE
 40
2454027.648910231
  9
$TDUCREATE
 40
2454027.273910231
  9
$TDUPDATE
 40
2454642.380098947
  9
$TDUUPDATE
 40
2454642.005098947
  9
$TDINDWG
 40
0.0593958681
  9
$TDUSRTIMER
 40
0.0593955208
  9
$USRTIMER
 70
     1
  9
$ANGBASE
 50
0.0
  9
$ANGDIR
 70
     0
  9
$PDMODE
 70
     0
  9
$PDSIZE
 40
0.0
  9
$PLINEWID
 40
0.0
  9
$SPLFRAME
 70
     0
  9
$SPLINETYPE
 70
     6
  9
$SPLINESEGS
 70
     8
  9
$HANDSEED
  5
2C7F
  9
$SURFTAB1
 70
     6
  9
$SURFTAB2
 70
     6
  9
$SURFTYPE
 70
     6
  9
$SURFU
 70
     6
  9
$SURFV
 70
     6
  9
$UCSBASE
  2

  9
$UCSNAME
  2

  9
$UCSORG
 10
0.0
 20
0.0
 30
0.0
  9
$UCSXDIR
 10
1.0
 20
0.0
 30
0.0
  9
$UCSYDIR
 10
0.0
 20
1.0
 30
0.0
  9
$UCSORTHOREF
  2

  9
$UCSORTHOVIEW
 70
     0
  9
$UCSORGTOP
 10
0.0
 20
0.0
 30
0.0
  9
$UCSORGBOTTOM
 10
0.0
 20
0.0
 30
0.0
  9
$UCSORGLEFT
 10
0.0
 20
0.0
 30
0.0
  9
$UCSORGRIGHT
 10
0.0
 20
0.0
 30
0.0
  9
$UCSORGFRONT
 10
0.0
 20
0.0
 30
0.0
  9
$UCSORGBACK
 10
0.0
 20
0.0
 30
0.0
  9
$PUCSBASE
  2

  9
$PUCSNAME
  2

  9
$PUCSORG
 10
0.0
 20
0.0
 30
0.0
  9
$PUCSXDIR
 10
1.0
 20
0.0
 30
0.0
  9
$PUCSYDIR
 10
0.0
 20
1.0
 30
0.0
  9
$PUCSORTHOREF
  2

  9
$PUCSORTHOVIEW
 70
     0
  9
$PUCSORGTOP
 10
0.0
 20
0.0
 30
0.0
  9
$PUCSORGBOTTOM
 10
0.0
 20
0.0
 30
0.0
  9
$PUCSORGLEFT
 10
0.0
 20
0.0
 30
0.0
  9
$PUCSORGRIGHT
 10
0.0
 20
0.0
 30
0.0
  9
$PUCSORGFRONT
 10
0.0
 20
0.0
 30
0.0
  9
$PUCSORGBACK
 10
0.0
 20
0.0
 30
0.0
  9
$USERI1
 70
     0
  9
$USERI2
 70
     0
  9
$USERI3
 70
     0
  9
$USERI4
 70
     0
  9
$USERI5
 70
     0
  9
$USERR1
 40
0.0
  9
$USERR2
 40
0.0
  9
$USERR3
 40
0.0
  9
$USERR4
 40
0.0
  9
$USERR5
 40
0.0
  9
$WORLDVIEW
 70
     1
  9
$SHADEDGE
 70
     3
  9
$SHADEDIF
 70
    70
  9
$TILEMODE
 70
     1
  9
$MAXACTVP
 70
    64
  9
$PINSBASE
 10
0.0
 20
0.0
 30
0.0
  9
$PLIMCHECK
 70
     0
  9
$PEXTMIN
 10
1.000000000000000E+20
 20
1.000000000000000E+20
 30
1.000000000000000E+20
  9
$PEXTMAX
 10
-1.000000000000000E+20
 20
-1.000000000000000E+20
 30
-1.000000000000000E+20
  9
$PLIMMIN
 10
0.0
 20
0.0
  9
$PLIMMAX
 10
420.0
 20
297.0
  9
$UNITMODE
 70
     0
  9
$VISRETAIN
 70
     1
  9
$PLINEGEN
 70
     0
  9
$PSLTSCALE
 70
     1
  9
$TREEDEPTH
 70
  3020
  9
$CMLSTYLE
  2
Standard
  9
$CMLJUST
 70
     0
  9
$CMLSCALE
 40
20.0
  9
$PROXYGRAPHICS
 70
     1
  9
$MEASUREMENT
 70
     1
  9
$CELWEIGHT
370
    -1
  9
$ENDCAPS
280
     0
  9
$JOINSTYLE
280
     0
  9
$LWDISPLAY
290
     0
  9
$INSUNITS
 70
     4
  9
$HYPERLINKBASE
  1

  9
$STYLESHEET
  1
MONOCHROME.CTB
  9
$XEDIT
290
     1
  9
$CEPSNTYPE
380
     0
  9
$PSTYLEMODE
290
     1
  9
$FINGERPRINTGUID
  2
{FA1E80AF-ED1D-402D-81F0-6626158D8A36}
  9
$VERSIONGUID
  2
{6D34E133-19B3-454F-AB78-ECD24CFA8205}
  9
$EXTNAMES
290
     1
  9
$PSVPSCALE
 40
0.0
  9
$OLESTARTUP
290
     0
  0
ENDSEC
  0
SECTION
  2
CLASSES
  0
CLASS
  1
ACDBDICTIONARYWDFLT
  2
AcDbDictionaryWithDefault
  3
AutoCAD 2000
 90
        0
280
     0
281
     0
  0
CLASS
  1
ACDBPLACEHOLDER
  2
AcDbPlaceHolder
  3
AutoCAD 2000
 90
        0
280
     0
281
     0
  0
CLASS
  1
LAYOUT
  2
AcDbLayout
  3
AutoCAD 2000
 90
        0
280
     0
281
     0
  0
CLASS
  1
DIMASSOC
  2
AcDbDimAssoc
  3
"AcDbDimAssoc|Product Desc:     AcDim ARX App For Dimension|Company:          Autodesk, Inc.|WEB Address:      www.autodesk.com"
 90
        0
280
     0
281
     0
  0
CLASS
  1
DICTIONARYVAR
  2
AcDbDictionaryVar
  3
AutoCAD 2000
 90
        0
280
     0
281
     0
  0
ENDSEC
  0
SECTION
  2
TABLES
  0
TABLE
  2
VPORT
  5
8
330
0
100
AcDbSymbolTable
 70
     2
  0
VPORT
  5
2C7E
330
8
100
AcDbSymbolTableRecord
100
AcDbViewportTableRecord
  2
*Active
 70
     0
 10
0.0
 20
0.0
 11
1.0
 21
1.0
 12
3809.736655156856
 22
2606.678178739
 13
0.0
 23
0.0
 14
10.0
 24
10.0
 15
10.0
 25
10.0
 16
0.0
 26
0.0
 36
1.0
 17
0.0
 27
0.0
 37
0.0
 40
5989.120654564487
 41
1.64931506849315
 42
50.0
 43
0.0
 44
0.0
 50
0.0
 51
0.0
 71
     0
 72
   100
 73
     1
 74
     3
 75
     0
 76
     0
 77
     0
 78
     0
281
     0
 65
     1
110
0.0
120
0.0
130
0.0
111
1.0
121
0.0
131
0.0
112
0.0
122
1.0
132
0.0
 79
     0
146
0.0
  0
ENDTAB
  0
TABLE
  2
LTYPE
  5
5
330
0
100
AcDbSymbolTable
 70
     3
  0
LTYPE
  5
14
330
5
100
AcDbSymbolTableRecord
100
AcDbLinetypeTableRecord
  2
ByBlock
 70
     0
  3

 72
    65
 73
     0
 40
0.0
  0
LTYPE
  5
15
330
5
100
AcDbSymbolTableRecord
100
AcDbLinetypeTableRecord
  2
ByLayer
 70
     0
  3

 72
    65
 73
     0
 40
0.0
  0
LTYPE
  5
16
330
5
100
AcDbSymbolTableRecord
100
AcDbLinetypeTableRecord
  2
Continuous
 70
     0
  3
Solid line
 72
    65
 73
     0
 40
0.0
  0
LTYPE
  5
161
330
5
100
AcDbSymbolTableRecord
100
AcDbLinetypeTableRecord
  2
CENTER
 70
     0
  3
____ _ ____ _ ____ _ ____ _ ____ _ ____ _ ____
 72
    65
 73
     4
 40
2.0
 49
1.25
 74
     0
 49
-0.25
 74
     0
 49
0.25
 74
     0
 49
-0.25
 74
     0
  0
LTYPE
  5
162
330
5
100
AcDbSymbolTableRecord
100
AcDbLinetypeTableRecord
  2
HIDDEN
 70
     0
  3
_ _ _ _ _ _ _ _ _ _ _ _ _ _ _ _ _ _ _ _ _ _ _
 72
    65
 73
     2
 40
0.375
 49
0.25
 74
     0
 49
-0.125
 74
     0
  0
ENDTAB
  0
TABLE
  2
LAYER
  5
2
330
0
100
AcDbSymbolTable
 70
     6
  0
LAYER
  5
10
330
2
100
AcDbSymbolTableRecord
100
AcDbLayerTableRecord
  2
0
 70
     0
 62
     7
  6
Continuous
370
    -3
390
F
  0
LAYER
  5
163
330
2
100
AcDbSymbolTableRecord
100
AcDbLayerTableRecord
  2
DEFPOINTS
 70
     0
 62
     7
  6
Continuous
290
     0
370
    -3
390
F
  0
LAYER
  5
48B
330
2
100
AcDbSymbolTableRecord
100
AcDbLayerTableRecord
  2
D-STR
 70
     0
 62
     1
  6
Continuous
370
    -3
390
F
  0
LAYER
  5
48C
330
2
100
AcDbSymbolTableRecord
100
AcDbLayerTableRecord
  2
D-TTL
 70
     0
 62
     2
  6
Continuous
370
    -3
390
F
  0
LAYER
  5
499
330
2
100
AcDbSymbolTableRecord
100
AcDbLayerTableRecord
  2
D-STR-TXT
 70
     0
 62
     7
  6
Continuous
370
    15
390
F
  0
LAYER
  5
6EB
330
2
100
AcDbSymbolTableRecord
100
AcDbLayerTableRecord
  2
D-STR-DIM
 70
     0
 62
     7
  6
Continuous
370
    -3
390
F
  0
ENDTAB
  0
TABLE
  2
STYLE
  5
3
330
0
100
AcDbSymbolTable
 70
     1
  0
STYLE
  5
11
330
3
100
AcDbSymbolTableRecord
100
AcDbTextStyleTableRecord
  2
Standard
 70
     0
 40
0.0
 41
0.8
 50
0.0
 71
     0
 42
2.5
  3
MS Gothic.ttf
  4

1001
ACAD
1000
MS Gothic
1071
    32817
  0
ENDTAB
  0
TABLE
  2
VIEW
  5
6
330
0
100
AcDbSymbolTable
 70
     0
  0
ENDTAB
  0
TABLE
  2
UCS
  5
7
330
0
100
AcDbSymbolTable
 70
     0
  0
ENDTAB
  0
TABLE
  2
APPID
  5
9
330
0
100
AcDbSymbolTable
 70
     2
  0
APPID
  5
12
330
9
100
AcDbSymbolTableRecord
100
AcDbRegAppTableRecord
  2
ACAD
 70
     0
  0
APPID
  5
2C77
330
9
100
AcDbSymbolTableRecord
100
AcDbRegAppTableRecord
  2
DCO15
 70
     0
  0
ENDTAB
  0
TABLE
  2
DIMSTYLE
  5
A
330
0
100
AcDbSymbolTable
 70
     3
100
AcDbDimStyleTable
 71
     2
340
16B
340
A17
  0
DIMSTYLE
105
16A
330
A
100
AcDbSymbolTableRecord
100
AcDbDimStyleTableRecord
  2
STANDARD
 70
     0
 40
20.0
 41
2.0
 42
1.0
 43
1.0
 44
1.0
 73
     0
 74
     0
 77
     1
 78
     8
140
3.0
141
0.0
147
2.0
172
     1
271
     1
272
     1
340
11
341
2B
342
2B
  0
DIMSTYLE
105
16B
102
{ACAD_REACTORS
330
1905
330
193E
330
195F
330
1977
330
19A1
330
19A4
330
19EA
330
1A1A
330
1A32
330
1C16
330
1C19
330
1C1A
330
1C87
330
1C88
330
1C8B
330
1CF8
330
1CFB
330
1CFE
330
22B1
330
229F
330
22AF
330
2299
330
22B8
330
22A1
330
22A0
330
22A4
330
227E
330
2291
330
227C
330
227D
330
2285
330
2288
330
2284
330
228A
330
27BD
330
27C3
330
2758
330
275E
102
}
330
A
100
AcDbSymbolTableRecord
100
AcDbDimStyleTableRecord
  2
S10
 70
     0
 40
10.0
 41
2.0
 42
1.0
 43
10.0
 44
2.0
 73
     0
 74
     0
 77
     1
 78
     8
140
3.0
141
3.0
147
1.0
172
     1
176
   256
177
   256
178
   256
271
     0
272
     0
279
     2
340
11
341
2B
342
2B
  0
DIMSTYLE
105
A17
102
{ACAD_REACTORS
330
1341
330
1360
330
1378
330
1377
330
1376
330
1379
330
14EF
330
14EE
330
14F1
330
14F3
330
14F2
330
14F0
102
}
330
A
100
AcDbSymbolTableRecord
100
AcDbDimStyleTableRecord
  2
S5
 70
     0
 40
10.0
 41
2.0
 42
1.0
 43
10.0
 44
2.0
 73
     0
 74
     0
 77
     1
 78
     8
140
3.0
141
3.0
144
2.0
147
1.0
172
     1
176
   256
177
   256
178
   256
271
     0
272
     0
279
     2
340
11
341
2B
342
2B
  0
ENDTAB
  0
TABLE
  2
BLOCK_RECORD
  5
1
330
0
100
AcDbSymbolTable
 70
    52
  0
BLOCK_RECORD
  5
1F
330
1
100
AcDbSymbolTableRecord
100
AcDbBlockTableRecord
  2
*Model_Space
340
22
  0
BLOCK_RECORD
  5
1B
330
1
100
AcDbSymbolTableRecord
100
AcDbBlockTableRecord
  2
*Paper_Space
340
1E
  0
BLOCK_RECORD
  5
23
330
1
100
AcDbSymbolTableRecord
100
AcDbBlockTableRecord
  2
*Paper_Space0
340
26
  0
BLOCK_RECORD
  5
2B
330
1
100
AcDbSymbolTableRecord
100
AcDbBlockTableRecord
  2
_OPEN30
340
0
102
{BLKREFS
331
2058
331
2059
331
2061
331
2062
331
206A
331
206B
331
2073
331
2074
331
207C
331
207D
331
2085
331
2086
331
208E
331
208F
331
2097
331
2098
331
20A0
331
20A1
331
20A9
331
20AA
331
20B2
331
20B3
331
20BB
331
20BC
331
20C4
331
20C5
331
20CD
331
20CE
331
20D6
331
20D7
331
20DF
331
20E0
331
20E8
331
20E9
331
20F1
331
20F2
331
2B42
331
2B43
331
2B4B
331
2B4C
331
2B57
331
2B58
331
2B5F
331
2B60
331
2B6B
331
2B6C
331
2B73
331
2B74
331
2B7C
331
2B7D
331
2B85
331
2B86
331
2B8E
331
2B8F
331
2B97
331
2B98
331
2BA3
331
2BA4
331
2BAE
331
2BAF
331
2BB6
331
2BB7
331
2BBF
331
2BC0
331
2BC8
331
2BC9
331
2BD1
331
2BD2
331
2BDA
331
2BDB
331
2BE3
331
2BE4
331
2BEC
331
2BED
331
2BF5
331
2BF6
331
2BFE
331
2BFF
331
2C07
331
2C08
331
2C10
331
2C11
331
2C19
331
2C1A
331
2C22
331
2C23
331
2C2B
331
2C2C
331
2C34
331
2C35
331
2C3D
331
2C3E
331
2C46
331
2C47
331
2C4F
331
2C50
331
2C58
331
2C59
331
2C61
331
2C62
102
}
  0
BLOCK_RECORD
  5
1342
330
1
100
AcDbSymbolTableRecord
100
AcDbBlockTableRecord
  2
*D2
340
0
  0
BLOCK_RECORD
  5
1361
330
1
100
AcDbSymbolTableRecord
100
AcDbBlockTableRecord
  2
*D3
340
0
  0
BLOCK_RECORD
  5
137A
330
1
100
AcDbSymbolTableRecord
100
AcDbBlockTableRecord
  2
*D4
340
0
  0
BLOCK_RECORD
  5
1388
330
1
100
AcDbSymbolTableRecord
100
AcDbBlockTableRecord
  2
*D5
340
0
  0
BLOCK_RECORD
  5
1396
330
1
100
AcDbSymbolTableRecord
100
AcDbBlockTableRecord
  2
*D6
340
0
  0
BLOCK_RECORD
  5
13A2
330
1
100
AcDbSymbolTableRecord
100
AcDbBlockTableRecord
  2
*D7
340
0
  0
BLOCK_RECORD
  5
14F4
330
1
100
AcDbSymbolTableRecord
100
AcDbBlockTableRecord
  2
*D8
340
0
  0
BLOCK_RECORD
  5
1500
330
1
100
AcDbSymbolTableRecord
100
AcDbBlockTableRecord
  2
*D9
340
0
  0
BLOCK_RECORD
  5
150C
330
1
100
AcDbSymbolTableRecord
100
AcDbBlockTableRecord
  2
*D10
340
0
  0
BLOCK_RECORD
  5
1518
330
1
100
AcDbSymbolTableRecord
100
AcDbBlockTableRecord
  2
*D11
340
0
  0
BLOCK_RECORD
  5
1526
330
1
100
AcDbSymbolTableRecord
100
AcDbBlockTableRecord
  2
*D12
340
0
  0
BLOCK_RECORD
  5
1534
330
1
100
AcDbSymbolTableRecord
100
AcDbBlockTableRecord
  2
*D13
340
0
  0
BLOCK_RECORD
  5
1906
330
1
100
AcDbSymbolTableRecord
100
AcDbBlockTableRecord
  2
*D14
340
0
  0
BLOCK_RECORD
  5
1941
330
1
100
AcDbSymbolTableRecord
100
AcDbBlockTableRecord
  2
*D15
340
0
  0
BLOCK_RECORD
  5
1960
330
1
100
AcDbSymbolTableRecord
100
AcDbBlockTableRecord
  2
*D16
340
0
  0
BLOCK_RECORD
  5
197A
330
1
100
AcDbSymbolTableRecord
100
AcDbBlockTableRecord
  2
*D17
340
0
  0
BLOCK_RECORD
  5
19A5
330
1
100
AcDbSymbolTableRecord
100
AcDbBlockTableRecord
  2
*D18
340
0
  0
BLOCK_RECORD
  5
19B1
330
1
100
AcDbSymbolTableRecord
100
AcDbBlockTableRecord
  2
*D19
340
0
  0
BLOCK_RECORD
  5
19EB
330
1
100
AcDbSymbolTableRecord
100
AcDbBlockTableRecord
  2
*D20
340
0
  0
BLOCK_RECORD
  5
1A1B
330
1
100
AcDbSymbolTableRecord
100
AcDbBlockTableRecord
  2
*D21
340
0
  0
BLOCK_RECORD
  5
1A35
330
1
100
AcDbSymbolTableRecord
100
AcDbBlockTableRecord
  2
*D22
340
0
  0
BLOCK_RECORD
  5
1C1B
330
1
100
AcDbSymbolTableRecord
100
AcDbBlockTableRecord
  2
*D23
340
0
  0
BLOCK_RECORD
  5
1C27
330
1
100
AcDbSymbolTableRecord
100
AcDbBlockTableRecord
  2
*D24
340
0
  0
BLOCK_RECORD
  5
1C33
330
1
100
AcDbSymbolTableRecord
100
AcDbBlockTableRecord
  2
*D25
340
0
  0
BLOCK_RECORD
  5
1C8C
330
1
100
AcDbSymbolTableRecord
100
AcDbBlockTableRecord
  2
*D26
340
0
  0
BLOCK_RECORD
  5
1C98
330
1
100
AcDbSymbolTableRecord
100
AcDbBlockTableRecord
  2
*D27
340
0
  0
BLOCK_RECORD
  5
1CAD
330
1
100
AcDbSymbolTableRecord
100
AcDbBlockTableRecord
  2
*D28
340
0
  0
BLOCK_RECORD
  5
1CFF
330
1
100
AcDbSymbolTableRecord
100
AcDbBlockTableRecord
  2
*D29
340
0
  0
BLOCK_RECORD
  5
1D0B
330
1
100
AcDbSymbolTableRecord
100
AcDbBlockTableRecord
  2
*D30
340
0
  0
BLOCK_RECORD
  5
1D17
330
1
100
AcDbSymbolTableRecord
100
AcDbBlockTableRecord
  2
*D31
340
0
  0
BLOCK_RECORD
  5
22BB
330
1
100
AcDbSymbolTableRecord
100
AcDbBlockTableRecord
  2
*D32
340
0
  0
BLOCK_RECORD
  5
22C7
330
1
100
AcDbSymbolTableRecord
100
AcDbBlockTableRecord
  2
*D33
340
0
  0
BLOCK_RECORD
  5
22D3
330
1
100
AcDbSymbolTableRecord
100
AcDbBlockTableRecord
  2
*D34
340
0
  0
BLOCK_RECORD
  5
22DF
330
1
100
AcDbSymbolTableRecord
100
AcDbBlockTableRecord
  2
*D35
340
0
  0
BLOCK_RECORD
  5
22EB
330
1
100
AcDbSymbolTableRecord
100
AcDbBlockTableRecord
  2
*D36
340
0
  0
BLOCK_RECORD
  5
22F7
330
1
100
AcDbSymbolTableRecord
100
AcDbBlockTableRecord
  2
*D37
340
0
  0
BLOCK_RECORD
  5
2303
330
1
100
AcDbSymbolTableRecord
100
AcDbBlockTableRecord
  2
*D38
340
0
  0
BLOCK_RECORD
  5
230F
330
1
100
AcDbSymbolTableRecord
100
AcDbBlockTableRecord
  2
*D39
340
0
  0
BLOCK_RECORD
  5
231B
330
1
100
AcDbSymbolTableRecord
100
AcDbBlockTableRecord
  2
*D40
340
0
  0
BLOCK_RECORD
  5
2327
330
1
100
AcDbSymbolTableRecord
100
AcDbBlockTableRecord
  2
*D41
340
0
  0
BLOCK_RECORD
  5
2333
330
1
100
AcDbSymbolTableRecord
100
AcDbBlockTableRecord
  2
*D42
340
0
  0
BLOCK_RECORD
  5
233F
330
1
100
AcDbSymbolTableRecord
100
AcDbBlockTableRecord
  2
*D43
340
0
  0
BLOCK_RECORD
  5
234B
330
1
100
AcDbSymbolTableRecord
100
AcDbBlockTableRecord
  2
*D44
340
0
  0
BLOCK_RECORD
  5
2357
330
1
100
AcDbSymbolTableRecord
100
AcDbBlockTableRecord
  2
*D45
340
0
  0
BLOCK_RECORD
  5
2363
330
1
100
AcDbSymbolTableRecord
100
AcDbBlockTableRecord
  2
*D46
340
0
  0
BLOCK_RECORD
  5
236F
330
1
100
AcDbSymbolTableRecord
100
AcDbBlockTableRecord
  2
*D47
340
0
  0
BLOCK_RECORD
  5
275F
330
1
100
AcDbSymbolTableRecord
100
AcDbBlockTableRecord
  2
*D48
340
0
  0
BLOCK_RECORD
  5
276B
330
1
100
AcDbSymbolTableRecord
100
AcDbBlockTableRecord
  2
*D49
340
0
  0
BLOCK_RECORD
  5
27C4
330
1
100
AcDbSymbolTableRecord
100
AcDbBlockTableRecord
  2
*D50
340
0
  0
BLOCK_RECORD
  5
27D0
330
1
100
AcDbSymbolTableRecord
100
AcDbBlockTableRecord
  2
*D51
340
0
  0
ENDTAB
  0
ENDSEC
  0
SECTION
  2
BLOCKS
  0
BLOCK
  5
20
330
1F
100
AcDbEntity
  8
0
100
AcDbBlockBegin
  2
*Model_Space
 70
     0
 10
0.0
 20
0.0
 30
0.0
  3
*Model_Space
  1

  0
ENDBLK
  5
21
330
1F
100
AcDbEntity
  8
0
100
AcDbBlockEnd
  0
BLOCK
  5
1C
330
1B
100
AcDbEntity
 67
     1
  8
0
100
AcDbBlockBegin
  2
*Paper_Space
 70
     0
 10
0.0
 20
0.0
 30
0.0
  3
*Paper_Space
  1

  0
ENDBLK
  5
1D
330
1B
100
AcDbEntity
 67
     1
  8
0
100
AcDbBlockEnd
  0
BLOCK
  5
24
330
23
100
AcDbEntity
  8
0
100
AcDbBlockBegin
  2
*Paper_Space0
 70
     0
 10
0.0
 20
0.0
 30
0.0
  3
*Paper_Space0
  1

  0
ENDBLK
  5
25
330
23
100
AcDbEntity
  8
0
100
AcDbBlockEnd
  0
BLOCK
  5
2F
330
2B
100
AcDbEntity
  8
0
100
AcDbBlockBegin
  2
_OPEN30
 70
     0
 10
0.0
 20
0.0
 30
0.0
  3
_OPEN30
  1

  0
LINE
  5
2C
330
2B
100
AcDbEntity
  8
0
  6
ByBlock
 62
     0
100
AcDbLine
 10
-1.0
 20
0.26794919
 30
0.0
 11
0.0
 21
0.0
 31
0.0
  0
LINE
  5
2D
330
2B
100
AcDbEntity
  8
0
  6
ByBlock
 62
     0
100
AcDbLine
 10
0.0
 20
0.0
 30
0.0
 11
-1.0
 21
-0.26794919
 31
0.0
  0
LINE
  5
2E
330
2B
100
AcDbEntity
  8
0
  6
ByBlock
 62
     0
100
AcDbLine
 10
0.0
 20
0.0
 30
0.0
 11
-1.0
 21
0.0
 31
0.0
  0
ENDBLK
  5
30
330
2B
100
AcDbEntity
  8
0
100
AcDbBlockEnd
  0
BLOCK
  5
134C
330
1342
100
AcDbEntity
  8
0
100
AcDbBlockBegin
  2
*D2
 70
     1
 10
0.0
 20
0.0
 30
0.0
  3
*D2
  1

  0
LINE
  5
2B3F
330
1342
100
AcDbEntity
  8
D-STR-DIM
370
    -2
100
AcDbLine
 10
2447.529441924229
 20
3731.548609267546
 30
0.0
 11
2447.529441924229
 21
3290.205830307042
 31
0.0
  0
LINE
  5
2B40
330
1342
100
AcDbEntity
  8
D-STR-DIM
370
    -2
100
AcDbLine
 10
3996.91840231719
 20
3731.548609267543
 30
0.0
 11
3996.91840231719
 21
3290.205830307042
 31
0.0
  0
LINE
  5
2B41
330
1342
100
AcDbEntity
  8
D-STR-DIM
370
    -2
100
AcDbLine
 10
2467.52944192423
 20
3310.205830307041
 30
0.0
 11
3976.91840231719
 21
3310.205830307041
 31
0.0
  0
INSERT
  5
2B42
330
1342
100
AcDbEntity
  8
D-STR-DIM
370
    -2
100
AcDbBlockReference
  2
_OPEN30
 10
2447.529441924229
 20
3310.205830307041
 30
0.0
 41
20.0
 42
20.0
 43
20.0
 50
180.0
  0
INSERT
  5
2B43
330
1342
100
AcDbEntity
  8
D-STR-DIM
370
    -2
100
AcDbBlockReference
  2
_OPEN30
 10
3996.91840231719
 20
3310.205830307041
 30
0.0
 41
20.0
 42
20.0
 43
20.0
  0
MTEXT
  5
2B44
330
1342
100
AcDbEntity
  8
D-STR-DIM
100
AcDbMText
 10
3222.22392212071
 20
3335.205830307041
 30
0.0
 40
30.0
 41
0.0
 71
     5
 72
     1
  1
\A1;3099
 73
     1
 44
1.0
  0
POINT
  5
2B45
330
1342
100
AcDbEntity
  8
DEFPOINTS
 62
     0
100
AcDbPoint
 10
2447.529441924229
 20
3741.548609267546
 30
0.0
  0
POINT
  5
2B46
330
1342
100
AcDbEntity
  8
DEFPOINTS
 62
     0
100
AcDbPoint
 10
3996.91840231719
 20
3741.548609267543
 30
0.0
  0
POINT
  5
2B47
330
1342
100
AcDbEntity
  8
DEFPOINTS
 62
     0
100
AcDbPoint
 10
3996.91840231719
 20
3310.205830307041
 30
0.0
  0
ENDBLK
  5
134D
330
1342
100
AcDbEntity
  8
0
100
AcDbBlockEnd
  0
BLOCK
  5
136B
330
1361
100
AcDbEntity
  8
0
100
AcDbBlockBegin
  2
*D3
 70
     1
 10
0.0
 20
0.0
 30
0.0
  3
*D3
  1

  0
LINE
  5
2B48
330
1361
100
AcDbEntity
  8
D-STR-DIM
370
    -2
100
AcDbLine
 10
2856.164001597139
 20
3971.548609267546
 30
0.0
 11
3172.005750656723
 21
3971.548609267546
 31
0.0
  0
LINE
  5
2B49
330
1361
100
AcDbEntity
  8
D-STR-DIM
370
    -2
100
AcDbLine
 10
3104.35848179362
 20
3723.35412907106
 30
0.0
 11
3172.005750656723
 21
3723.35412907106
 31
0.0
  0
LINE
  5
2B4A
330
1361
100
AcDbEntity
  8
D-STR-DIM
370
    -2
100
AcDbLine
 10
3152.005750656723
 20
3951.548609267545
 30
0.0
 11
3152.005750656723
 21
3743.35412907106
 31
0.0
  0
INSERT
  5
2B4B
330
1361
100
AcDbEntity
  8
D-STR-DIM
370
    -2
100
AcDbBlockReference
  2
_OPEN30
 10
3152.005750656723
 20
3971.548609267546
 30
0.0
 41
20.0
 42
20.0
 43
20.0
 50
90.0
  0
INSERT
  5
2B4C
330
1361
100
AcDbEntity
  8
D-STR-DIM
370
    -2
100
AcDbBlockReference
  2
_OPEN30
 10
3152.005750656723
 20
3723.35412907106
 30
0.0
 41
20.0
 42
20.0
 43
20.0
 50
270.0
  0
MTEXT
  5
2B4D
330
1361
100
AcDbEntity
  8
D-STR-DIM
100
AcDbMText
 10
3127.005750656723
 20
3847.451369169304
 30
0.0
 40
30.0
 41
0.0
 71
     5
 72
     1
  1
\A1;496
 11
0.0000000000000001
 21
1.0
 31
0.0
 73
     1
 44
1.0
  0
POINT
  5
2B4E
330
1361
100
AcDbEntity
  8
DEFPOINTS
 62
     0
100
AcDbPoint
 10
2846.16400159714
 20
3971.548609267546
 30
0.0
  0
POINT
  5
2B4F
330
1361
100
AcDbEntity
  8
DEFPOINTS
 62
     0
100
AcDbPoint
 10
3094.358481793619
 20
3723.35412907106
 30
0.0
  0
POINT
  5
2B50
330
1361
100
AcDbEntity
  8
DEFPOINTS
 62
     0
100
AcDbPoint
 10
3152.005750656723
 20
3723.35412907106
 30
0.0
  0
ENDBLK
  5
136C
330
1361
100
AcDbEntity
  8
0
100
AcDbBlockEnd
  0
BLOCK
  5
1386
330
137A
100
AcDbEntity
  8
0
100
AcDbBlockBegin
  2
*D4
 70
     1
 10
0.0
 20
0.0
 30
0.0
  3
*D4
  1

  0
LINE
  5
2B65
330
137A
100
AcDbEntity
  8
D-STR-DIM
370
    -2
100
AcDbLine
 10
4006.918402317189
 20
3794.048609267543
 30
0.0
 11
4133.418202466883
 21
3794.048609267543
 31
0.0
  0
LINE
  5
2B66
330
137A
100
AcDbEntity
  8
D-STR-DIM
370
    -2
100
AcDbLine
 10
4006.918402317192
 20
3741.548609267542
 30
0.0
 11
4133.418202466883
 21
3741.548609267542
 31
0.0
  0
LINE
  5
2B67
330
137A
100
AcDbEntity
  8
D-STR-DIM
370
    -2
100
AcDbLine
 10
4113.418202466884
 20
3814.048609267544
 30
0.0
 11
4113.418202466884
 21
3834.048609267544
 31
0.0
  0
LINE
  5
2B68
330
137A
100
AcDbEntity
  8
D-STR-DIM
370
    -2
100
AcDbLine
 10
4113.418202466884
 20
3721.548609267544
 30
0.0
 11
4113.418202466884
 21
3701.548609267543
 31
0.0
  0
MTEXT
  5
2B69
330
137A
100
AcDbEntity
  8
D-STR-DIM
100
AcDbMText
 10
4088.418202466885
 20
3767.798609267543
 30
0.0
 40
30.0
 41
0.0
 71
     5
 72
     1
  1
\A1;105
 11
0.0000000000000001
 21
1.0
 31
0.0
 73
     1
 44
1.0
  0
LINE
  5
2B6A
330
137A
100
AcDbEntity
  8
D-STR-DIM
370
    -2
100
AcDbLine
 10
4113.418202466884
 20
3794.048609267543
 30
0.0
 11
4113.418202466884
 21
3741.548609267542
 31
0.0
  0
INSERT
  5
2B6B
330
137A
100
AcDbEntity
  8
D-STR-DIM
370
    -2
100
AcDbBlockReference
  2
_OPEN30
 10
4113.418202466884
 20
3794.048609267543
 30
0.0
 41
20.0
 42
20.0
 43
20.0
 50
270.0
  0
INSERT
  5
2B6C
330
137A
100
AcDbEntity
  8
D-STR-DIM
370
    -2
100
AcDbBlockReference
  2
_OPEN30
 10
4113.418202466884
 20
3741.548609267542
 30
0.0
 41
20.0
 42
20.0
 43
20.0
 50
90.0
  0
POINT
  5
2B6D
330
137A
100
AcDbEntity
  8
DEFPOINTS
 62
     0
100
AcDbPoint
 10
3996.91840231719
 20
3794.048609267543
 30
0.0
  0
POINT
  5
2B6E
330
137A
100
AcDbEntity
  8
DEFPOINTS
 62
     0
100
AcDbPoint
 10
3996.918402317191
 20
3741.548609267542
 30
0.0
  0
POINT
  5
2B6F
330
137A
100
AcDbEntity
  8
DEFPOINTS
 62
     0
100
AcDbPoint
 10
4113.418202466884
 20
3741.548609267542
 30
0.0
  0
ENDBLK
  5
1387
330
137A
100
AcDbEntity
  8
0
100
AcDbBlockEnd
  0
BLOCK
  5
1394
330
1388
100
AcDbEntity
  8
0
100
AcDbBlockBegin
  2
*D5
 70
     1
 10
0.0
 20
0.0
 30
0.0
  3
*D5
  1

  0
LINE
  5
2B51
330
1388
100
AcDbEntity
  8
D-STR-DIM
370
    -2
100
AcDbLine
 10
4006.918402317189
 20
3971.548609267545
 30
0.0
 11
4133.418202466883
 21
3971.548609267545
 31
0.0
  0
LINE
  5
2B52
330
1388
100
AcDbEntity
  8
D-STR-DIM
370
    -2
100
AcDbLine
 10
4006.918402317189
 20
3919.048609267543
 30
0.0
 11
4133.418202466883
 21
3919.048609267543
 31
0.0
  0
LINE
  5
2B53
330
1388
100
AcDbEntity
  8
D-STR-DIM
370
    -2
100
AcDbLine
 10
4113.418202466884
 20
3991.548609267543
 30
0.0
 11
4113.418202466884
 21
4011.548609267545
 31
0.0
  0
LINE
  5
2B54
330
1388
100
AcDbEntity
  8
D-STR-DIM
370
    -2
100
AcDbLine
 10
4113.418202466884
 20
3899.048609267545
 30
0.0
 11
4113.418202466884
 21
3879.048609267544
 31
0.0
  0
MTEXT
  5
2B55
330
1388
100
AcDbEntity
  8
D-STR-DIM
100
AcDbMText
 10
4088.418202466885
 20
3944.048609267545
 30
0.0
 40
30.0
 41
0.0
 71
     5
 72
     1
  1
\A1;105
 11
0.0000000000000001
 21
1.0
 31
0.0
 73
     1
 44
1.0
  0
LINE
  5
2B56
330
1388
100
AcDbEntity
  8
D-STR-DIM
370
    -2
100
AcDbLine
 10
4113.418202466884
 20
3971.548609267545
 30
0.0
 11
4113.418202466884
 21
3919.048609267543
 31
0.0
  0
INSERT
  5
2B57
330
1388
100
AcDbEntity
  8
D-STR-DIM
370
    -2
100
AcDbBlockReference
  2
_OPEN30
 10
4113.418202466884
 20
3971.548609267545
 30
0.0
 41
20.0
 42
20.0
 43
20.0
 50
270.0
  0
INSERT
  5
2B58
330
1388
100
AcDbEntity
  8
D-STR-DIM
370
    -2
100
AcDbBlockReference
  2
_OPEN30
 10
4113.418202466884
 20
3919.048609267543
 30
0.0
 41
20.0
 42
20.0
 43
20.0
 50
90.0
  0
POINT
  5
2B59
330
1388
100
AcDbEntity
  8
DEFPOINTS
 62
     0
100
AcDbPoint
 10
3996.918402317188
 20
3971.548609267545
 30
0.0
  0
POINT
  5
2B5A
330
1388
100
AcDbEntity
  8
DEFPOINTS
 62
     0
100
AcDbPoint
 10
3996.91840231719
 20
3919.048609267543
 30
0.0
  0
POINT
  5
2B5B
330
1388
100
AcDbEntity
  8
DEFPOINTS
 62
     0
100
AcDbPoint
 10
4113.418202466884
 20
3919.048609267543
 30
0.0
  0
ENDBLK
  5
1395
330
1388
100
AcDbEntity
  8
0
100
AcDbBlockEnd
  0
BLOCK
  5
13A0
330
1396
100
AcDbEntity
  8
0
100
AcDbBlockBegin
  2
*D6
 70
     1
 10
0.0
 20
0.0
 30
0.0
  3
*D6
  1

  0
LINE
  5
2B70
330
1396
100
AcDbEntity
  8
D-STR-DIM
370
    -2
100
AcDbLine
 10
4006.918402317189
 20
3919.048609267543
 30
0.0
 11
4133.418202466883
 21
3919.048609267543
 31
0.0
  0
LINE
  5
2B71
330
1396
100
AcDbEntity
  8
D-STR-DIM
370
    -2
100
AcDbLine
 10
4006.918402317189
 20
3794.048609267543
 30
0.0
 11
4133.418202466883
 21
3794.048609267543
 31
0.0
  0
LINE
  5
2B72
330
1396
100
AcDbEntity
  8
D-STR-DIM
370
    -2
100
AcDbLine
 10
4113.418202466884
 20
3899.048609267545
 30
0.0
 11
4113.418202466884
 21
3814.048609267544
 31
0.0
  0
INSERT
  5
2B73
330
1396
100
AcDbEntity
  8
D-STR-DIM
370
    -2
100
AcDbBlockReference
  2
_OPEN30
 10
4113.418202466884
 20
3919.048609267543
 30
0.0
 41
20.0
 42
20.0
 43
20.0
 50
90.0
  0
INSERT
  5
2B74
330
1396
100
AcDbEntity
  8
D-STR-DIM
370
    -2
100
AcDbBlockReference
  2
_OPEN30
 10
4113.418202466884
 20
3794.048609267543
 30
0.0
 41
20.0
 42
20.0
 43
20.0
 50
270.0
  0
MTEXT
  5
2B75
330
1396
100
AcDbEntity
  8
D-STR-DIM
100
AcDbMText
 10
4088.418202466885
 20
3856.548609267543
 30
0.0
 40
30.0
 41
0.0
 71
     5
 72
     1
  1
\A1;250
 11
0.0000000000000001
 21
1.0
 31
0.0
 73
     1
 44
1.0
  0
POINT
  5
2B76
330
1396
100
AcDbEntity
  8
DEFPOINTS
 62
     0
100
AcDbPoint
 10
3996.91840231719
 20
3919.048609267543
 30
0.0
  0
POINT
  5
2B77
330
1396
100
AcDbEntity
  8
DEFPOINTS
 62
     0
100
AcDbPoint
 10
3996.91840231719
 20
3794.048609267543
 30
0.0
  0
POINT
  5
2B78
330
1396
100
AcDbEntity
  8
DEFPOINTS
 62
     0
100
AcDbPoint
 10
4113.418202466884
 20
3794.048609267543
 30
0.0
  0
ENDBLK
  5
13A1
330
1396
100
AcDbEntity
  8
0
100
AcDbBlockEnd
  0
BLOCK
  5
13AC
330
13A2
100
AcDbEntity
  8
0
100
AcDbBlockBegin
  2
*D7
 70
     1
 10
0.0
 20
0.0
 30
0.0
  3
*D7
  1

  0
LINE
  5
2B5C
330
13A2
100
AcDbEntity
  8
D-STR-DIM
370
    -2
100
AcDbLine
 10
4006.918402317189
 20
3971.548609267545
 30
0.0
 11
4238.517848052678
 21
3971.548609267545
 31
0.0
  0
LINE
  5
2B5D
330
13A2
100
AcDbEntity
  8
D-STR-DIM
370
    -2
100
AcDbLine
 10
4006.918402317192
 20
3741.548609267541
 30
0.0
 11
4238.517848052678
 21
3741.548609267541
 31
0.0
  0
LINE
  5
2B5E
330
13A2
100
AcDbEntity
  8
D-STR-DIM
370
    -2
100
AcDbLine
 10
4218.517848052679
 20
3951.548609267543
 30
0.0
 11
4218.517848052679
 21
3761.548609267541
 31
0.0
  0
INSERT
  5
2B5F
330
13A2
100
AcDbEntity
  8
D-STR-DIM
370
    -2
100
AcDbBlockReference
  2
_OPEN30
 10
4218.517848052679
 20
3971.548609267545
 30
0.0
 41
20.0
 42
20.0
 43
20.0
 50
90.0
  0
INSERT
  5
2B60
330
13A2
100
AcDbEntity
  8
D-STR-DIM
370
    -2
100
AcDbBlockReference
  2
_OPEN30
 10
4218.517848052679
 20
3741.548609267541
 30
0.0
 41
20.0
 42
20.0
 43
20.0
 50
270.0
  0
MTEXT
  5
2B61
330
13A2
100
AcDbEntity
  8
D-STR-DIM
100
AcDbMText
 10
4193.517848052677
 20
3856.548609267543
 30
0.0
 40
30.0
 41
0.0
 71
     5
 72
     1
  1
\A1;460
 11
0.0000000000000001
 21
1.0
 31
0.0
 73
     1
 44
1.0
  0
POINT
  5
2B62
330
13A2
100
AcDbEntity
  8
DEFPOINTS
 62
     0
100
AcDbPoint
 10
3996.918402317188
 20
3971.548609267545
 30
0.0
  0
POINT
  5
2B63
330
13A2
100
AcDbEntity
  8
DEFPOINTS
 62
     0
100
AcDbPoint
 10
3996.918402317191
 20
3741.548609267541
 30
0.0
  0
POINT
  5
2B64
330
13A2
100
AcDbEntity
  8
DEFPOINTS
 62
     0
100
AcDbPoint
 10
4218.517848052679
 20
3741.548609267541
 30
0.0
  0
ENDBLK
  5
13AD
330
13A2
100
AcDbEntity
  8
0
100
AcDbBlockEnd
  0
BLOCK
  5
14FE
330
14F4
100
AcDbEntity
  8
0
100
AcDbBlockBegin
  2
*D8
 70
     1
 10
0.0
 20
0.0
 30
0.0
  3
*D8
  1

  0
LINE
  5
2B79
330
14F4
100
AcDbEntity
  8
D-STR-DIM
370
    -2
100
AcDbLine
 10
2447.529441924211
 20
1041.548894267537
 30
0.0
 11
2447.529441924211
 21
600.2061153070334
 31
0.0
  0
LINE
  5
2B7A
330
14F4
100
AcDbEntity
  8
D-STR-DIM
370
    -2
100
AcDbLine
 10
3996.918402317171
 20
1041.548894267536
 30
0.0
 11
3996.918402317171
 21
600.2061153070334
 31
0.0
  0
LINE
  5
2B7B
330
14F4
100
AcDbEntity
  8
D-STR-DIM
370
    -2
100
AcDbLine
 10
2467.529441924211
 20
620.2061153070334
 30
0.0
 11
3976.918402317171
 21
620.2061153070334
 31
0.0
  0
INSERT
  5
2B7C
330
14F4
100
AcDbEntity
  8
D-STR-DIM
370
    -2
100
AcDbBlockReference
  2
_OPEN30
 10
2447.529441924211
 20
620.2061153070334
 30
0.0
 41
20.0
 42
20.0
 43
20.0
 50
180.0
  0
INSERT
  5
2B7D
330
14F4
100
AcDbEntity
  8
D-STR-DIM
370
    -2
100
AcDbBlockReference
  2
_OPEN30
 10
3996.918402317171
 20
620.2061153070334
 30
0.0
 41
20.0
 42
20.0
 43
20.0
  0
MTEXT
  5
2B7E
330
14F4
100
AcDbEntity
  8
D-STR-DIM
100
AcDbMText
 10
3222.223922120691
 20
645.2061153070334
 30
0.0
 40
30.0
 41
0.0
 71
     5
 72
     1
  1
\A1;3099
 73
     1
 44
1.0
  0
POINT
  5
2B7F
330
14F4
100
AcDbEntity
  8
DEFPOINTS
 62
     0
100
AcDbPoint
 10
2447.529441924211
 20
1051.548894267537
 30
0.0
  0
POINT
  5
2B80
330
14F4
100
AcDbEntity
  8
DEFPOINTS
 62
     0
100
AcDbPoint
 10
3996.918402317171
 20
1051.548894267536
 30
0.0
  0
POINT
  5
2B81
330
14F4
100
AcDbEntity
  8
DEFPOINTS
 62
     0
100
AcDbPoint
 10
3996.918402317171
 20
620.2061153070334
 30
0.0
  0
ENDBLK
  5
14FF
330
14F4
100
AcDbEntity
  8
0
100
AcDbBlockEnd
  0
BLOCK
  5
150A
330
1500
100
AcDbEntity
  8
0
100
AcDbBlockBegin
  2
*D9
 70
     1
 10
0.0
 20
0.0
 30
0.0
  3
*D9
  1

  0
LINE
  5
2B82
330
1500
100
AcDbEntity
  8
D-STR-DIM
370
    -2
100
AcDbLine
 10
2862.377205032712
 20
1311.548894267537
 30
0.0
 11
3178.218954092296
 21
1311.548894267537
 31
0.0
  0
LINE
  5
2B83
330
1500
100
AcDbEntity
  8
D-STR-DIM
370
    -2
100
AcDbLine
 10
3110.571685229193
 20
1063.354414071052
 30
0.0
 11
3178.218954092296
 21
1063.354414071052
 31
0.0
  0
LINE
  5
2B84
330
1500
100
AcDbEntity
  8
D-STR-DIM
370
    -2
100
AcDbLine
 10
3158.218954092296
 20
1291.548894267537
 30
0.0
 11
3158.218954092296
 21
1083.35441407105
 31
0.0
  0
INSERT
  5
2B85
330
1500
100
AcDbEntity
  8
D-STR-DIM
370
    -2
100
AcDbBlockReference
  2
_OPEN30
 10
3158.218954092296
 20
1311.548894267537
 30
0.0
 41
20.0
 42
20.0
 43
20.0
 50
90.0
  0
INSERT
  5
2B86
330
1500
100
AcDbEntity
  8
D-STR-DIM
370
    -2
100
AcDbBlockReference
  2
_OPEN30
 10
3158.218954092296
 20
1063.354414071052
 30
0.0
 41
20.0
 42
20.0
 43
20.0
 50
270.0
  0
MTEXT
  5
2B87
330
1500
100
AcDbEntity
  8
D-STR-DIM
100
AcDbMText
 10
3133.218954092297
 20
1187.451654169295
 30
0.0
 40
30.0
 41
0.0
 71
     5
 72
     1
  1
\A1;496
 11
0.0000000000000001
 21
1.0
 31
0.0
 73
     1
 44
1.0
  0
POINT
  5
2B88
330
1500
100
AcDbEntity
  8
DEFPOINTS
 62
     0
100
AcDbPoint
 10
2852.377205032713
 20
1311.548894267537
 30
0.0
  0
POINT
  5
2B89
330
1500
100
AcDbEntity
  8
DEFPOINTS
 62
     0
100
AcDbPoint
 10
3100.571685229192
 20
1063.354414071052
 30
0.0
  0
POINT
  5
2B8A
330
1500
100
AcDbEntity
  8
DEFPOINTS
 62
     0
100
AcDbPoint
 10
3158.218954092296
 20
1063.354414071052
 30
0.0
  0
ENDBLK
  5
150B
330
1500
100
AcDbEntity
  8
0
100
AcDbBlockEnd
  0
BLOCK
  5
1516
330
150C
100
AcDbEntity
  8
0
100
AcDbBlockBegin
  2
*D10
 70
     1
 10
0.0
 20
0.0
 30
0.0
  3
*D10
  1

  0
LINE
  5
2B8B
330
150C
100
AcDbEntity
  8
D-STR-DIM
370
    -2
100
AcDbLine
 10
4006.918402317169
 20
1256.548894267538
 30
0.0
 11
4133.418202466867
 21
1256.548894267538
 31
0.0
  0
LINE
  5
2B8C
330
150C
100
AcDbEntity
  8
D-STR-DIM
370
    -2
100
AcDbLine
 10
4006.918402317169
 20
1106.548894267538
 30
0.0
 11
4133.418202466867
 21
1106.548894267538
 31
0.0
  0
LINE
  5
2B8D
330
150C
100
AcDbEntity
  8
D-STR-DIM
370
    -2
100
AcDbLine
 10
4113.418202466868
 20
1236.548894267538
 30
0.0
 11
4113.418202466868
 21
1126.548894267537
 31
0.0
  0
INSERT
  5
2B8E
330
150C
100
AcDbEntity
  8
D-STR-DIM
370
    -2
100
AcDbBlockReference
  2
_OPEN30
 10
4113.418202466868
 20
1256.548894267538
 30
0.0
 41
20.0
 42
20.0
 43
20.0
 50
90.0
  0
INSERT
  5
2B8F
330
150C
100
AcDbEntity
  8
D-STR-DIM
370
    -2
100
AcDbBlockReference
  2
_OPEN30
 10
4113.418202466868
 20
1106.548894267538
 30
0.0
 41
20.0
 42
20.0
 43
20.0
 50
270.0
  0
MTEXT
  5
2B90
330
150C
100
AcDbEntity
  8
D-STR-DIM
100
AcDbMText
 10
4088.418202466868
 20
1181.548894267538
 30
0.0
 40
30.0
 41
0.0
 71
     5
 72
     1
  1
\A1;300
 11
0.0000000000000001
 21
1.0
 31
0.0
 73
     1
 44
1.0
  0
POINT
  5
2B91
330
150C
100
AcDbEntity
  8
DEFPOINTS
 62
     0
100
AcDbPoint
 10
3996.918402317169
 20
1256.548894267538
 30
0.0
  0
POINT
  5
2B92
330
150C
100
AcDbEntity
  8
DEFPOINTS
 62
     0
100
AcDbPoint
 10
3996.918402317169
 20
1106.548894267538
 30
0.0
  0
POINT
  5
2B93
330
150C
100
AcDbEntity
  8
DEFPOINTS
 62
     0
100
AcDbPoint
 10
4113.418202466868
 20
1106.548894267538
 30
0.0
  0
ENDBLK
  5
1517
330
150C
100
AcDbEntity
  8
0
100
AcDbBlockEnd
  0
BLOCK
  5
1524
330
1518
100
AcDbEntity
  8
0
100
AcDbBlockBegin
  2
*D11
 70
     1
 10
0.0
 20
0.0
 30
0.0
  3
*D11
  1

  0
LINE
  5
2BA8
330
1518
100
AcDbEntity
  8
D-STR-DIM
370
    -2
100
AcDbLine
 10
4006.918402317171
 20
1311.548894267537
 30
0.0
 11
4133.418202466867
 21
1311.548894267537
 31
0.0
  0
LINE
  5
2BA9
330
1518
100
AcDbEntity
  8
D-STR-DIM
370
    -2
100
AcDbLine
 10
4006.918402317169
 20
1256.548894267538
 30
0.0
 11
4133.418202466867
 21
1256.548894267538
 31
0.0
  0
LINE
  5
2BAA
330
1518
100
AcDbEntity
  8
D-STR-DIM
370
    -2
100
AcDbLine
 10
4113.418202466868
 20
1331.548894267537
 30
0.0
 11
4113.418202466868
 21
1351.548894267537
 31
0.0
  0
LINE
  5
2BAB
330
1518
100
AcDbEntity
  8
D-STR-DIM
370
    -2
100
AcDbLine
 10
4113.418202466868
 20
1236.548894267538
 30
0.0
 11
4113.418202466868
 21
1216.548894267537
 31
0.0
  0
MTEXT
  5
2BAC
330
1518
100
AcDbEntity
  8
D-STR-DIM
100
AcDbMText
 10
4088.418202466868
 20
1284.048894267537
 30
0.0
 40
30.0
 41
0.0
 71
     5
 72
     1
  1
\A1;110
 11
0.0000000000000001
 21
1.0
 31
0.0
 73
     1
 44
1.0
  0
LINE
  5
2BAD
330
1518
100
AcDbEntity
  8
D-STR-DIM
370
    -2
100
AcDbLine
 10
4113.418202466868
 20
1311.548894267537
 30
0.0
 11
4113.418202466868
 21
1256.548894267538
 31
0.0
  0
INSERT
  5
2BAE
330
1518
100
AcDbEntity
  8
D-STR-DIM
370
    -2
100
AcDbBlockReference
  2
_OPEN30
 10
4113.418202466868
 20
1311.548894267537
 30
0.0
 41
20.0
 42
20.0
 43
20.0
 50
270.0
  0
INSERT
  5
2BAF
330
1518
100
AcDbEntity
  8
D-STR-DIM
370
    -2
100
AcDbBlockReference
  2
_OPEN30
 10
4113.418202466868
 20
1256.548894267538
 30
0.0
 41
20.0
 42
20.0
 43
20.0
 50
90.0
  0
POINT
  5
2BB0
330
1518
100
AcDbEntity
  8
DEFPOINTS
 62
     0
100
AcDbPoint
 10
3996.918402317171
 20
1311.548894267537
 30
0.0
  0
POINT
  5
2BB1
330
1518
100
AcDbEntity
  8
DEFPOINTS
 62
     0
100
AcDbPoint
 10
3996.918402317169
 20
1256.548894267538
 30
0.0
  0
POINT
  5
2BB2
330
1518
100
AcDbEntity
  8
DEFPOINTS
 62
     0
100
AcDbPoint
 10
4113.418202466868
 20
1256.548894267538
 30
0.0
  0
ENDBLK
  5
1525
330
1518
100
AcDbEntity
  8
0
100
AcDbBlockEnd
  0
BLOCK
  5
1532
330
1526
100
AcDbEntity
  8
0
100
AcDbBlockBegin
  2
*D12
 70
     1
 10
0.0
 20
0.0
 30
0.0
  3
*D12
  1

  0
LINE
  5
2B9D
330
1526
100
AcDbEntity
  8
D-STR-DIM
370
    -2
100
AcDbLine
 10
4006.918402317169
 20
1106.548894267538
 30
0.0
 11
4133.418202466867
 21
1106.548894267538
 31
0.0
  0
LINE
  5
2B9E
330
1526
100
AcDbEntity
  8
D-STR-DIM
370
    -2
100
AcDbLine
 10
4006.918402317169
 20
1051.548894267541
 30
0.0
 11
4133.418202466867
 21
1051.548894267541
 31
0.0
  0
LINE
  5
2B9F
330
1526
100
AcDbEntity
  8
D-STR-DIM
370
    -2
100
AcDbLine
 10
4113.418202466868
 20
1126.548894267537
 30
0.0
 11
4113.418202466868
 21
1146.548894267537
 31
0.0
  0
LINE
  5
2BA0
330
1526
100
AcDbEntity
  8
D-STR-DIM
370
    -2
100
AcDbLine
 10
4113.418202466868
 20
1031.548894267541
 30
0.0
 11
4113.418202466868
 21
1011.548894267541
 31
0.0
  0
MTEXT
  5
2BA1
330
1526
100
AcDbEntity
  8
D-STR-DIM
100
AcDbMText
 10
4088.418202466868
 20
1079.048894267539
 30
0.0
 40
30.0
 41
0.0
 71
     5
 72
     1
  1
\A1;110
 11
0.0000000000000001
 21
1.0
 31
0.0
 73
     1
 44
1.0
  0
LINE
  5
2BA2
330
1526
100
AcDbEntity
  8
D-STR-DIM
370
    -2
100
AcDbLine
 10
4113.418202466868
 20
1106.548894267538
 30
0.0
 11
4113.418202466868
 21
1051.548894267541
 31
0.0
  0
INSERT
  5
2BA3
330
1526
100
AcDbEntity
  8
D-STR-DIM
370
    -2
100
AcDbBlockReference
  2
_OPEN30
 10
4113.418202466868
 20
1106.548894267538
 30
0.0
 41
20.0
 42
20.0
 43
20.0
 50
270.0
  0
INSERT
  5
2BA4
330
1526
100
AcDbEntity
  8
D-STR-DIM
370
    -2
100
AcDbBlockReference
  2
_OPEN30
 10
4113.418202466868
 20
1051.548894267541
 30
0.0
 41
20.0
 42
20.0
 43
20.0
 50
90.0
  0
POINT
  5
2BA5
330
1526
100
AcDbEntity
  8
DEFPOINTS
 62
     0
100
AcDbPoint
 10
3996.918402317169
 20
1106.548894267538
 30
0.0
  0
POINT
  5
2BA6
330
1526
100
AcDbEntity
  8
DEFPOINTS
 62
     0
100
AcDbPoint
 10
3996.918402317169
 20
1051.548894267541
 30
0.0
  0
POINT
  5
2BA7
330
1526
100
AcDbEntity
  8
DEFPOINTS
 62
     0
100
AcDbPoint
 10
4113.418202466868
 20
1051.548894267541
 30
0.0
  0
ENDBLK
  5
1533
330
1526
100
AcDbEntity
  8
0
100
AcDbBlockEnd
  0
BLOCK
  5
153E
330
1534
100
AcDbEntity
  8
0
100
AcDbBlockBegin
  2
*D13
 70
     1
 10
0.0
 20
0.0
 30
0.0
  3
*D13
  1

  0
LINE
  5
2B94
330
1534
100
AcDbEntity
  8
D-STR-DIM
370
    -2
100
AcDbLine
 10
4006.918402317171
 20
1311.548894267537
 30
0.0
 11
4238.517848052661
 21
1311.548894267537
 31
0.0
  0
LINE
  5
2B95
330
1534
100
AcDbEntity
  8
D-STR-DIM
370
    -2
100
AcDbLine
 10
4006.918402317169
 20
1051.548894267537
 30
0.0
 11
4238.517848052661
 21
1051.548894267537
 31
0.0
  0
LINE
  5
2B96
330
1534
100
AcDbEntity
  8
D-STR-DIM
370
    -2
100
AcDbLine
 10
4218.517848052661
 20
1291.548894267537
 30
0.0
 11
4218.517848052661
 21
1071.548894267537
 31
0.0
  0
INSERT
  5
2B97
330
1534
100
AcDbEntity
  8
D-STR-DIM
370
    -2
100
AcDbBlockReference
  2
_OPEN30
 10
4218.517848052661
 20
1311.548894267537
 30
0.0
 41
20.0
 42
20.0
 43
20.0
 50
90.0
  0
INSERT
  5
2B98
330
1534
100
AcDbEntity
  8
D-STR-DIM
370
    -2
100
AcDbBlockReference
  2
_OPEN30
 10
4218.517848052661
 20
1051.548894267537
 30
0.0
 41
20.0
 42
20.0
 43
20.0
 50
270.0
  0
MTEXT
  5
2B99
330
1534
100
AcDbEntity
  8
D-STR-DIM
100
AcDbMText
 10
4193.51784805266
 20
1181.548894267539
 30
0.0
 40
30.0
 41
0.0
 71
     5
 72
     1
  1
\A1;520
 11
0.0000000000000001
 21
1.0
 31
0.0
 73
     1
 44
1.0
  0
POINT
  5
2B9A
330
1534
100
AcDbEntity
  8
DEFPOINTS
 62
     0
100
AcDbPoint
 10
3996.918402317171
 20
1311.548894267537
 30
0.0
  0
POINT
  5
2B9B
330
1534
100
AcDbEntity
  8
DEFPOINTS
 62
     0
100
AcDbPoint
 10
3996.918402317169
 20
1051.548894267537
 30
0.0
  0
POINT
  5
2B9C
330
1534
100
AcDbEntity
  8
DEFPOINTS
 62
     0
100
AcDbPoint
 10
4218.517848052661
 20
1051.548894267537
 30
0.0
  0
ENDBLK
  5
153F
330
1534
100
AcDbEntity
  8
0
100
AcDbBlockEnd
  0
BLOCK
  5
1910
330
1906
100
AcDbEntity
  8
0
100
AcDbBlockBegin
  2
*D14
 70
     1
 10
0.0
 20
0.0
 30
0.0
  3
*D14
  1

  0
LINE
  5
2070
330
1906
100
AcDbEntity
  8
D-STR-DIM
370
    -2
100
AcDbLine
 10
-162.1911681941419
 20
4013.274616037992
 30
0.0
 11
-162.1911681941419
 21
4229.31662483609
 31
0.0
  0
LINE
  5
2071
330
1906
100
AcDbEntity
  8
D-STR-DIM
370
    -2
100
AcDbLine
 10
635.0779511516702
 20
4013.274616037993
 30
0.0
 11
635.0779511516702
 21
4229.31662483609
 31
0.0
  0
LINE
  5
2072
330
1906
100
AcDbEntity
  8
D-STR-DIM
370
    -2
100
AcDbLine
 10
-142.1911681941419
 20
4209.31662483609
 30
0.0
 11
615.0779511516702
 21
4209.31662483609
 31
0.0
  0
INSERT
  5
2073
330
1906
100
AcDbEntity
  8
D-STR-DIM
370
    -2
100
AcDbBlockReference
  2
_OPEN30
 10
-162.1911681941419
 20
4209.31662483609
 30
0.0
 41
20.0
 42
20.0
 43
20.0
 50
180.0
  0
INSERT
  5
2074
330
1906
100
AcDbEntity
  8
D-STR-DIM
370
    -2
100
AcDbBlockReference
  2
_OPEN30
 10
635.0779511516702
 20
4209.31662483609
 30
0.0
 41
20.0
 42
20.0
 43
20.0
  0
MTEXT
  5
2075
330
1906
100
AcDbEntity
  8
D-STR-DIM
100
AcDbMText
 10
236.443391478764
 20
4234.31662483609
 30
0.0
 40
30.0
 41
0.0
 71
     5
 72
     1
  1
\A1;797
 73
     1
 44
1.0
  0
POINT
  5
2076
330
1906
100
AcDbEntity
  8
DEFPOINTS
 62
     0
100
AcDbPoint
 10
-162.1911681941419
 20
4003.274616037992
 30
0.0
  0
POINT
  5
2077
330
1906
100
AcDbEntity
  8
DEFPOINTS
 62
     0
100
AcDbPoint
 10
635.0779511516702
 20
4003.274616037994
 30
0.0
  0
POINT
  5
2078
330
1906
100
AcDbEntity
  8
DEFPOINTS
 62
     0
100
AcDbPoint
 10
635.0779511516702
 20
4209.31662483609
 30
0.0
  0
ENDBLK
  5
1911
330
1906
100
AcDbEntity
  8
0
100
AcDbBlockEnd
  0
BLOCK
  5
194B
330
1941
100
AcDbEntity
  8
0
100
AcDbBlockBegin
  2
*D15
 70
     1
 10
0.0
 20
0.0
 30
0.0
  3
*D15
  1

  0
LINE
  5
2082
330
1941
100
AcDbEntity
  8
D-STR-DIM
370
    -2
100
AcDbLine
 10
-162.1911681941419
 20
3533.274616037992
 30
0.0
 11
-162.1911681941419
 21
3317.232607239893
 31
0.0
  0
LINE
  5
2083
330
1941
100
AcDbEntity
  8
D-STR-DIM
370
    -2
100
AcDbLine
 10
444.5397124600457
 20
3533.274616037994
 30
0.0
 11
444.5397124600457
 21
3317.232607239893
 31
0.0
  0
LINE
  5
2084
330
1941
100
AcDbEntity
  8
D-STR-DIM
370
    -2
100
AcDbLine
 10
-142.1911681941419
 20
3337.232607239892
 30
0.0
 11
424.5397124600457
 21
3337.232607239892
 31
0.0
  0
INSERT
  5
2085
330
1941
100
AcDbEntity
  8
D-STR-DIM
370
    -2
100
AcDbBlockReference
  2
_OPEN30
 10
-162.1911681941419
 20
3337.232607239892
 30
0.0
 41
20.0
 42
20.0
 43
20.0
 50
180.0
  0
INSERT
  5
2086
330
1941
100
AcDbEntity
  8
D-STR-DIM
370
    -2
100
AcDbBlockReference
  2
_OPEN30
 10
444.5397124600457
 20
3337.232607239892
 30
0.0
 41
20.0
 42
20.0
 43
20.0
  0
MTEXT
  5
2087
330
1941
100
AcDbEntity
  8
D-STR-DIM
100
AcDbMText
 10
141.1742721329519
 20
3362.232607239892
 30
0.0
 40
30.0
 41
0.0
 71
     5
 72
     1
  1
\A1;607
 73
     1
 44
1.0
  0
POINT
  5
2088
330
1941
100
AcDbEntity
  8
DEFPOINTS
 62
     0
100
AcDbPoint
 10
-162.1911681941419
 20
3543.274616037992
 30
0.0
  0
POINT
  5
2089
330
1941
100
AcDbEntity
  8
DEFPOINTS
 62
     0
100
AcDbPoint
 10
444.5397124600457
 20
3543.274616037994
 30
0.0
  0
POINT
  5
208A
330
1941
100
AcDbEntity
  8
DEFPOINTS
 62
     0
100
AcDbPoint
 10
444.5397124600457
 20
3337.232607239892
 30
0.0
  0
ENDBLK
  5
194C
330
1941
100
AcDbEntity
  8
0
100
AcDbBlockEnd
  0
BLOCK
  5
196A
330
1960
100
AcDbEntity
  8
0
100
AcDbBlockBegin
  2
*D16
 70
     1
 10
0.0
 20
0.0
 30
0.0
  3
*D16
  1

  0
LINE
  5
205E
330
1960
100
AcDbEntity
  8
D-STR-DIM
370
    -2
100
AcDbLine
 10
437.4686446481801
 20
3536.203548226128
 30
0.0
 11
294.8378594870486
 21
3393.572763065
 31
0.0
  0
LINE
  5
205F
330
1960
100
AcDbEntity
  8
D-STR-DIM
370
    -2
100
AcDbLine
 10
933.8576050411402
 20
3039.814587833156
 30
0.0
 11
791.2268198800084
 21
2897.183802672028
 31
0.0
  0
LINE
  5
2060
330
1960
100
AcDbEntity
  8
D-STR-DIM
370
    -2
100
AcDbLine
 10
323.1221307345106
 20
3393.572763065
 30
0.0
 11
791.2268198800087
 21
2925.468073919489
 31
0.0
  0
INSERT
  5
2061
330
1960
100
AcDbEntity
  8
D-STR-DIM
370
    -2
100
AcDbBlockReference
  2
_OPEN30
 10
308.9799951107798
 20
3407.71489868873
 30
0.0
 41
20.0
 42
20.0
 43
20.0
 50
134.9999999999992
  0
INSERT
  5
2062
330
1960
100
AcDbEntity
  8
D-STR-DIM
370
    -2
100
AcDbBlockReference
  2
_OPEN30
 10
805.3689555037394
 20
2911.325938295759
 30
0.0
 41
20.0
 42
20.0
 43
20.0
 50
314.9999999999991
  0
MTEXT
  5
2063
330
1960
100
AcDbEntity
  8
D-STR-DIM
100
AcDbMText
 10
574.8521448369236
 20
3177.198088021908
 30
0.0
 40
30.0
 41
0.0
 71
     5
 72
     1
  1
\A1;702
 11
0.7071067811865383
 21
-0.7071067811865569
 31
0.0
 73
     1
 44
1.0
  0
POINT
  5
2064
330
1960
100
AcDbEntity
  8
DEFPOINTS
 62
     0
100
AcDbPoint
 10
444.5397124600457
 20
3543.274616037994
 30
0.0
  0
POINT
  5
2065
330
1960
100
AcDbEntity
  8
DEFPOINTS
 62
     0
100
AcDbPoint
 10
940.9286728530057
 20
3046.885655645021
 30
0.0
  0
POINT
  5
2066
330
1960
100
AcDbEntity
  8
DEFPOINTS
 62
     0
100
AcDbPoint
 10
805.3689555037394
 20
2911.325938295759
 30
0.0
  0
ENDBLK
  5
196B
330
1960
100
AcDbEntity
  8
0
100
AcDbBlockEnd
  0
BLOCK
  5
1984
330
197A
100
AcDbEntity
  8
0
100
AcDbBlockBegin
  2
*D17
 70
     1
 10
0.0
 20
0.0
 30
0.0
  3
*D17
  1

  0
LINE
  5
2055
330
197A
100
AcDbEntity
  8
D-STR-DIM
370
    -2
100
AcDbLine
 10
642.1490189635426
 20
4010.345683849847
 30
0.0
 11
784.7798041246845
 21
4152.976469010988
 31
0.0
  0
LINE
  5
2056
330
197A
100
AcDbEntity
  8
D-STR-DIM
370
    -2
100
AcDbLine
 10
1138.537979356496
 20
3513.956723456884
 30
0.0
 11
1281.168764517637
 21
3656.587508618023
 31
0.0
  0
LINE
  5
2057
330
197A
100
AcDbEntity
  8
D-STR-DIM
370
    -2
100
AcDbLine
 10
784.7798041246843
 20
4124.692197763526
 30
0.0
 11
1252.884493270175
 21
3656.587508618025
 31
0.0
  0
INSERT
  5
2058
330
197A
100
AcDbEntity
  8
D-STR-DIM
370
    -2
100
AcDbBlockReference
  2
_OPEN30
 10
770.6376685009534
 20
4138.834333387256
 30
0.0
 41
20.0
 42
20.0
 43
20.0
 50
134.9999999999992
  0
INSERT
  5
2059
330
197A
100
AcDbEntity
  8
D-STR-DIM
370
    -2
100
AcDbBlockReference
  2
_OPEN30
 10
1267.026628893906
 20
3642.445372994291
 30
0.0
 41
20.0
 42
20.0
 43
20.0
 50
314.9999999999993
  0
MTEXT
  5
205A
330
197A
100
AcDbEntity
  8
D-STR-DIM
100
AcDbMText
 10
1036.509818227093
 20
3908.317522720438
 30
0.0
 40
30.0
 41
0.0
 71
     5
 72
     1
  1
\A1;702
 11
0.70710678118654
 21
-0.7071067811865551
 31
0.0
 73
     1
 44
1.0
  0
POINT
  5
205B
330
197A
100
AcDbEntity
  8
DEFPOINTS
 62
     0
100
AcDbPoint
 10
635.0779511516772
 20
4003.274616037983
 30
0.0
  0
POINT
  5
205C
330
197A
100
AcDbEntity
  8
DEFPOINTS
 62
     0
100
AcDbPoint
 10
1131.46691154463
 20
3506.885655645019
 30
0.0
  0
POINT
  5
205D
330
197A
100
AcDbEntity
  8
DEFPOINTS
 62
     0
100
AcDbPoint
 10
1267.026628893906
 20
3642.445372994291
 30
0.0
  0
ENDBLK
  5
1985
330
197A
100
AcDbEntity
  8
0
100
AcDbBlockEnd
  0
BLOCK
  5
19AF
330
19A5
100
AcDbEntity
  8
0
100
AcDbBlockBegin
  2
*D18
 70
     1
 10
0.0
 20
0.0
 30
0.0
  3
*D18
  1

  0
LINE
  5
208B
330
19A5
100
AcDbEntity
  8
D-STR-DIM
370
    -2
100
AcDbLine
 10
940.9286728530132
 20
3036.885655645021
 30
0.0
 11
940.9286728530132
 21
2820.84364684692
 31
0.0
  0
LINE
  5
208C
330
19A5
100
AcDbEntity
  8
D-STR-DIM
370
    -2
100
AcDbLine
 10
1833.466911544627
 20
3036.885655645019
 30
0.0
 11
1833.466911544627
 21
2820.84364684692
 31
0.0
  0
LINE
  5
208D
330
19A5
100
AcDbEntity
  8
D-STR-DIM
370
    -2
100
AcDbLine
 10
960.9286728530133
 20
2840.84364684692
 30
0.0
 11
1813.466911544628
 21
2840.84364684692
 31
0.0
  0
INSERT
  5
208E
330
19A5
100
AcDbEntity
  8
D-STR-DIM
370
    -2
100
AcDbBlockReference
  2
_OPEN30
 10
940.9286728530132
 20
2840.84364684692
 30
0.0
 41
20.0
 42
20.0
 43
20.0
 50
180.0
  0
INSERT
  5
208F
330
19A5
100
AcDbEntity
  8
D-STR-DIM
370
    -2
100
AcDbBlockReference
  2
_OPEN30
 10
1833.466911544627
 20
2840.84364684692
 30
0.0
 41
20.0
 42
20.0
 43
20.0
  0
MTEXT
  5
2090
330
19A5
100
AcDbEntity
  8
D-STR-DIM
100
AcDbMText
 10
1387.197792198819
 20
2865.84364684692
 30
0.0
 40
30.0
 41
0.0
 71
     5
 72
     1
  1
\A1;893
 73
     1
 44
1.0
  0
POINT
  5
2091
330
19A5
100
AcDbEntity
  8
DEFPOINTS
 62
     0
100
AcDbPoint
 10
940.9286728530132
 20
3046.885655645021
 30
0.0
  0
POINT
  5
2092
330
19A5
100
AcDbEntity
  8
DEFPOINTS
 62
     0
100
AcDbPoint
 10
1833.466911544627
 20
3046.885655645019
 30
0.0
  0
POINT
  5
2093
330
19A5
100
AcDbEntity
  8
DEFPOINTS
 62
     0
100
AcDbPoint
 10
1833.466911544627
 20
2840.84364684692
 30
0.0
  0
ENDBLK
  5
19B0
330
19A5
100
AcDbEntity
  8
0
100
AcDbBlockEnd
  0
BLOCK
  5
19BB
330
19B1
100
AcDbEntity
  8
0
100
AcDbBlockBegin
  2
*D19
 70
     1
 10
0.0
 20
0.0
 30
0.0
  3
*D19
  1

  0
LINE
  5
209D
330
19B1
100
AcDbEntity
  8
D-STR-DIM
370
    -2
100
AcDbLine
 10
1131.466911544637
 20
3516.885655645019
 30
0.0
 11
1131.466911544637
 21
3732.927664443118
 31
0.0
  0
LINE
  5
209E
330
19B1
100
AcDbEntity
  8
D-STR-DIM
370
    -2
100
AcDbLine
 10
1642.928672853012
 20
3516.885655645019
 30
0.0
 11
1642.928672853012
 21
3732.927664443118
 31
0.0
  0
LINE
  5
209F
330
19B1
100
AcDbEntity
  8
D-STR-DIM
370
    -2
100
AcDbLine
 10
1151.466911544636
 20
3712.927664443118
 30
0.0
 11
1622.928672853013
 21
3712.927664443118
 31
0.0
  0
INSERT
  5
20A0
330
19B1
100
AcDbEntity
  8
D-STR-DIM
370
    -2
100
AcDbBlockReference
  2
_OPEN30
 10
1131.466911544637
 20
3712.927664443118
 30
0.0
 41
20.0
 42
20.0
 43
20.0
 50
180.0
  0
INSERT
  5
20A1
330
19B1
100
AcDbEntity
  8
D-STR-DIM
370
    -2
100
AcDbBlockReference
  2
_OPEN30
 10
1642.928672853012
 20
3712.927664443118
 30
0.0
 41
20.0
 42
20.0
 43
20.0
  0
MTEXT
  5
20A2
330
19B1
100
AcDbEntity
  8
D-STR-DIM
100
AcDbMText
 10
1387.197792198825
 20
3737.927664443118
 30
0.0
 40
30.0
 41
0.0
 71
     5
 72
     1
  1
\A1;511
 73
     1
 44
1.0
  0
POINT
  5
20A3
330
19B1
100
AcDbEntity
  8
DEFPOINTS
 62
     0
100
AcDbPoint
 10
1131.466911544637
 20
3506.885655645019
 30
0.0
  0
POINT
  5
20A4
330
19B1
100
AcDbEntity
  8
DEFPOINTS
 62
     0
100
AcDbPoint
 10
1642.928672853012
 20
3506.885655645019
 30
0.0
  0
POINT
  5
20A5
330
19B1
100
AcDbEntity
  8
DEFPOINTS
 62
     0
100
AcDbPoint
 10
1642.928672853012
 20
3712.927664443118
 30
0.0
  0
ENDBLK
  5
19BC
330
19B1
100
AcDbEntity
  8
0
100
AcDbBlockEnd
  0
BLOCK
  5
19F5
330
19EB
100
AcDbEntity
  8
0
100
AcDbBlockBegin
  2
*D20
 70
     1
 10
0.0
 20
0.0
 30
0.0
  3
*D20
  1

  0
LINE
  5
2079
330
19EB
100
AcDbEntity
  8
D-STR-DIM
370
    -2
100
AcDbLine
 10
-162.1911681941419
 20
3783.274616037992
 30
0.0
 11
-162.1911681941419
 21
3857.882321025653
 31
0.0
  0
LINE
  5
207A
330
19EB
100
AcDbEntity
  8
D-STR-DIM
370
    -2
100
AcDbLine
 10
539.8088318058524
 20
3783.27461603799
 30
0.0
 11
539.8088318058524
 21
3857.882321025653
 31
0.0
  0
LINE
  5
207B
330
19EB
100
AcDbEntity
  8
D-STR-DIM
370
    -2
100
AcDbLine
 10
-142.1911681941419
 20
3837.882321025653
 30
0.0
 11
519.8088318058526
 21
3837.882321025653
 31
0.0
  0
INSERT
  5
207C
330
19EB
100
AcDbEntity
  8
D-STR-DIM
370
    -2
100
AcDbBlockReference
  2
_OPEN30
 10
-162.1911681941419
 20
3837.882321025653
 30
0.0
 41
20.0
 42
20.0
 43
20.0
 50
180.0
  0
INSERT
  5
207D
330
19EB
100
AcDbEntity
  8
D-STR-DIM
370
    -2
100
AcDbBlockReference
  2
_OPEN30
 10
539.8088318058524
 20
3837.882321025653
 30
0.0
 41
20.0
 42
20.0
 43
20.0
  0
MTEXT
  5
207E
330
19EB
100
AcDbEntity
  8
D-STR-DIM
100
AcDbMText
 10
188.8088318058553
 20
3862.882321025653
 30
0.0
 40
30.0
 41
0.0
 71
     5
 72
     1
  1
\A1;702
 73
     1
 44
1.0
  0
POINT
  5
207F
330
19EB
100
AcDbEntity
  8
DEFPOINTS
 62
     0
100
AcDbPoint
 10
-162.1911681941419
 20
3773.274616037991
 30
0.0
  0
POINT
  5
2080
330
19EB
100
AcDbEntity
  8
DEFPOINTS
 62
     0
100
AcDbPoint
 10
539.8088318058524
 20
3773.274616037991
 30
0.0
  0
POINT
  5
2081
330
19EB
100
AcDbEntity
  8
DEFPOINTS
 62
     0
100
AcDbPoint
 10
539.8088318058524
 20
3837.882321025653
 30
0.0
  0
ENDBLK
  5
19F6
330
19EB
100
AcDbEntity
  8
0
100
AcDbBlockEnd
  0
BLOCK
  5
1A25
330
1A1B
100
AcDbEntity
  8
0
100
AcDbBlockBegin
  2
*D21
 70
     1
 10
0.0
 20
0.0
 30
0.0
  3
*D21
  1

  0
LINE
  5
2067
330
1A1B
100
AcDbEntity
  8
D-STR-DIM
370
    -2
100
AcDbLine
 10
546.8798996177179
 20
3780.345683849856
 30
0.0
 11
598.8477772869726
 21
3832.313561519109
 31
0.0
  0
LINE
  5
2068
330
1A1B
100
AcDbEntity
  8
D-STR-DIM
370
    -2
100
AcDbLine
 10
1043.268860010686
 20
3283.956723456884
 30
0.0
 11
1095.236737679941
 21
3335.924601126139
 31
0.0
  0
LINE
  5
2069
330
1A1B
100
AcDbEntity
  8
D-STR-DIM
370
    -2
100
AcDbLine
 10
598.8477772869726
 20
3804.029290271648
 30
0.0
 11
1066.952466432478
 21
3335.924601126139
 31
0.0
  0
INSERT
  5
206A
330
1A1B
100
AcDbEntity
  8
D-STR-DIM
370
    -2
100
AcDbBlockReference
  2
_OPEN30
 10
584.7056416632417
 20
3818.171425895378
 30
0.0
 41
20.0
 42
20.0
 43
20.0
 50
134.9999999999998
  0
INSERT
  5
206B
330
1A1B
100
AcDbEntity
  8
D-STR-DIM
370
    -2
100
AcDbBlockReference
  2
_OPEN30
 10
1081.09460205621
 20
3321.782465502408
 30
0.0
 41
20.0
 42
20.0
 43
20.0
 50
314.9999999999998
  0
MTEXT
  5
206C
330
1A1B
100
AcDbEntity
  8
D-STR-DIM
100
AcDbMText
 10
850.5777913893897
 20
3587.654615228557
 30
0.0
 40
30.0
 41
0.0
 71
     5
 72
     1
  1
\A1;702
 11
0.7071067811865461
 21
-0.7071067811865492
 31
0.0
 73
     1
 44
1.0
  0
POINT
  5
206D
330
1A1B
100
AcDbEntity
  8
DEFPOINTS
 62
     0
100
AcDbPoint
 10
539.8088318058524
 20
3773.27461603799
 30
0.0
  0
POINT
  5
206E
330
1A1B
100
AcDbEntity
  8
DEFPOINTS
 62
     0
100
AcDbPoint
 10
1036.197792198821
 20
3276.885655645019
 30
0.0
  0
POINT
  5
206F
330
1A1B
100
AcDbEntity
  8
DEFPOINTS
 62
     0
100
AcDbPoint
 10
1081.09460205621
 20
3321.782465502408
 30
0.0
  0
ENDBLK
  5
1A26
330
1A1B
100
AcDbEntity
  8
0
100
AcDbBlockEnd
  0
BLOCK
  5
1A3F
330
1A35
100
AcDbEntity
  8
0
100
AcDbBlockBegin
  2
*D22
 70
     1
 10
0.0
 20
0.0
 30
0.0
  3
*D22
  1

  0
LINE
  5
2094
330
1A35
100
AcDbEntity
  8
D-STR-DIM
370
    -2
100
AcDbLine
 10
1036.197792198817
 20
3286.88565564502
 30
0.0
 11
1036.197792198817
 21
3361.493360632681
 31
0.0
  0
LINE
  5
2095
330
1A35
100
AcDbEntity
  8
D-STR-DIM
370
    -2
100
AcDbLine
 10
1738.197792198829
 20
3286.885655645017
 30
0.0
 11
1738.197792198829
 21
3361.493360632681
 31
0.0
  0
LINE
  5
2096
330
1A35
100
AcDbEntity
  8
D-STR-DIM
370
    -2
100
AcDbLine
 10
1056.197792198818
 20
3341.493360632681
 30
0.0
 11
1718.197792198829
 21
3341.493360632681
 31
0.0
  0
INSERT
  5
2097
330
1A35
100
AcDbEntity
  8
D-STR-DIM
370
    -2
100
AcDbBlockReference
  2
_OPEN30
 10
1036.197792198817
 20
3341.493360632681
 30
0.0
 41
20.0
 42
20.0
 43
20.0
 50
180.0
  0
INSERT
  5
2098
330
1A35
100
AcDbEntity
  8
D-STR-DIM
370
    -2
100
AcDbBlockReference
  2
_OPEN30
 10
1738.197792198829
 20
3341.493360632681
 30
0.0
 41
20.0
 42
20.0
 43
20.0
  0
MTEXT
  5
2099
330
1A35
100
AcDbEntity
  8
D-STR-DIM
100
AcDbMText
 10
1387.197792198823
 20
3366.493360632681
 30
0.0
 40
30.0
 41
0.0
 71
     5
 72
     1
  1
\A1;702
 73
     1
 44
1.0
  0
POINT
  5
209A
330
1A35
100
AcDbEntity
  8
DEFPOINTS
 62
     0
100
AcDbPoint
 10
1036.197792198817
 20
3276.88565564502
 30
0.0
  0
POINT
  5
209B
330
1A35
100
AcDbEntity
  8
DEFPOINTS
 62
     0
100
AcDbPoint
 10
1738.197792198829
 20
3276.885655645019
 30
0.0
  0
POINT
  5
209C
330
1A35
100
AcDbEntity
  8
DEFPOINTS
 62
     0
100
AcDbPoint
 10
1738.197792198829
 20
3341.493360632681
 30
0.0
  0
ENDBLK
  5
1A40
330
1A35
100
AcDbEntity
  8
0
100
AcDbBlockEnd
  0
BLOCK
  5
1C25
330
1C1B
100
AcDbEntity
  8
0
100
AcDbBlockBegin
  2
*D23
 70
     1
 10
0.0
 20
0.0
 30
0.0
  3
*D23
  1

  0
LINE
  5
20AF
330
1C1B
100
AcDbEntity
  8
D-STR-DIM
370
    -2
100
AcDbLine
 10
654.5754258347176
 20
1380.345968849849
 30
0.0
 11
790.9712310454742
 21
1516.741774060605
 31
0.0
  0
LINE
  5
20B0
330
1C1B
100
AcDbEntity
  8
D-STR-DIM
370
    -2
100
AcDbLine
 10
1150.96438622767
 20
883.9570084568928
 30
0.0
 11
1287.360191438426
 21
1020.352813667648
 31
0.0
  0
LINE
  5
20B1
330
1C1B
100
AcDbEntity
  8
D-STR-DIM
370
    -2
100
AcDbLine
 10
790.9712310454739
 20
1488.457502813143
 30
0.0
 11
1259.075920190965
 21
1020.352813667648
 31
0.0
  0
INSERT
  5
20B2
330
1C1B
100
AcDbEntity
  8
D-STR-DIM
370
    -2
100
AcDbBlockReference
  2
_OPEN30
 10
776.8290954217433
 20
1502.599638436874
 30
0.0
 41
20.0
 42
20.0
 43
20.0
 50
134.9999999999998
  0
INSERT
  5
20B3
330
1C1B
100
AcDbEntity
  8
D-STR-DIM
370
    -2
100
AcDbBlockReference
  2
_OPEN30
 10
1273.218055814696
 20
1006.210678043917
 30
0.0
 41
20.0
 42
20.0
 43
20.0
 50
314.9999999999997
  0
MTEXT
  5
20B4
330
1C1B
100
AcDbEntity
  8
D-STR-DIM
100
AcDbMText
 10
1042.701245147882
 20
1272.082827770059
 30
0.0
 40
30.0
 41
0.0
 71
     5
 72
     1
  1
\A1;702
 11
0.7071067811865452
 21
-0.7071067811865502
 31
0.0
 73
     1
 44
1.0
  0
POINT
  5
20B5
330
1C1B
100
AcDbEntity
  8
DEFPOINTS
 62
     0
100
AcDbPoint
 10
647.5043580228521
 20
1373.274901037984
 30
0.0
  0
POINT
  5
20B6
330
1C1B
100
AcDbEntity
  8
DEFPOINTS
 62
     0
100
AcDbPoint
 10
1143.893318415803
 20
876.8859406450273
 30
0.0
  0
POINT
  5
20B7
330
1C1B
100
AcDbEntity
  8
DEFPOINTS
 62
     0
100
AcDbPoint
 10
1273.218055814696
 20
1006.210678043917
 30
0.0
  0
ENDBLK
  5
1C26
330
1C1B
100
AcDbEntity
  8
0
100
AcDbBlockEnd
  0
BLOCK
  5
1C31
330
1C27
100
AcDbEntity
  8
0
100
AcDbBlockBegin
  2
*D24
 70
     1
 10
0.0
 20
0.0
 30
0.0
  3
*D24
  1

  0
LINE
  5
20E5
330
1C27
100
AcDbEntity
  8
D-STR-DIM
370
    -2
100
AcDbLine
 10
1143.893318415803
 20
886.8859406450273
 30
0.0
 11
1143.893318415803
 21
1102.927949443109
 31
0.0
  0
LINE
  5
20E6
330
1C27
100
AcDbEntity
  8
D-STR-DIM
370
    -2
100
AcDbLine
 10
1630.502265981788
 20
886.8859406450273
 30
0.0
 11
1630.502265981788
 21
1102.927949443109
 31
0.0
  0
LINE
  5
20E7
330
1C27
100
AcDbEntity
  8
D-STR-DIM
370
    -2
100
AcDbLine
 10
1163.893318415805
 20
1082.927949443109
 30
0.0
 11
1610.502265981787
 21
1082.927949443109
 31
0.0
  0
INSERT
  5
20E8
330
1C27
100
AcDbEntity
  8
D-STR-DIM
370
    -2
100
AcDbBlockReference
  2
_OPEN30
 10
1143.893318415803
 20
1082.927949443109
 30
0.0
 41
20.0
 42
20.0
 43
20.0
 50
180.0
  0
INSERT
  5
20E9
330
1C27
100
AcDbEntity
  8
D-STR-DIM
370
    -2
100
AcDbBlockReference
  2
_OPEN30
 10
1630.502265981788
 20
1082.927949443109
 30
0.0
 41
20.0
 42
20.0
 43
20.0
  0
MTEXT
  5
20EA
330
1C27
100
AcDbEntity
  8
D-STR-DIM
100
AcDbMText
 10
1387.197792198796
 20
1107.927949443109
 30
0.0
 40
30.0
 41
0.0
 71
     5
 72
     1
  1
\A1;487
 73
     1
 44
1.0
  0
POINT
  5
20EB
330
1C27
100
AcDbEntity
  8
DEFPOINTS
 62
     0
100
AcDbPoint
 10
1143.893318415803
 20
876.8859406450273
 30
0.0
  0
POINT
  5
20EC
330
1C27
100
AcDbEntity
  8
DEFPOINTS
 62
     0
100
AcDbPoint
 10
1630.502265981788
 20
876.8859406450273
 30
0.0
  0
POINT
  5
20ED
330
1C27
100
AcDbEntity
  8
DEFPOINTS
 62
     0
100
AcDbPoint
 10
1630.502265981788
 20
1082.927949443109
 30
0.0
  0
ENDBLK
  5
1C32
330
1C27
100
AcDbEntity
  8
0
100
AcDbBlockEnd
  0
BLOCK
  5
1C3D
330
1C33
100
AcDbEntity
  8
0
100
AcDbBlockBegin
  2
*D25
 70
     1
 10
0.0
 20
0.0
 30
0.0
  3
*D25
  1

  0
LINE
  5
20D3
330
1C33
100
AcDbEntity
  8
D-STR-DIM
370
    -2
100
AcDbLine
 10
-162.1911681941528
 20
1383.274901037983
 30
0.0
 11
-162.1911681941528
 21
1599.316909836083
 31
0.0
  0
LINE
  5
20D4
330
1C33
100
AcDbEntity
  8
D-STR-DIM
370
    -2
100
AcDbLine
 10
647.5043580228448
 20
1383.274901037994
 30
0.0
 11
647.5043580228448
 21
1599.316909836083
 31
0.0
  0
LINE
  5
20D5
330
1C33
100
AcDbEntity
  8
D-STR-DIM
370
    -2
100
AcDbLine
 10
-142.1911681941528
 20
1579.316909836083
 30
0.0
 11
627.5043580228448
 21
1579.316909836083
 31
0.0
  0
INSERT
  5
20D6
330
1C33
100
AcDbEntity
  8
D-STR-DIM
370
    -2
100
AcDbBlockReference
  2
_OPEN30
 10
-162.1911681941528
 20
1579.316909836083
 30
0.0
 41
20.0
 42
20.0
 43
20.0
 50
180.0
  0
INSERT
  5
20D7
330
1C33
100
AcDbEntity
  8
D-STR-DIM
370
    -2
100
AcDbBlockReference
  2
_OPEN30
 10
647.5043580228448
 20
1579.316909836083
 30
0.0
 41
20.0
 42
20.0
 43
20.0
  0
MTEXT
  5
20D8
330
1C33
100
AcDbEntity
  8
D-STR-DIM
100
AcDbMText
 10
242.6565949143459
 20
1604.316909836083
 30
0.0
 40
30.0
 41
0.0
 71
     5
 72
     1
  1
\A1;810
 73
     1
 44
1.0
  0
POINT
  5
20D9
330
1C33
100
AcDbEntity
  8
DEFPOINTS
 62
     0
100
AcDbPoint
 10
-162.1911681941528
 20
1373.274901037984
 30
0.0
  0
POINT
  5
20DA
330
1C33
100
AcDbEntity
  8
DEFPOINTS
 62
     0
100
AcDbPoint
 10
647.5043580228448
 20
1373.274901037993
 30
0.0
  0
POINT
  5
20DB
330
1C33
100
AcDbEntity
  8
DEFPOINTS
 62
     0
100
AcDbPoint
 10
647.5043580228448
 20
1579.316909836083
 30
0.0
  0
ENDBLK
  5
1C3E
330
1C33
100
AcDbEntity
  8
0
100
AcDbBlockEnd
  0
BLOCK
  5
1C96
330
1C8C
100
AcDbEntity
  8
0
100
AcDbBlockBegin
  2
*D26
 70
     1
 10
0.0
 20
0.0
 30
0.0
  3
*D26
  1

  0
LINE
  5
20CA
330
1C8C
100
AcDbEntity
  8
D-STR-DIM
370
    -2
100
AcDbLine
 10
-162.1911681941528
 20
843.2749010379836
 30
0.0
 11
-162.1911681941528
 21
627.2328922398846
 31
0.0
  0
LINE
  5
20CB
330
1C8C
100
AcDbEntity
  8
D-STR-DIM
370
    -2
100
AcDbLine
 10
432.1133055888421
 20
843.2749010379836
 30
0.0
 11
432.1133055888421
 21
627.2328922398846
 31
0.0
  0
LINE
  5
20CC
330
1C8C
100
AcDbEntity
  8
D-STR-DIM
370
    -2
100
AcDbLine
 10
-142.1911681941528
 20
647.2328922398847
 30
0.0
 11
412.1133055888421
 21
647.2328922398847
 31
0.0
  0
INSERT
  5
20CD
330
1C8C
100
AcDbEntity
  8
D-STR-DIM
370
    -2
100
AcDbBlockReference
  2
_OPEN30
 10
-162.1911681941528
 20
647.2328922398847
 30
0.0
 41
20.0
 42
20.0
 43
20.0
 50
180.0
  0
INSERT
  5
20CE
330
1C8C
100
AcDbEntity
  8
D-STR-DIM
370
    -2
100
AcDbBlockReference
  2
_OPEN30
 10
432.1133055888421
 20
647.2328922398847
 30
0.0
 41
20.0
 42
20.0
 43
20.0
  0
MTEXT
  5
20CF
330
1C8C
100
AcDbEntity
  8
D-STR-DIM
100
AcDbMText
 10
134.9610686973445
 20
672.2328922398847
 30
0.0
 40
30.0
 41
0.0
 71
     5
 72
     1
  1
\A1;594
 73
     1
 44
1.0
  0
POINT
  5
20D0
330
1C8C
100
AcDbEntity
  8
DEFPOINTS
 62
     0
100
AcDbPoint
 10
-162.1911681941528
 20
853.274901037984
 30
0.0
  0
POINT
  5
20D1
330
1C8C
100
AcDbEntity
  8
DEFPOINTS
 62
     0
100
AcDbPoint
 10
432.1133055888421
 20
853.274901037984
 30
0.0
  0
POINT
  5
20D2
330
1C8C
100
AcDbEntity
  8
DEFPOINTS
 62
     0
100
AcDbPoint
 10
432.1133055888421
 20
647.2328922398847
 30
0.0
  0
ENDBLK
  5
1C97
330
1C8C
100
AcDbEntity
  8
0
100
AcDbBlockEnd
  0
BLOCK
  5
1CA2
330
1C98
100
AcDbEntity
  8
0
100
AcDbBlockBegin
  2
*D27
 70
     1
 10
0.0
 20
0.0
 30
0.0
  3
*D27
  1

  0
LINE
  5
20DC
330
1C98
100
AcDbEntity
  8
D-STR-DIM
370
    -2
100
AcDbLine
 10
928.5022659818023
 20
346.8859406450274
 30
0.0
 11
928.5022659818023
 21
130.8439318469118
 31
0.0
  0
LINE
  5
20DD
330
1C98
100
AcDbEntity
  8
D-STR-DIM
370
    -2
100
AcDbLine
 10
1845.893318415805
 20
346.8859406450274
 30
0.0
 11
1845.893318415805
 21
130.8439318469118
 31
0.0
  0
LINE
  5
20DE
330
1C98
100
AcDbEntity
  8
D-STR-DIM
370
    -2
100
AcDbLine
 10
948.5022659818023
 20
150.8439318469118
 30
0.0
 11
1825.893318415804
 21
150.8439318469118
 31
0.0
  0
INSERT
  5
20DF
330
1C98
100
AcDbEntity
  8
D-STR-DIM
370
    -2
100
AcDbBlockReference
  2
_OPEN30
 10
928.5022659818023
 20
150.8439318469118
 30
0.0
 41
20.0
 42
20.0
 43
20.0
 50
180.0
  0
INSERT
  5
20E0
330
1C98
100
AcDbEntity
  8
D-STR-DIM
370
    -2
100
AcDbBlockReference
  2
_OPEN30
 10
1845.893318415805
 20
150.8439318469118
 30
0.0
 41
20.0
 42
20.0
 43
20.0
  0
MTEXT
  5
20E1
330
1C98
100
AcDbEntity
  8
D-STR-DIM
100
AcDbMText
 10
1387.197792198803
 20
175.8439318469118
 30
0.0
 40
30.0
 41
0.0
 71
     5
 72
     1
  1
\A1;917
 73
     1
 44
1.0
  0
POINT
  5
20E2
330
1C98
100
AcDbEntity
  8
DEFPOINTS
 62
     0
100
AcDbPoint
 10
928.5022659818023
 20
356.8859406450274
 30
0.0
  0
POINT
  5
20E3
330
1C98
100
AcDbEntity
  8
DEFPOINTS
 62
     0
100
AcDbPoint
 10
1845.893318415805
 20
356.8859406450274
 30
0.0
  0
POINT
  5
20E4
330
1C98
100
AcDbEntity
  8
DEFPOINTS
 62
     0
100
AcDbPoint
 10
1845.893318415805
 20
150.8439318469118
 30
0.0
  0
ENDBLK
  5
1CA3
330
1C98
100
AcDbEntity
  8
0
100
AcDbBlockEnd
  0
BLOCK
  5
1CB7
330
1CAD
100
AcDbEntity
  8
0
100
AcDbBlockBegin
  2
*D28
 70
     1
 10
0.0
 20
0.0
 30
0.0
  3
*D28
  1

  0
LINE
  5
20B8
330
1CAD
100
AcDbEntity
  8
D-STR-DIM
370
    -2
100
AcDbLine
 10
425.0422377769766
 20
846.2038332261183
 30
0.0
 11
288.6453692290843
 21
709.8069646782269
 31
0.0
  0
LINE
  5
20B9
330
1CAD
100
AcDbEntity
  8
D-STR-DIM
370
    -2
100
AcDbLine
 10
921.4311981699292
 20
349.8148728331619
 30
0.0
 11
785.0343296220371
 21
213.4180042852705
 31
0.0
  0
LINE
  5
20BA
330
1CAD
100
AcDbEntity
  8
D-STR-DIM
370
    -2
100
AcDbLine
 10
316.9296404765461
 20
709.8069646782269
 30
0.0
 11
785.0343296220374
 21
241.7022755327324
 31
0.0
  0
INSERT
  5
20BB
330
1CAD
100
AcDbEntity
  8
D-STR-DIM
370
    -2
100
AcDbBlockReference
  2
_OPEN30
 10
302.7875048528153
 20
723.9491003019577
 30
0.0
 41
20.0
 42
20.0
 43
20.0
 50
134.9999999999998
  0
INSERT
  5
20BC
330
1CAD
100
AcDbEntity
  8
D-STR-DIM
370
    -2
100
AcDbBlockReference
  2
_OPEN30
 10
799.1764652457683
 20
227.5601399090014
 30
0.0
 41
20.0
 42
20.0
 43
20.0
 50
314.9999999999997
  0
MTEXT
  5
20BD
330
1CAD
100
AcDbEntity
  8
D-STR-DIM
100
AcDbMText
 10
568.6596545789556
 20
493.4322896351433
 30
0.0
 40
30.0
 41
0.0
 71
     5
 72
     1
  1
\A1;702
 11
0.7071067811865452
 21
-0.7071067811865502
 31
0.0
 73
     1
 44
1.0
  0
POINT
  5
20BE
330
1CAD
100
AcDbEntity
  8
DEFPOINTS
 62
     0
100
AcDbPoint
 10
432.1133055888423
 20
853.274901037984
 30
0.0
  0
POINT
  5
20BF
330
1CAD
100
AcDbEntity
  8
DEFPOINTS
 62
     0
100
AcDbPoint
 10
928.5022659817952
 20
356.8859406450274
 30
0.0
  0
POINT
  5
20C0
330
1CAD
100
AcDbEntity
  8
DEFPOINTS
 62
     0
100
AcDbPoint
 10
799.1764652457683
 20
227.5601399090014
 30
0.0
  0
ENDBLK
  5
1CB8
330
1CAD
100
AcDbEntity
  8
0
100
AcDbBlockEnd
  0
BLOCK
  5
1D09
330
1CFF
100
AcDbEntity
  8
0
100
AcDbBlockBegin
  2
*D29
 70
     1
 10
0.0
 20
0.0
 30
0.0
  3
*D29
  1

  0
LINE
  5
20EE
330
1CFF
100
AcDbEntity
  8
D-STR-DIM
370
    -2
100
AcDbLine
 10
1036.197792198807
 20
626.8859406450119
 30
0.0
 11
1036.197792198807
 21
701.4936456326731
 31
0.0
  0
LINE
  5
20EF
330
1CFF
100
AcDbEntity
  8
D-STR-DIM
370
    -2
100
AcDbLine
 10
1738.197792198818
 20
626.885940645011
 30
0.0
 11
1738.197792198818
 21
701.4936456326731
 31
0.0
  0
LINE
  5
20F0
330
1CFF
100
AcDbEntity
  8
D-STR-DIM
370
    -2
100
AcDbLine
 10
1056.197792198807
 20
681.4936456326733
 30
0.0
 11
1718.197792198818
 21
681.4936456326733
 31
0.0
  0
INSERT
  5
20F1
330
1CFF
100
AcDbEntity
  8
D-STR-DIM
370
    -2
100
AcDbBlockReference
  2
_OPEN30
 10
1036.197792198807
 20
681.4936456326733
 30
0.0
 41
20.0
 42
20.0
 43
20.0
 50
180.0
  0
INSERT
  5
20F2
330
1CFF
100
AcDbEntity
  8
D-STR-DIM
370
    -2
100
AcDbBlockReference
  2
_OPEN30
 10
1738.197792198818
 20
681.4936456326733
 30
0.0
 41
20.0
 42
20.0
 43
20.0
  0
MTEXT
  5
20F3
330
1CFF
100
AcDbEntity
  8
D-STR-DIM
100
AcDbMText
 10
1387.197792198811
 20
706.4936456326732
 30
0.0
 40
30.0
 41
0.0
 71
     5
 72
     1
  1
\A1;702
 73
     1
 44
1.0
  0
POINT
  5
20F4
330
1CFF
100
AcDbEntity
  8
DEFPOINTS
 62
     0
100
AcDbPoint
 10
1036.197792198807
 20
616.8859406450119
 30
0.0
  0
POINT
  5
20F5
330
1CFF
100
AcDbEntity
  8
DEFPOINTS
 62
     0
100
AcDbPoint
 10
1738.197792198818
 20
616.885940645011
 30
0.0
  0
POINT
  5
20F6
330
1CFF
100
AcDbEntity
  8
DEFPOINTS
 62
     0
100
AcDbPoint
 10
1738.197792198818
 20
681.4936456326733
 30
0.0
  0
ENDBLK
  5
1D0A
330
1CFF
100
AcDbEntity
  8
0
100
AcDbBlockEnd
  0
BLOCK
  5
1D15
330
1D0B
100
AcDbEntity
  8
0
100
AcDbBlockBegin
  2
*D30
 70
     1
 10
0.0
 20
0.0
 30
0.0
  3
*D30
  1

  0
LINE
  5
20C1
330
1D0B
100
AcDbEntity
  8
D-STR-DIM
370
    -2
100
AcDbLine
 10
-162.1911681941528
 20
1123.274901037982
 30
0.0
 11
-162.1911681941528
 21
1197.882606025645
 31
0.0
  0
LINE
  5
20C2
330
1D0B
100
AcDbEntity
  8
D-STR-DIM
370
    -2
100
AcDbLine
 10
539.8088318058417
 20
1123.274901037982
 30
0.0
 11
539.8088318058417
 21
1197.882606025645
 31
0.0
  0
LINE
  5
20C3
330
1D0B
100
AcDbEntity
  8
D-STR-DIM
370
    -2
100
AcDbLine
 10
-142.1911681941528
 20
1177.882606025644
 30
0.0
 11
519.8088318058417
 21
1177.882606025644
 31
0.0
  0
INSERT
  5
20C4
330
1D0B
100
AcDbEntity
  8
D-STR-DIM
370
    -2
100
AcDbBlockReference
  2
_OPEN30
 10
-162.1911681941528
 20
1177.882606025644
 30
0.0
 41
20.0
 42
20.0
 43
20.0
 50
180.0
  0
INSERT
  5
20C5
330
1D0B
100
AcDbEntity
  8
D-STR-DIM
370
    -2
100
AcDbBlockReference
  2
_OPEN30
 10
539.8088318058417
 20
1177.882606025644
 30
0.0
 41
20.0
 42
20.0
 43
20.0
  0
MTEXT
  5
20C6
330
1D0B
100
AcDbEntity
  8
D-STR-DIM
100
AcDbMText
 10
188.8088318058444
 20
1202.882606025645
 30
0.0
 40
30.0
 41
0.0
 71
     5
 72
     1
  1
\A1;702
 73
     1
 44
1.0
  0
POINT
  5
20C7
330
1D0B
100
AcDbEntity
  8
DEFPOINTS
 62
     0
100
AcDbPoint
 10
-162.1911681941528
 20
1113.274901037984
 30
0.0
  0
POINT
  5
20C8
330
1D0B
100
AcDbEntity
  8
DEFPOINTS
 62
     0
100
AcDbPoint
 10
539.8088318058417
 20
1113.274901037983
 30
0.0
  0
POINT
  5
20C9
330
1D0B
100
AcDbEntity
  8
DEFPOINTS
 62
     0
100
AcDbPoint
 10
539.8088318058417
 20
1177.882606025644
 30
0.0
  0
ENDBLK
  5
1D16
330
1D0B
100
AcDbEntity
  8
0
100
AcDbBlockEnd
  0
BLOCK
  5
1D21
330
1D17
100
AcDbEntity
  8
0
100
AcDbBlockBegin
  2
*D31
 70
     1
 10
0.0
 20
0.0
 30
0.0
  3
*D31
  1

  0
LINE
  5
20A6
330
1D17
100
AcDbEntity
  8
D-STR-DIM
370
    -2
100
AcDbLine
 10
546.879899617707
 20
1120.345968849848
 30
0.0
 11
598.8477772869601
 21
1172.3138465191
 31
0.0
  0
LINE
  5
20A7
330
1D17
100
AcDbEntity
  8
D-STR-DIM
370
    -2
100
AcDbLine
 10
1043.268860010676
 20
623.9570084568772
 30
0.0
 11
1095.236737679929
 21
675.9248861261302
 31
0.0
  0
LINE
  5
20A8
330
1D17
100
AcDbEntity
  8
D-STR-DIM
370
    -2
100
AcDbLine
 10
598.8477772869601
 20
1144.029575271639
 30
0.0
 11
1066.952466432466
 21
675.9248861261302
 31
0.0
  0
INSERT
  5
20A9
330
1D17
100
AcDbEntity
  8
D-STR-DIM
370
    -2
100
AcDbBlockReference
  2
_OPEN30
 10
584.7056416632295
 20
1158.171710895369
 30
0.0
 41
20.0
 42
20.0
 43
20.0
 50
134.9999999999998
  0
INSERT
  5
20AA
330
1D17
100
AcDbEntity
  8
D-STR-DIM
370
    -2
100
AcDbBlockReference
  2
_OPEN30
 10
1081.094602056198
 20
661.7827505023992
 30
0.0
 41
20.0
 42
20.0
 43
20.0
 50
314.9999999999998
  0
MTEXT
  5
20AB
330
1D17
100
AcDbEntity
  8
D-STR-DIM
100
AcDbMText
 10
850.5777913893776
 20
927.6549002285488
 30
0.0
 40
30.0
 41
0.0
 71
     5
 72
     1
  1
\A1;702
 11
0.7071067811865461
 21
-0.7071067811865492
 31
0.0
 73
     1
 44
1.0
  0
POINT
  5
20AC
330
1D17
100
AcDbEntity
  8
DEFPOINTS
 62
     0
100
AcDbPoint
 10
539.8088318058413
 20
1113.274901037982
 30
0.0
  0
POINT
  5
20AD
330
1D17
100
AcDbEntity
  8
DEFPOINTS
 62
     0
100
AcDbPoint
 10
1036.197792198809
 20
616.8859406450117
 30
0.0
  0
POINT
  5
20AE
330
1D17
100
AcDbEntity
  8
DEFPOINTS
 62
     0
100
AcDbPoint
 10
1081.094602056198
 20
661.7827505023992
 30
0.0
  0
ENDBLK
  5
1D22
330
1D17
100
AcDbEntity
  8
0
100
AcDbBlockEnd
  0
BLOCK
  5
22C5
330
22BB
100
AcDbEntity
  8
0
100
AcDbBlockBegin
  2
*D32
 70
     1
 10
0.0
 20
0.0
 30
0.0
  3
*D32
  1

  0
LINE
  5
2C43
330
22BB
100
AcDbEntity
  8
D-STR-DIM
370
    -2
100
AcDbLine
 10
5152.783320551677
 20
1438.467603499288
 30
0.0
 11
5282.975648396663
 21
1438.467603499288
 31
0.0
  0
LINE
  5
2C44
330
22BB
100
AcDbEntity
  8
D-STR-DIM
370
    -2
100
AcDbLine
 10
5152.78332055168
 20
1087.467603499288
 30
0.0
 11
5282.975648396663
 21
1087.467603499288
 31
0.0
  0
LINE
  5
2C45
330
22BB
100
AcDbEntity
  8
D-STR-DIM
370
    -2
100
AcDbLine
 10
5262.975648396663
 20
1418.467603499288
 30
0.0
 11
5262.975648396663
 21
1107.467603499288
 31
0.0
  0
INSERT
  5
2C46
330
22BB
100
AcDbEntity
  8
D-STR-DIM
370
    -2
100
AcDbBlockReference
  2
_OPEN30
 10
5262.975648396663
 20
1438.467603499288
 30
0.0
 41
20.0
 42
20.0
 43
20.0
 50
90.0
  0
INSERT
  5
2C47
330
22BB
100
AcDbEntity
  8
D-STR-DIM
370
    -2
100
AcDbBlockReference
  2
_OPEN30
 10
5262.975648396663
 20
1087.467603499288
 30
0.0
 41
20.0
 42
20.0
 43
20.0
 50
270.0
  0
MTEXT
  5
2C48
330
22BB
100
AcDbEntity
  8
D-STR-DIM
100
AcDbMText
 10
5237.975648396663
 20
1262.967603499289
 30
0.0
 40
30.0
 41
0.0
 71
     5
 72
     1
  1
\A1;351
 11
0.0000000000000001
 21
1.0
 31
0.0
 73
     1
 44
1.0
  0
POINT
  5
2C49
330
22BB
100
AcDbEntity
  8
DEFPOINTS
 62
     0
100
AcDbPoint
 10
5142.783320551676
 20
1438.467603499288
 30
0.0
  0
POINT
  5
2C4A
330
22BB
100
AcDbEntity
  8
DEFPOINTS
 62
     0
100
AcDbPoint
 10
5142.783320551679
 20
1087.467603499288
 30
0.0
  0
POINT
  5
2C4B
330
22BB
100
AcDbEntity
  8
DEFPOINTS
 62
     0
100
AcDbPoint
 10
5262.975648396663
 20
1087.467603499288
 30
0.0
  0
ENDBLK
  5
22C6
330
22BB
100
AcDbEntity
  8
0
100
AcDbBlockEnd
  0
BLOCK
  5
22D1
330
22C7
100
AcDbEntity
  8
0
100
AcDbBlockBegin
  2
*D33
 70
     1
 10
0.0
 20
0.0
 30
0.0
  3
*D33
  1

  0
LINE
  5
2C4C
330
22C7
100
AcDbEntity
  8
D-STR-DIM
370
    -2
100
AcDbLine
 10
5357.975648396664
 20
1523.467603499288
 30
0.0
 11
5567.975648396663
 21
1523.467603499288
 31
0.0
  0
LINE
  5
2C4D
330
22C7
100
AcDbEntity
  8
D-STR-DIM
370
    -2
100
AcDbLine
 10
5357.78332055168
 20
1087.467603499288
 30
0.0
 11
5567.975648396663
 21
1087.467603499288
 31
0.0
  0
LINE
  5
2C4E
330
22C7
100
AcDbEntity
  8
D-STR-DIM
370
    -2
100
AcDbLine
 10
5547.975648396663
 20
1503.467603499288
 30
0.0
 11
5547.975648396663
 21
1107.467603499288
 31
0.0
  0
INSERT
  5
2C4F
330
22C7
100
AcDbEntity
  8
D-STR-DIM
370
    -2
100
AcDbBlockReference
  2
_OPEN30
 10
5547.975648396663
 20
1523.467603499288
 30
0.0
 41
20.0
 42
20.0
 43
20.0
 50
90.0
  0
INSERT
  5
2C50
330
22C7
100
AcDbEntity
  8
D-STR-DIM
370
    -2
100
AcDbBlockReference
  2
_OPEN30
 10
5547.975648396663
 20
1087.467603499288
 30
0.0
 41
20.0
 42
20.0
 43
20.0
 50
270.0
  0
MTEXT
  5
2C51
330
22C7
100
AcDbEntity
  8
D-STR-DIM
100
AcDbMText
 10
5522.975648396663
 20
1305.467603499289
 30
0.0
 40
30.0
 41
0.0
 71
     5
 72
     1
  1
\A1;436
 11
0.0000000000000001
 21
1.0
 31
0.0
 73
     1
 44
1.0
  0
POINT
  5
2C52
330
22C7
100
AcDbEntity
  8
DEFPOINTS
 62
     0
100
AcDbPoint
 10
5347.975648396663
 20
1523.467603499288
 30
0.0
  0
POINT
  5
2C53
330
22C7
100
AcDbEntity
  8
DEFPOINTS
 62
     0
100
AcDbPoint
 10
5347.78332055168
 20
1087.467603499288
 30
0.0
  0
POINT
  5
2C54
330
22C7
100
AcDbEntity
  8
DEFPOINTS
 62
     0
100
AcDbPoint
 10
5547.975648396663
 20
1087.467603499288
 30
0.0
  0
ENDBLK
  5
22D2
330
22C7
100
AcDbEntity
  8
0
100
AcDbBlockEnd
  0
BLOCK
  5
22DD
330
22D3
100
AcDbEntity
  8
0
100
AcDbBlockBegin
  2
*D34
 70
     1
 10
0.0
 20
0.0
 30
0.0
  3
*D34
  1

  0
LINE
  5
2C3A
330
22D3
100
AcDbEntity
  8
D-STR-DIM
370
    -2
100
AcDbLine
 10
4927.78332055168
 20
1353.467603499288
 30
0.0
 11
4717.975648396662
 21
1353.467603499288
 31
0.0
  0
LINE
  5
2C3B
330
22D3
100
AcDbEntity
  8
D-STR-DIM
370
    -2
100
AcDbLine
 10
4927.78332055168
 20
1087.467603499288
 30
0.0
 11
4717.975648396662
 21
1087.467603499288
 31
0.0
  0
LINE
  5
2C3C
330
22D3
100
AcDbEntity
  8
D-STR-DIM
370
    -2
100
AcDbLine
 10
4737.975648396663
 20
1333.467603499288
 30
0.0
 11
4737.975648396663
 21
1107.467603499288
 31
0.0
  0
INSERT
  5
2C3D
330
22D3
100
AcDbEntity
  8
D-STR-DIM
370
    -2
100
AcDbBlockReference
  2
_OPEN30
 10
4737.975648396663
 20
1353.467603499288
 30
0.0
 41
20.0
 42
20.0
 43
20.0
 50
90.0
  0
INSERT
  5
2C3E
330
22D3
100
AcDbEntity
  8
D-STR-DIM
370
    -2
100
AcDbBlockReference
  2
_OPEN30
 10
4737.975648396663
 20
1087.467603499288
 30
0.0
 41
20.0
 42
20.0
 43
20.0
 50
270.0
  0
MTEXT
  5
2C3F
330
22D3
100
AcDbEntity
  8
D-STR-DIM
100
AcDbMText
 10
4712.975648396663
 20
1220.467603499288
 30
0.0
 40
30.0
 41
0.0
 71
     5
 72
     1
  1
\A1;266
 11
0.0000000000000001
 21
1.0
 31
0.0
 73
     1
 44
1.0
  0
POINT
  5
2C40
330
22D3
100
AcDbEntity
  8
DEFPOINTS
 62
     0
100
AcDbPoint
 10
4937.78332055168
 20
1353.467603499288
 30
0.0
  0
POINT
  5
2C41
330
22D3
100
AcDbEntity
  8
DEFPOINTS
 62
     0
100
AcDbPoint
 10
4937.78332055168
 20
1087.467603499288
 30
0.0
  0
POINT
  5
2C42
330
22D3
100
AcDbEntity
  8
DEFPOINTS
 62
     0
100
AcDbPoint
 10
4737.975648396663
 20
1087.467603499288
 30
0.0
  0
ENDBLK
  5
22DE
330
22D3
100
AcDbEntity
  8
0
100
AcDbBlockEnd
  0
BLOCK
  5
22E9
330
22DF
100
AcDbEntity
  8
0
100
AcDbBlockBegin
  2
*D35
 70
     1
 10
0.0
 20
0.0
 30
0.0
  3
*D35
  1

  0
LINE
  5
2C16
330
22DF
100
AcDbEntity
  8
D-STR-DIM
370
    -2
100
AcDbLine
 10
4927.975648396663
 20
87.46760349928447
 30
0.0
 11
4717.975648396662
 21
87.46760349928448
 31
0.0
  0
LINE
  5
2C17
330
22DF
100
AcDbEntity
  8
D-STR-DIM
370
    -2
100
AcDbLine
 10
4927.975648396663
 20
523.467603499288
 30
0.0
 11
4717.975648396662
 21
523.467603499288
 31
0.0
  0
LINE
  5
2C18
330
22DF
100
AcDbEntity
  8
D-STR-DIM
370
    -2
100
AcDbLine
 10
4737.975648396663
 20
107.4676034992845
 30
0.0
 11
4737.975648396663
 21
503.467603499288
 31
0.0
  0
INSERT
  5
2C19
330
22DF
100
AcDbEntity
  8
D-STR-DIM
370
    -2
100
AcDbBlockReference
  2
_OPEN30
 10
4737.975648396663
 20
87.46760349928448
 30
0.0
 41
20.0
 42
20.0
 43
20.0
 50
270.0
  0
INSERT
  5
2C1A
330
22DF
100
AcDbEntity
  8
D-STR-DIM
370
    -2
100
AcDbBlockReference
  2
_OPEN30
 10
4737.975648396663
 20
523.467603499288
 30
0.0
 41
20.0
 42
20.0
 43
20.0
 50
90.0
  0
MTEXT
  5
2C1B
330
22DF
100
AcDbEntity
  8
D-STR-DIM
100
AcDbMText
 10
4712.975648396663
 20
305.4676034992871
 30
0.0
 40
30.0
 41
0.0
 71
     5
 72
     1
  1
\A1;436
 11
0.0000000000000001
 21
1.0
 31
0.0
 73
     1
 44
1.0
  0
POINT
  5
2C1C
330
22DF
100
AcDbEntity
  8
DEFPOINTS
 62
     0
100
AcDbPoint
 10
4937.975648396663
 20
87.46760349928447
 30
0.0
  0
POINT
  5
2C1D
330
22DF
100
AcDbEntity
  8
DEFPOINTS
 62
     0
100
AcDbPoint
 10
4937.975648396663
 20
523.467603499288
 30
0.0
  0
POINT
  5
2C1E
330
22DF
100
AcDbEntity
  8
DEFPOINTS
 62
     0
100
AcDbPoint
 10
4737.975648396663
 20
523.467603499288
 30
0.0
  0
ENDBLK
  5
22EA
330
22DF
100
AcDbEntity
  8
0
100
AcDbBlockEnd
  0
BLOCK
  5
22F5
330
22EB
100
AcDbEntity
  8
0
100
AcDbBlockBegin
  2
*D36
 70
     1
 10
0.0
 20
0.0
 30
0.0
  3
*D36
  1

  0
LINE
  5
2C1F
330
22EB
100
AcDbEntity
  8
D-STR-DIM
370
    -2
100
AcDbLine
 10
5152.975648396666
 20
438.4676034992881
 30
0.0
 11
5283.167976241653
 21
438.467603499288
 31
0.0
  0
LINE
  5
2C20
330
22EB
100
AcDbEntity
  8
D-STR-DIM
370
    -2
100
AcDbLine
 10
5152.975648396671
 20
87.46760349928806
 30
0.0
 11
5283.167976241653
 21
87.46760349928804
 31
0.0
  0
LINE
  5
2C21
330
22EB
100
AcDbEntity
  8
D-STR-DIM
370
    -2
100
AcDbLine
 10
5263.167976241653
 20
418.467603499288
 30
0.0
 11
5263.167976241653
 21
107.467603499288
 31
0.0
  0
INSERT
  5
2C22
330
22EB
100
AcDbEntity
  8
D-STR-DIM
370
    -2
100
AcDbBlockReference
  2
_OPEN30
 10
5263.167976241653
 20
438.467603499288
 30
0.0
 41
20.0
 42
20.0
 43
20.0
 50
90.0
  0
INSERT
  5
2C23
330
22EB
100
AcDbEntity
  8
D-STR-DIM
370
    -2
100
AcDbBlockReference
  2
_OPEN30
 10
5263.167976241653
 20
87.46760349928804
 30
0.0
 41
20.0
 42
20.0
 43
20.0
 50
270.0
  0
MTEXT
  5
2C24
330
22EB
100
AcDbEntity
  8
D-STR-DIM
100
AcDbMText
 10
5238.167976241652
 20
262.9676034992888
 30
0.0
 40
30.0
 41
0.0
 71
     5
 72
     1
  1
\A1;351
 11
0.0000000000000001
 21
1.0
 31
0.0
 73
     1
 44
1.0
  0
POINT
  5
2C25
330
22EB
100
AcDbEntity
  8
DEFPOINTS
 62
     0
100
AcDbPoint
 10
5142.975648396667
 20
438.4676034992881
 30
0.0
  0
POINT
  5
2C26
330
22EB
100
AcDbEntity
  8
DEFPOINTS
 62
     0
100
AcDbPoint
 10
5142.975648396671
 20
87.46760349928811
 30
0.0
  0
POINT
  5
2C27
330
22EB
100
AcDbEntity
  8
DEFPOINTS
 62
     0
100
AcDbPoint
 10
5263.167976241653
 20
87.46760349928804
 30
0.0
  0
ENDBLK
  5
22F6
330
22EB
100
AcDbEntity
  8
0
100
AcDbBlockEnd
  0
BLOCK
  5
2301
330
22F7
100
AcDbEntity
  8
0
100
AcDbBlockBegin
  2
*D37
 70
     1
 10
0.0
 20
0.0
 30
0.0
  3
*D37
  1

  0
LINE
  5
2C0D
330
22F7
100
AcDbEntity
  8
D-STR-DIM
370
    -2
100
AcDbLine
 10
4937.975648396663
 20
77.46760349928809
 30
0.0
 11
4937.975648396663
 21
-132.5323965007119
 31
0.0
  0
LINE
  5
2C0E
330
22F7
100
AcDbEntity
  8
D-STR-DIM
370
    -2
100
AcDbLine
 10
5347.975648396663
 20
77.46760349928809
 30
0.0
 11
5347.975648396663
 21
-132.5323965007119
 31
0.0
  0
LINE
  5
2C0F
330
22F7
100
AcDbEntity
  8
D-STR-DIM
370
    -2
100
AcDbLine
 10
4957.975648396663
 20
-112.5323965007118
 30
0.0
 11
5327.975648396662
 21
-112.5323965007118
 31
0.0
  0
INSERT
  5
2C10
330
22F7
100
AcDbEntity
  8
D-STR-DIM
370
    -2
100
AcDbBlockReference
  2
_OPEN30
 10
4937.975648396663
 20
-112.5323965007118
 30
0.0
 41
20.0
 42
20.0
 43
20.0
 50
180.0
  0
INSERT
  5
2C11
330
22F7
100
AcDbEntity
  8
D-STR-DIM
370
    -2
100
AcDbBlockReference
  2
_OPEN30
 10
5347.975648396663
 20
-112.5323965007118
 30
0.0
 41
20.0
 42
20.0
 43
20.0
  0
MTEXT
  5
2C12
330
22F7
100
AcDbEntity
  8
D-STR-DIM
100
AcDbMText
 10
5142.975648396663
 20
-87.53239650071192
 30
0.0
 40
30.0
 41
0.0
 71
     5
 72
     1
  1
\A1;410
 73
     1
 44
1.0
  0
POINT
  5
2C13
330
22F7
100
AcDbEntity
  8
DEFPOINTS
 62
     0
100
AcDbPoint
 10
4937.975648396663
 20
87.46760349928811
 30
0.0
  0
POINT
  5
2C14
330
22F7
100
AcDbEntity
  8
DEFPOINTS
 62
     0
100
AcDbPoint
 10
5347.975648396663
 20
87.46760349928811
 30
0.0
  0
POINT
  5
2C15
330
22F7
100
AcDbEntity
  8
DEFPOINTS
 62
     0
100
AcDbPoint
 10
5347.975648396663
 20
-112.5323965007118
 30
0.0
  0
ENDBLK
  5
2302
330
22F7
100
AcDbEntity
  8
0
100
AcDbBlockEnd
  0
BLOCK
  5
230D
330
2303
100
AcDbEntity
  8
0
100
AcDbBlockBegin
  2
*D38
 70
     1
 10
0.0
 20
0.0
 30
0.0
  3
*D38
  1

  0
LINE
  5
2C28
330
2303
100
AcDbEntity
  8
D-STR-DIM
370
    -2
100
AcDbLine
 10
5357.975648396664
 20
353.467603499288
 30
0.0
 11
5567.975648396663
 21
353.467603499288
 31
0.0
  0
LINE
  5
2C29
330
2303
100
AcDbEntity
  8
D-STR-DIM
370
    -2
100
AcDbLine
 10
5357.975648396667
 20
87.46760349928811
 30
0.0
 11
5567.975648396663
 21
87.46760349928804
 31
0.0
  0
LINE
  5
2C2A
330
2303
100
AcDbEntity
  8
D-STR-DIM
370
    -2
100
AcDbLine
 10
5547.975648396663
 20
333.4676034992879
 30
0.0
 11
5547.975648396663
 21
107.467603499288
 31
0.0
  0
INSERT
  5
2C2B
330
2303
100
AcDbEntity
  8
D-STR-DIM
370
    -2
100
AcDbBlockReference
  2
_OPEN30
 10
5547.975648396663
 20
353.467603499288
 30
0.0
 41
20.0
 42
20.0
 43
20.0
 50
90.0
  0
INSERT
  5
2C2C
330
2303
100
AcDbEntity
  8
D-STR-DIM
370
    -2
100
AcDbBlockReference
  2
_OPEN30
 10
5547.975648396663
 20
87.46760349928804
 30
0.0
 41
20.0
 42
20.0
 43
20.0
 50
270.0
  0
MTEXT
  5
2C2D
330
2303
100
AcDbEntity
  8
D-STR-DIM
100
AcDbMText
 10
5522.975648396663
 20
220.4676034992889
 30
0.0
 40
30.0
 41
0.0
 71
     5
 72
     1
  1
\A1;266
 11
0.0000000000000001
 21
1.0
 31
0.0
 73
     1
 44
1.0
  0
POINT
  5
2C2E
330
2303
100
AcDbEntity
  8
DEFPOINTS
 62
     0
100
AcDbPoint
 10
5347.975648396663
 20
353.467603499288
 30
0.0
  0
POINT
  5
2C2F
330
2303
100
AcDbEntity
  8
DEFPOINTS
 62
     0
100
AcDbPoint
 10
5347.975648396666
 20
87.46760349928811
 30
0.0
  0
POINT
  5
2C30
330
2303
100
AcDbEntity
  8
DEFPOINTS
 62
     0
100
AcDbPoint
 10
5547.975648396663
 20
87.46760349928804
 30
0.0
  0
ENDBLK
  5
230E
330
2303
100
AcDbEntity
  8
0
100
AcDbBlockEnd
  0
BLOCK
  5
2319
330
230F
100
AcDbEntity
  8
0
100
AcDbBlockBegin
  2
*D39
 70
     1
 10
0.0
 20
0.0
 30
0.0
  3
*D39
  1

  0
LINE
  5
2C31
330
230F
100
AcDbEntity
  8
D-STR-DIM
370
    -2
100
AcDbLine
 10
4937.78332055168
 20
1077.467603499288
 30
0.0
 11
4937.78332055168
 21
867.4676034992883
 31
0.0
  0
LINE
  5
2C32
330
230F
100
AcDbEntity
  8
D-STR-DIM
370
    -2
100
AcDbLine
 10
5347.78332055168
 20
1077.467603499288
 30
0.0
 11
5347.78332055168
 21
867.4676034992883
 31
0.0
  0
LINE
  5
2C33
330
230F
100
AcDbEntity
  8
D-STR-DIM
370
    -2
100
AcDbLine
 10
4957.78332055168
 20
887.467603499288
 30
0.0
 11
5327.78332055168
 21
887.467603499288
 31
0.0
  0
INSERT
  5
2C34
330
230F
100
AcDbEntity
  8
D-STR-DIM
370
    -2
100
AcDbBlockReference
  2
_OPEN30
 10
4937.78332055168
 20
887.467603499288
 30
0.0
 41
20.0
 42
20.0
 43
20.0
 50
180.0
  0
INSERT
  5
2C35
330
230F
100
AcDbEntity
  8
D-STR-DIM
370
    -2
100
AcDbBlockReference
  2
_OPEN30
 10
5347.78332055168
 20
887.467603499288
 30
0.0
 41
20.0
 42
20.0
 43
20.0
  0
MTEXT
  5
2C36
330
230F
100
AcDbEntity
  8
D-STR-DIM
100
AcDbMText
 10
5142.783320551679
 20
912.467603499288
 30
0.0
 40
30.0
 41
0.0
 71
     5
 72
     1
  1
\A1;410
 73
     1
 44
1.0
  0
POINT
  5
2C37
330
230F
100
AcDbEntity
  8
DEFPOINTS
 62
     0
100
AcDbPoint
 10
4937.78332055168
 20
1087.467603499288
 30
0.0
  0
POINT
  5
2C38
330
230F
100
AcDbEntity
  8
DEFPOINTS
 62
     0
100
AcDbPoint
 10
5347.78332055168
 20
1087.467603499288
 30
0.0
  0
POINT
  5
2C39
330
230F
100
AcDbEntity
  8
DEFPOINTS
 62
     0
100
AcDbPoint
 10
5347.78332055168
 20
887.467603499288
 30
0.0
  0
ENDBLK
  5
231A
330
230F
100
AcDbEntity
  8
0
100
AcDbBlockEnd
  0
BLOCK
  5
2325
330
231B
100
AcDbEntity
  8
0
100
AcDbBlockBegin
  2
*D40
 70
     1
 10
0.0
 20
0.0
 30
0.0
  3
*D40
  1

  0
LINE
  5
2BCE
330
231B
100
AcDbEntity
  8
D-STR-DIM
370
    -2
100
AcDbLine
 10
4962.783320551699
 20
3767.467318499296
 30
0.0
 11
4962.783320551699
 21
3557.467318499296
 31
0.0
  0
LINE
  5
2BCF
330
231B
100
AcDbEntity
  8
D-STR-DIM
370
    -2
100
AcDbLine
 10
5322.7833205517
 20
3767.467318499296
 30
0.0
 11
5322.7833205517
 21
3557.467318499296
 31
0.0
  0
LINE
  5
2BD0
330
231B
100
AcDbEntity
  8
D-STR-DIM
370
    -2
100
AcDbLine
 10
4982.783320551699
 20
3577.467318499296
 30
0.0
 11
5302.783320551699
 21
3577.467318499296
 31
0.0
  0
INSERT
  5
2BD1
330
231B
100
AcDbEntity
  8
D-STR-DIM
370
    -2
100
AcDbBlockReference
  2
_OPEN30
 10
4962.783320551699
 20
3577.467318499296
 30
0.0
 41
20.0
 42
20.0
 43
20.0
 50
180.0
  0
INSERT
  5
2BD2
330
231B
100
AcDbEntity
  8
D-STR-DIM
370
    -2
100
AcDbBlockReference
  2
_OPEN30
 10
5322.7833205517
 20
3577.467318499296
 30
0.0
 41
20.0
 42
20.0
 43
20.0
  0
MTEXT
  5
2BD3
330
231B
100
AcDbEntity
  8
D-STR-DIM
100
AcDbMText
 10
5142.783320551699
 20
3602.467318499296
 30
0.0
 40
30.0
 41
0.0
 71
     5
 72
     1
  1
\A1;360
 73
     1
 44
1.0
  0
POINT
  5
2BD4
330
231B
100
AcDbEntity
  8
DEFPOINTS
 62
     0
100
AcDbPoint
 10
4962.783320551699
 20
3777.467318499296
 30
0.0
  0
POINT
  5
2BD5
330
231B
100
AcDbEntity
  8
DEFPOINTS
 62
     0
100
AcDbPoint
 10
5322.7833205517
 20
3777.467318499296
 30
0.0
  0
POINT
  5
2BD6
330
231B
100
AcDbEntity
  8
DEFPOINTS
 62
     0
100
AcDbPoint
 10
5322.7833205517
 20
3577.467318499296
 30
0.0
  0
ENDBLK
  5
2326
330
231B
100
AcDbEntity
  8
0
100
AcDbBlockEnd
  0
BLOCK
  5
2331
330
2327
100
AcDbEntity
  8
0
100
AcDbBlockBegin
  2
*D41
 70
     1
 10
0.0
 20
0.0
 30
0.0
  3
*D41
  1

  0
LINE
  5
2BF2
330
2327
100
AcDbEntity
  8
D-STR-DIM
370
    -2
100
AcDbLine
 10
4952.975648396685
 20
2777.467318499296
 30
0.0
 11
4742.783320551698
 21
2777.467318499296
 31
0.0
  0
LINE
  5
2BF3
330
2327
100
AcDbEntity
  8
D-STR-DIM
370
    -2
100
AcDbLine
 10
4952.975648396685
 20
3203.467318499296
 30
0.0
 11
4742.783320551698
 21
3203.467318499296
 31
0.0
  0
LINE
  5
2BF4
330
2327
100
AcDbEntity
  8
D-STR-DIM
370
    -2
100
AcDbLine
 10
4762.783320551698
 20
2797.467318499296
 30
0.0
 11
4762.783320551698
 21
3183.467318499296
 31
0.0
  0
INSERT
  5
2BF5
330
2327
100
AcDbEntity
  8
D-STR-DIM
370
    -2
100
AcDbBlockReference
  2
_OPEN30
 10
4762.783320551698
 20
2777.467318499296
 30
0.0
 41
20.0
 42
20.0
 43
20.0
 50
270.0
  0
INSERT
  5
2BF6
330
2327
100
AcDbEntity
  8
D-STR-DIM
370
    -2
100
AcDbBlockReference
  2
_OPEN30
 10
4762.783320551698
 20
3203.467318499296
 30
0.0
 41
20.0
 42
20.0
 43
20.0
 50
90.0
  0
MTEXT
  5
2BF7
330
2327
100
AcDbEntity
  8
D-STR-DIM
100
AcDbMText
 10
4737.783320551697
 20
2990.467318499296
 30
0.0
 40
30.0
 41
0.0
 71
     5
 72
     1
  1
\A1;426
 11
0.0000000000000001
 21
1.0
 31
0.0
 73
     1
 44
1.0
  0
POINT
  5
2BF8
330
2327
100
AcDbEntity
  8
DEFPOINTS
 62
     0
100
AcDbPoint
 10
4962.975648396685
 20
2777.467318499296
 30
0.0
  0
POINT
  5
2BF9
330
2327
100
AcDbEntity
  8
DEFPOINTS
 62
     0
100
AcDbPoint
 10
4962.975648396685
 20
3203.467318499296
 30
0.0
  0
POINT
  5
2BFA
330
2327
100
AcDbEntity
  8
DEFPOINTS
 62
     0
100
AcDbPoint
 10
4762.783320551698
 20
3203.467318499296
 30
0.0
  0
ENDBLK
  5
2332
330
2327
100
AcDbEntity
  8
0
100
AcDbBlockEnd
  0
BLOCK
  5
233D
330
2333
100
AcDbEntity
  8
0
100
AcDbBlockBegin
  2
*D42
 70
     1
 10
0.0
 20
0.0
 30
0.0
  3
*D42
  1

  0
LINE
  5
2BFB
330
2333
100
AcDbEntity
  8
D-STR-DIM
370
    -2
100
AcDbLine
 10
5152.975648396685
 20
3128.467318499296
 30
0.0
 11
5282.975648396685
 21
3128.467318499296
 31
0.0
  0
LINE
  5
2BFC
330
2333
100
AcDbEntity
  8
D-STR-DIM
370
    -2
100
AcDbLine
 10
5152.975648396685
 20
2777.467318499296
 30
0.0
 11
5282.975648396685
 21
2777.467318499296
 31
0.0
  0
LINE
  5
2BFD
330
2333
100
AcDbEntity
  8
D-STR-DIM
370
    -2
100
AcDbLine
 10
5262.975648396685
 20
3108.467318499296
 30
0.0
 11
5262.975648396685
 21
2797.467318499296
 31
0.0
  0
INSERT
  5
2BFE
330
2333
100
AcDbEntity
  8
D-STR-DIM
370
    -2
100
AcDbBlockReference
  2
_OPEN30
 10
5262.975648396685
 20
3128.467318499296
 30
0.0
 41
20.0
 42
20.0
 43
20.0
 50
90.0
  0
INSERT
  5
2BFF
330
2333
100
AcDbEntity
  8
D-STR-DIM
370
    -2
100
AcDbBlockReference
  2
_OPEN30
 10
5262.975648396685
 20
2777.467318499296
 30
0.0
 41
20.0
 42
20.0
 43
20.0
 50
270.0
  0
MTEXT
  5
2C00
330
2333
100
AcDbEntity
  8
D-STR-DIM
100
AcDbMText
 10
5237.975648396684
 20
2952.967318499296
 30
0.0
 40
30.0
 41
0.0
 71
     5
 72
     1
  1
\A1;351
 11
0.0000000000000001
 21
1.0
 31
0.0
 73
     1
 44
1.0
  0
POINT
  5
2C01
330
2333
100
AcDbEntity
  8
DEFPOINTS
 62
     0
100
AcDbPoint
 10
5142.975648396685
 20
3128.467318499296
 30
0.0
  0
POINT
  5
2C02
330
2333
100
AcDbEntity
  8
DEFPOINTS
 62
     0
100
AcDbPoint
 10
5142.975648396685
 20
2777.467318499296
 30
0.0
  0
POINT
  5
2C03
330
2333
100
AcDbEntity
  8
DEFPOINTS
 62
     0
100
AcDbPoint
 10
5262.975648396685
 20
2777.467318499296
 30
0.0
  0
ENDBLK
  5
233E
330
2333
100
AcDbEntity
  8
0
100
AcDbBlockEnd
  0
BLOCK
  5
2349
330
233F
100
AcDbEntity
  8
0
100
AcDbBlockBegin
  2
*D43
 70
     1
 10
0.0
 20
0.0
 30
0.0
  3
*D43
  1

  0
LINE
  5
2C04
330
233F
100
AcDbEntity
  8
D-STR-DIM
370
    -2
100
AcDbLine
 10
5332.975648396685
 20
2777.467318499296
 30
0.0
 11
5542.975648396684
 21
2777.467318499296
 31
0.0
  0
LINE
  5
2C05
330
233F
100
AcDbEntity
  8
D-STR-DIM
370
    -2
100
AcDbLine
 10
5332.975648396685
 20
3053.467318499296
 30
0.0
 11
5542.975648396684
 21
3053.467318499296
 31
0.0
  0
LINE
  5
2C06
330
233F
100
AcDbEntity
  8
D-STR-DIM
370
    -2
100
AcDbLine
 10
5522.975648396685
 20
2797.467318499296
 30
0.0
 11
5522.975648396685
 21
3033.467318499296
 31
0.0
  0
INSERT
  5
2C07
330
233F
100
AcDbEntity
  8
D-STR-DIM
370
    -2
100
AcDbBlockReference
  2
_OPEN30
 10
5522.975648396685
 20
2777.467318499296
 30
0.0
 41
20.0
 42
20.0
 43
20.0
 50
270.0
  0
INSERT
  5
2C08
330
233F
100
AcDbEntity
  8
D-STR-DIM
370
    -2
100
AcDbBlockReference
  2
_OPEN30
 10
5522.975648396685
 20
3053.467318499296
 30
0.0
 41
20.0
 42
20.0
 43
20.0
 50
90.0
  0
MTEXT
  5
2C09
330
233F
100
AcDbEntity
  8
D-STR-DIM
100
AcDbMText
 10
5497.975648396685
 20
2915.467318499296
 30
0.0
 40
30.0
 41
0.0
 71
     5
 72
     1
  1
\A1;276
 11
0.0000000000000001
 21
1.0
 31
0.0
 73
     1
 44
1.0
  0
POINT
  5
2C0A
330
233F
100
AcDbEntity
  8
DEFPOINTS
 62
     0
100
AcDbPoint
 10
5322.975648396685
 20
2777.467318499296
 30
0.0
  0
POINT
  5
2C0B
330
233F
100
AcDbEntity
  8
DEFPOINTS
 62
     0
100
AcDbPoint
 10
5322.975648396685
 20
3053.467318499296
 30
0.0
  0
POINT
  5
2C0C
330
233F
100
AcDbEntity
  8
DEFPOINTS
 62
     0
100
AcDbPoint
 10
5522.975648396685
 20
3053.467318499296
 30
0.0
  0
ENDBLK
  5
234A
330
233F
100
AcDbEntity
  8
0
100
AcDbBlockEnd
  0
BLOCK
  5
2355
330
234B
100
AcDbEntity
  8
0
100
AcDbBlockBegin
  2
*D44
 70
     1
 10
0.0
 20
0.0
 30
0.0
  3
*D44
  1

  0
LINE
  5
2BE9
330
234B
100
AcDbEntity
  8
D-STR-DIM
370
    -2
100
AcDbLine
 10
4962.975648396685
 20
2767.467318499296
 30
0.0
 11
4962.975648396685
 21
2557.467318499295
 31
0.0
  0
LINE
  5
2BEA
330
234B
100
AcDbEntity
  8
D-STR-DIM
370
    -2
100
AcDbLine
 10
5322.975648396685
 20
2767.467318499296
 30
0.0
 11
5322.975648396685
 21
2557.467318499295
 31
0.0
  0
LINE
  5
2BEB
330
234B
100
AcDbEntity
  8
D-STR-DIM
370
    -2
100
AcDbLine
 10
4982.975648396685
 20
2577.467318499296
 30
0.0
 11
5302.975648396685
 21
2577.467318499296
 31
0.0
  0
INSERT
  5
2BEC
330
234B
100
AcDbEntity
  8
D-STR-DIM
370
    -2
100
AcDbBlockReference
  2
_OPEN30
 10
4962.975648396685
 20
2577.467318499296
 30
0.0
 41
20.0
 42
20.0
 43
20.0
 50
180.0
  0
INSERT
  5
2BED
330
234B
100
AcDbEntity
  8
D-STR-DIM
370
    -2
100
AcDbBlockReference
  2
_OPEN30
 10
5322.975648396685
 20
2577.467318499296
 30
0.0
 41
20.0
 42
20.0
 43
20.0
  0
MTEXT
  5
2BEE
330
234B
100
AcDbEntity
  8
D-STR-DIM
100
AcDbMText
 10
5142.975648396685
 20
2602.467318499296
 30
0.0
 40
30.0
 41
0.0
 71
     5
 72
     1
  1
\A1;360
 73
     1
 44
1.0
  0
POINT
  5
2BEF
330
234B
100
AcDbEntity
  8
DEFPOINTS
 62
     0
100
AcDbPoint
 10
4962.975648396685
 20
2777.467318499296
 30
0.0
  0
POINT
  5
2BF0
330
234B
100
AcDbEntity
  8
DEFPOINTS
 62
     0
100
AcDbPoint
 10
5322.975648396685
 20
2777.467318499296
 30
0.0
  0
POINT
  5
2BF1
330
234B
100
AcDbEntity
  8
DEFPOINTS
 62
     0
100
AcDbPoint
 10
5322.975648396685
 20
2577.467318499296
 30
0.0
  0
ENDBLK
  5
2356
330
234B
100
AcDbEntity
  8
0
100
AcDbBlockEnd
  0
BLOCK
  5
2361
330
2357
100
AcDbEntity
  8
0
100
AcDbBlockBegin
  2
*D45
 70
     1
 10
0.0
 20
0.0
 30
0.0
  3
*D45
  1

  0
LINE
  5
2BBC
330
2357
100
AcDbEntity
  8
D-STR-DIM
370
    -2
100
AcDbLine
 10
5152.783320551699
 20
4128.467318499295
 30
0.0
 11
5282.783320551699
 21
4128.467318499295
 31
0.0
  0
LINE
  5
2BBD
330
2357
100
AcDbEntity
  8
D-STR-DIM
370
    -2
100
AcDbLine
 10
5152.783320551699
 20
3777.467318499296
 30
0.0
 11
5282.783320551699
 21
3777.467318499296
 31
0.0
  0
LINE
  5
2BBE
330
2357
100
AcDbEntity
  8
D-STR-DIM
370
    -2
100
AcDbLine
 10
5262.783320551699
 20
4108.467318499295
 30
0.0
 11
5262.783320551699
 21
3797.467318499296
 31
0.0
  0
INSERT
  5
2BBF
330
2357
100
AcDbEntity
  8
D-STR-DIM
370
    -2
100
AcDbBlockReference
  2
_OPEN30
 10
5262.783320551699
 20
4128.467318499295
 30
0.0
 41
20.0
 42
20.0
 43
20.0
 50
90.0
  0
INSERT
  5
2BC0
330
2357
100
AcDbEntity
  8
D-STR-DIM
370
    -2
100
AcDbBlockReference
  2
_OPEN30
 10
5262.783320551699
 20
3777.467318499296
 30
0.0
 41
20.0
 42
20.0
 43
20.0
 50
270.0
  0
MTEXT
  5
2BC1
330
2357
100
AcDbEntity
  8
D-STR-DIM
100
AcDbMText
 10
5237.783320551699
 20
3952.967318499296
 30
0.0
 40
30.0
 41
0.0
 71
     5
 72
     1
  1
\A1;351
 11
0.0000000000000001
 21
1.0
 31
0.0
 73
     1
 44
1.0
  0
POINT
  5
2BC2
330
2357
100
AcDbEntity
  8
DEFPOINTS
 62
     0
100
AcDbPoint
 10
5142.783320551699
 20
4128.467318499295
 30
0.0
  0
POINT
  5
2BC3
330
2357
100
AcDbEntity
  8
DEFPOINTS
 62
     0
100
AcDbPoint
 10
5142.783320551699
 20
3777.467318499296
 30
0.0
  0
POINT
  5
2BC4
330
2357
100
AcDbEntity
  8
DEFPOINTS
 62
     0
100
AcDbPoint
 10
5262.783320551699
 20
3777.467318499296
 30
0.0
  0
ENDBLK
  5
2362
330
2357
100
AcDbEntity
  8
0
100
AcDbBlockEnd
  0
BLOCK
  5
236D
330
2363
100
AcDbEntity
  8
0
100
AcDbBlockBegin
  2
*D46
 70
     1
 10
0.0
 20
0.0
 30
0.0
  3
*D46
  1

  0
LINE
  5
2BB3
330
2363
100
AcDbEntity
  8
D-STR-DIM
370
    -2
100
AcDbLine
 10
4952.783320551699
 20
3777.467318499296
 30
0.0
 11
4742.783320551699
 21
3777.467318499296
 31
0.0
  0
LINE
  5
2BB4
330
2363
100
AcDbEntity
  8
D-STR-DIM
370
    -2
100
AcDbLine
 10
4952.783320551699
 20
4053.467318499296
 30
0.0
 11
4742.783320551699
 21
4053.467318499296
 31
0.0
  0
LINE
  5
2BB5
330
2363
100
AcDbEntity
  8
D-STR-DIM
370
    -2
100
AcDbLine
 10
4762.783320551699
 20
3797.467318499296
 30
0.0
 11
4762.783320551699
 21
4033.467318499297
 31
0.0
  0
INSERT
  5
2BB6
330
2363
100
AcDbEntity
  8
D-STR-DIM
370
    -2
100
AcDbBlockReference
  2
_OPEN30
 10
4762.783320551699
 20
3777.467318499296
 30
0.0
 41
20.0
 42
20.0
 43
20.0
 50
270.0
  0
INSERT
  5
2BB7
330
2363
100
AcDbEntity
  8
D-STR-DIM
370
    -2
100
AcDbBlockReference
  2
_OPEN30
 10
4762.783320551699
 20
4053.467318499296
 30
0.0
 41
20.0
 42
20.0
 43
20.0
 50
90.0
  0
MTEXT
  5
2BB8
330
2363
100
AcDbEntity
  8
D-STR-DIM
100
AcDbMText
 10
4737.783320551698
 20
3915.467318499296
 30
0.0
 40
30.0
 41
0.0
 71
     5
 72
     1
  1
\A1;276
 11
0.0000000000000001
 21
1.0
 31
0.0
 73
     1
 44
1.0
  0
POINT
  5
2BB9
330
2363
100
AcDbEntity
  8
DEFPOINTS
 62
     0
100
AcDbPoint
 10
4962.783320551699
 20
3777.467318499296
 30
0.0
  0
POINT
  5
2BBA
330
2363
100
AcDbEntity
  8
DEFPOINTS
 62
     0
100
AcDbPoint
 10
4962.783320551699
 20
4053.467318499296
 30
0.0
  0
POINT
  5
2BBB
330
2363
100
AcDbEntity
  8
DEFPOINTS
 62
     0
100
AcDbPoint
 10
4762.783320551699
 20
4053.467318499296
 30
0.0
  0
ENDBLK
  5
236E
330
2363
100
AcDbEntity
  8
0
100
AcDbBlockEnd
  0
BLOCK
  5
2379
330
236F
100
AcDbEntity
  8
0
100
AcDbBlockBegin
  2
*D47
 70
     1
 10
0.0
 20
0.0
 30
0.0
  3
*D47
  1

  0
LINE
  5
2BC5
330
236F
100
AcDbEntity
  8
D-STR-DIM
370
    -2
100
AcDbLine
 10
5332.783320551699
 20
3777.467318499296
 30
0.0
 11
5542.783320551698
 21
3777.467318499296
 31
0.0
  0
LINE
  5
2BC6
330
236F
100
AcDbEntity
  8
D-STR-DIM
370
    -2
100
AcDbLine
 10
5332.783320551699
 20
4203.467318499295
 30
0.0
 11
5542.783320551698
 21
4203.467318499295
 31
0.0
  0
LINE
  5
2BC7
330
236F
100
AcDbEntity
  8
D-STR-DIM
370
    -2
100
AcDbLine
 10
5522.783320551699
 20
3797.467318499296
 30
0.0
 11
5522.783320551699
 21
4183.467318499295
 31
0.0
  0
INSERT
  5
2BC8
330
236F
100
AcDbEntity
  8
D-STR-DIM
370
    -2
100
AcDbBlockReference
  2
_OPEN30
 10
5522.783320551699
 20
3777.467318499296
 30
0.0
 41
20.0
 42
20.0
 43
20.0
 50
270.0
  0
INSERT
  5
2BC9
330
236F
100
AcDbEntity
  8
D-STR-DIM
370
    -2
100
AcDbBlockReference
  2
_OPEN30
 10
5522.783320551699
 20
4203.467318499295
 30
0.0
 41
20.0
 42
20.0
 43
20.0
 50
90.0
  0
MTEXT
  5
2BCA
330
236F
100
AcDbEntity
  8
D-STR-DIM
100
AcDbMText
 10
5497.783320551698
 20
3990.467318499296
 30
0.0
 40
30.0
 41
0.0
 71
     5
 72
     1
  1
\A1;426
 11
0.0000000000000001
 21
1.0
 31
0.0
 73
     1
 44
1.0
  0
POINT
  5
2BCB
330
236F
100
AcDbEntity
  8
DEFPOINTS
 62
     0
100
AcDbPoint
 10
5322.7833205517
 20
3777.467318499296
 30
0.0
  0
POINT
  5
2BCC
330
236F
100
AcDbEntity
  8
DEFPOINTS
 62
     0
100
AcDbPoint
 10
5322.7833205517
 20
4203.467318499295
 30
0.0
  0
POINT
  5
2BCD
330
236F
100
AcDbEntity
  8
DEFPOINTS
 62
     0
100
AcDbPoint
 10
5522.783320551699
 20
4203.467318499295
 30
0.0
  0
ENDBLK
  5
237A
330
236F
100
AcDbEntity
  8
0
100
AcDbBlockEnd
  0
BLOCK
  5
2769
330
275F
100
AcDbEntity
  8
0
100
AcDbBlockBegin
  2
*D48
 70
     1
 10
0.0
 20
0.0
 30
0.0
  3
*D48
  1

  0
LINE
  5
2BE0
330
275F
100
AcDbEntity
  8
D-STR-DIM
370
    -2
100
AcDbLine
 10
5888.141924792509
 20
3767.467318499296
 30
0.0
 11
5888.141924792509
 21
3557.467318499296
 31
0.0
  0
LINE
  5
2BE1
330
275F
100
AcDbEntity
  8
D-STR-DIM
370
    -2
100
AcDbLine
 10
6248.141924792509
 20
3767.467318499296
 30
0.0
 11
6248.141924792509
 21
3557.467318499296
 31
0.0
  0
LINE
  5
2BE2
330
275F
100
AcDbEntity
  8
D-STR-DIM
370
    -2
100
AcDbLine
 10
5908.141924792509
 20
3577.467318499296
 30
0.0
 11
6228.141924792509
 21
3577.467318499296
 31
0.0
  0
INSERT
  5
2BE3
330
275F
100
AcDbEntity
  8
D-STR-DIM
370
    -2
100
AcDbBlockReference
  2
_OPEN30
 10
5888.141924792509
 20
3577.467318499296
 30
0.0
 41
20.0
 42
20.0
 43
20.0
 50
180.0
  0
INSERT
  5
2BE4
330
275F
100
AcDbEntity
  8
D-STR-DIM
370
    -2
100
AcDbBlockReference
  2
_OPEN30
 10
6248.141924792509
 20
3577.467318499296
 30
0.0
 41
20.0
 42
20.0
 43
20.0
  0
MTEXT
  5
2BE5
330
275F
100
AcDbEntity
  8
D-STR-DIM
100
AcDbMText
 10
6068.141924792509
 20
3602.467318499296
 30
0.0
 40
30.0
 41
0.0
 71
     5
 72
     1
  1
\A1;360
 73
     1
 44
1.0
  0
POINT
  5
2BE6
330
275F
100
AcDbEntity
  8
DEFPOINTS
 62
     0
100
AcDbPoint
 10
5888.141924792509
 20
3777.467318499296
 30
0.0
  0
POINT
  5
2BE7
330
275F
100
AcDbEntity
  8
DEFPOINTS
 62
     0
100
AcDbPoint
 10
6248.141924792509
 20
3777.467318499296
 30
0.0
  0
POINT
  5
2BE8
330
275F
100
AcDbEntity
  8
DEFPOINTS
 62
     0
100
AcDbPoint
 10
6248.141924792509
 20
3577.467318499296
 30
0.0
  0
ENDBLK
  5
276A
330
275F
100
AcDbEntity
  8
0
100
AcDbBlockEnd
  0
BLOCK
  5
2775
330
276B
100
AcDbEntity
  8
0
100
AcDbBlockBegin
  2
*D49
 70
     1
 10
0.0
 20
0.0
 30
0.0
  3
*D49
  1

  0
LINE
  5
2BD7
330
276B
100
AcDbEntity
  8
D-STR-DIM
370
    -2
100
AcDbLine
 10
6258.141924792509
 20
3777.467318499296
 30
0.0
 11
6468.141924792509
 21
3777.467318499296
 31
0.0
  0
LINE
  5
2BD8
330
276B
100
AcDbEntity
  8
D-STR-DIM
370
    -2
100
AcDbLine
 10
6258.141924792509
 20
4128.467318499295
 30
0.0
 11
6468.141924792509
 21
4128.467318499295
 31
0.0
  0
LINE
  5
2BD9
330
276B
100
AcDbEntity
  8
D-STR-DIM
370
    -2
100
AcDbLine
 10
6448.141924792508
 20
3797.467318499296
 30
0.0
 11
6448.141924792508
 21
4108.467318499295
 31
0.0
  0
INSERT
  5
2BDA
330
276B
100
AcDbEntity
  8
D-STR-DIM
370
    -2
100
AcDbBlockReference
  2
_OPEN30
 10
6448.141924792508
 20
3777.467318499296
 30
0.0
 41
20.0
 42
20.0
 43
20.0
 50
270.0
  0
INSERT
  5
2BDB
330
276B
100
AcDbEntity
  8
D-STR-DIM
370
    -2
100
AcDbBlockReference
  2
_OPEN30
 10
6448.141924792508
 20
4128.467318499295
 30
0.0
 41
20.0
 42
20.0
 43
20.0
 50
90.0
  0
MTEXT
  5
2BDC
330
276B
100
AcDbEntity
  8
D-STR-DIM
100
AcDbMText
 10
6423.141924792507
 20
3952.967318499296
 30
0.0
 40
30.0
 41
0.0
 71
     5
 72
     1
  1
\A1;351
 11
0.0000000000000001
 21
1.0
 31
0.0
 73
     1
 44
1.0
  0
POINT
  5
2BDD
330
276B
100
AcDbEntity
  8
DEFPOINTS
 62
     0
100
AcDbPoint
 10
6248.141924792509
 20
3777.467318499296
 30
0.0
  0
POINT
  5
2BDE
330
276B
100
AcDbEntity
  8
DEFPOINTS
 62
     0
100
AcDbPoint
 10
6248.141924792509
 20
4128.467318499295
 30
0.0
  0
POINT
  5
2BDF
330
276B
100
AcDbEntity
  8
DEFPOINTS
 62
     0
100
AcDbPoint
 10
6448.141924792508
 20
4128.467318499295
 30
0.0
  0
ENDBLK
  5
2776
330
276B
100
AcDbEntity
  8
0
100
AcDbBlockEnd
  0
BLOCK
  5
27CE
330
27C4
100
AcDbEntity
  8
0
100
AcDbBlockBegin
  2
*D50
 70
     1
 10
0.0
 20
0.0
 30
0.0
  3
*D50
  1

  0
LINE
  5
2C55
330
27C4
100
AcDbEntity
  8
D-STR-DIM
370
    -2
100
AcDbLine
 10
5863.334252637471
 20
1077.467603499288
 30
0.0
 11
5863.334252637471
 21
867.4676034992883
 31
0.0
  0
LINE
  5
2C56
330
27C4
100
AcDbEntity
  8
D-STR-DIM
370
    -2
100
AcDbLine
 10
6273.334252637472
 20
1077.467603499288
 30
0.0
 11
6273.334252637472
 21
867.4676034992883
 31
0.0
  0
LINE
  5
2C57
330
27C4
100
AcDbEntity
  8
D-STR-DIM
370
    -2
100
AcDbLine
 10
5883.334252637474
 20
887.467603499288
 30
0.0
 11
6253.334252637474
 21
887.467603499288
 31
0.0
  0
INSERT
  5
2C58
330
27C4
100
AcDbEntity
  8
D-STR-DIM
370
    -2
100
AcDbBlockReference
  2
_OPEN30
 10
5863.334252637471
 20
887.467603499288
 30
0.0
 41
20.0
 42
20.0
 43
20.0
 50
180.0
  0
INSERT
  5
2C59
330
27C4
100
AcDbEntity
  8
D-STR-DIM
370
    -2
100
AcDbBlockReference
  2
_OPEN30
 10
6273.334252637472
 20
887.467603499288
 30
0.0
 41
20.0
 42
20.0
 43
20.0
  0
MTEXT
  5
2C5A
330
27C4
100
AcDbEntity
  8
D-STR-DIM
100
AcDbMText
 10
6068.334252637473
 20
912.467603499288
 30
0.0
 40
30.0
 41
0.0
 71
     5
 72
     1
  1
\A1;410
 73
     1
 44
1.0
  0
POINT
  5
2C5B
330
27C4
100
AcDbEntity
  8
DEFPOINTS
 62
     0
100
AcDbPoint
 10
5863.334252637471
 20
1087.467603499288
 30
0.0
  0
POINT
  5
2C5C
330
27C4
100
AcDbEntity
  8
DEFPOINTS
 62
     0
100
AcDbPoint
 10
6273.334252637472
 20
1087.467603499288
 30
0.0
  0
POINT
  5
2C5D
330
27C4
100
AcDbEntity
  8
DEFPOINTS
 62
     0
100
AcDbPoint
 10
6273.334252637472
 20
887.467603499288
 30
0.0
  0
ENDBLK
  5
27CF
330
27C4
100
AcDbEntity
  8
0
100
AcDbBlockEnd
  0
BLOCK
  5
27DA
330
27D0
100
AcDbEntity
  8
0
100
AcDbBlockBegin
  2
*D51
 70
     1
 10
0.0
 20
0.0
 30
0.0
  3
*D51
  1

  0
LINE
  5
2C5E
330
27D0
100
AcDbEntity
  8
D-STR-DIM
370
    -2
100
AcDbLine
 10
6283.334252637473
 20
1087.467603499288
 30
0.0
 11
6493.334252637473
 21
1087.467603499288
 31
0.0
  0
LINE
  5
2C5F
330
27D0
100
AcDbEntity
  8
D-STR-DIM
370
    -2
100
AcDbLine
 10
6283.334252637473
 20
1438.467603499288
 30
0.0
 11
6493.334252637473
 21
1438.467603499288
 31
0.0
  0
LINE
  5
2C60
330
27D0
100
AcDbEntity
  8
D-STR-DIM
370
    -2
100
AcDbLine
 10
6473.334252637474
 20
1107.467603499288
 30
0.0
 11
6473.334252637474
 21
1418.467603499288
 31
0.0
  0
INSERT
  5
2C61
330
27D0
100
AcDbEntity
  8
D-STR-DIM
370
    -2
100
AcDbBlockReference
  2
_OPEN30
 10
6473.334252637474
 20
1087.467603499288
 30
0.0
 41
20.0
 42
20.0
 43
20.0
 50
270.0
  0
INSERT
  5
2C62
330
27D0
100
AcDbEntity
  8
D-STR-DIM
370
    -2
100
AcDbBlockReference
  2
_OPEN30
 10
6473.334252637474
 20
1438.467603499288
 30
0.0
 41
20.0
 42
20.0
 43
20.0
 50
90.0
  0
MTEXT
  5
2C63
330
27D0
100
AcDbEntity
  8
D-STR-DIM
100
AcDbMText
 10
6448.334252637471
 20
1262.967603499289
 30
0.0
 40
30.0
 41
0.0
 71
     5
 72
     1
  1
\A1;351
 11
0.0000000000000001
 21
1.0
 31
0.0
 73
     1
 44
1.0
  0
POINT
  5
2C64
330
27D0
100
AcDbEntity
  8
DEFPOINTS
 62
     0
100
AcDbPoint
 10
6273.334252637472
 20
1087.467603499288
 30
0.0
  0
POINT
  5
2C65
330
27D0
100
AcDbEntity
  8
DEFPOINTS
 62
     0
100
AcDbPoint
 10
6273.334252637472
 20
1438.467603499288
 30
0.0
  0
POINT
  5
2C66
330
27D0
100
AcDbEntity
  8
DEFPOINTS
 62
     0
100
AcDbPoint
 10
6473.334252637474
 20
1438.467603499288
 30
0.0
  0
ENDBLK
  5
27DB
330
27D0
100
AcDbEntity
  8
0
100
AcDbBlockEnd
  0
ENDSEC
  0
SECTION
  2
ENTITIES
  0
LINE
  5
495
330
1F
100
AcDbEntity
  8
D-TTL
100
AcDbLine
 10
-722.5364966062072
 20
5576.678164908861
 30
0.0
 11
7677.46350339379
 21
5576.678164908861
 31
0.0
  0
LINE
  5
496
330
1F
100
AcDbEntity
  8
D-TTL
100
AcDbLine
 10
-722.5364966062072
 20
5576.678164908861
 30
0.0
 11
-722.5364966062072
 21
-363.3218350911397
 31
0.0
  0
LINE
  5
497
330
1F
100
AcDbEntity
  8
D-TTL
100
AcDbLine
 10
-722.5364966062072
 20
-363.3218350911397
 30
0.0
 11
7677.46350339379
 21
-363.3218350911397
 31
0.0
  0
LINE
  5
498
330
1F
100
AcDbEntity
  8
D-TTL
100
AcDbLine
 10
7677.46350339379
 20
5576.678164908861
 30
0.0
 11
7677.46350339379
 21
-363.3218350911397
 31
0.0
  0
MTEXT
  5
4A1
330
1F
100
AcDbEntity
  8
D-STR-TXT
370
    -3
100
AcDbMText
 10
3477.463503393792
 20
5162.053086136143
 30
0.0
 40
50.0
 41
0.0
 71
     5
 72
     1
  1
{\Lリボーン側溝電柱避け250B・C・D}
 73
     1
 44
1.0
  0
MTEXT
  5
4A3
330
1F
100
AcDbEntity
  8
D-STR-TXT
370
    -3
100
AcDbMText
 10
3477.463503393792
 20
2588.582557659584
 30
0.0
 40
50.0
 41
0.0
 71
     5
 72
     1
  1
{\Lリボーン側溝電柱避け300B・C}
 73
     1
 44
1.0
  0
LINE
  5
1292
330
1F
100
AcDbEntity
  8
D-STR
100
AcDbLine
 10
3598.283842644282
 20
3971.548609267543
 30
0.0
 11
3693.552961990095
 21
3741.548609267542
 31
0.0
  0
LINE
  5
1293
330
1F
100
AcDbEntity
  8
D-STR
100
AcDbLine
 10
3996.918402317188
 20
3971.548609267545
 30
0.0
 11
3996.91840231719
 21
3741.548609267543
 31
0.0
  0
LINE
  5
1294
330
1F
100
AcDbEntity
  8
D-STR
100
AcDbLine
 10
3620.030054668868
 20
3919.048609267543
 30
0.0
 11
3371.83557447239
 21
3670.854129071063
 31
0.0
  0
LINE
  5
1295
330
1F
100
AcDbEntity
  8
D-STR
100
AcDbLine
 10
3598.283842644279
 20
3971.548609267543
 30
0.0
 11
3350.089362447802
 21
3723.354129071063
 31
0.0
  0
LINE
  5
1296
330
1F
100
AcDbEntity
  8
D-STR
100
AcDbLine
 10
3693.552961990092
 20
3741.548609267542
 30
0.0
 11
3598.283842644279
 21
3971.548609267543
 31
0.0
  0
LINE
  5
1297
330
1F
100
AcDbEntity
  8
D-STR
100
AcDbLine
 10
2846.16400159714
 20
3971.548609267546
 30
0.0
 11
2750.894882251327
 21
3741.548609267546
 31
0.0
  0
LINE
  5
1298
330
1F
100
AcDbEntity
  8
D-STR
100
AcDbLine
 10
3072.612269769029
 20
3670.854129071065
 30
0.0
 11
2824.417789572552
 21
3919.048609267544
 31
0.0
  0
LINE
  5
1299
330
1F
100
AcDbEntity
  8
D-STR
100
AcDbLine
 10
3094.358481793616
 20
3723.354129071065
 30
0.0
 11
2846.16400159714
 21
3971.548609267546
 31
0.0
  0
TEXT
  5
129A
330
1F
100
AcDbEntity
  8
D-STR-DIM
100
AcDbText
 10
3739.751735650521
 20
3831.548609267542
 30
0.0
 40
50.0
  1
端部右
100
AcDbText
  0
TEXT
  5
129B
330
1F
100
AcDbEntity
  8
D-STR-DIM
100
AcDbText
 10
2538.029441924232
 20
3831.548609267548
 30
0.0
 40
50.0
  1
端部左
100
AcDbText
  0
LINE
  5
129C
330
1F
100
AcDbEntity
  8
D-STR
100
AcDbLine
 10
2447.529441924229
 20
3971.548609267551
 30
0.0
 11
2447.529441924229
 21
3741.54860926755
 31
0.0
  0
LINE
  5
129D
330
1F
100
AcDbEntity
  8
D-STR
100
AcDbLine
 10
2846.164001597136
 20
3971.548609267552
 30
0.0
 11
2750.894882251324
 21
3741.548609267552
 31
0.0
  0
LINE
  5
129E
330
1F
100
AcDbEntity
  8
D-STR
100
AcDbLine
 10
3423.612269769032
 20
3545.854129071065
 30
0.0
 11
3020.835574472394
 21
3545.854129071065
 31
0.0
  0
LINE
  5
129F
330
1F
100
AcDbEntity
  8
D-STR
100
AcDbLine
 10
3445.358481793618
 20
3493.354129071065
 30
0.0
 11
2999.089362447807
 21
3493.354129071065
 31
0.0
  0
LINE
  5
12A0
330
1F
100
AcDbEntity
  8
D-STR
100
AcDbLine
 10
3371.835574472395
 20
3670.854129071065
 30
0.0
 11
3072.612269769032
 21
3670.854129071065
 31
0.0
  0
LINE
  5
12A1
330
1F
100
AcDbEntity
  8
D-STR
100
AcDbLine
 10
3350.089362447807
 20
3723.354129071065
 30
0.0
 11
3094.358481793619
 21
3723.354129071065
 31
0.0
  0
LINE
  5
12A2
330
1F
100
AcDbEntity
  8
D-STR
100
AcDbLine
 10
2447.529441924229
 20
3794.048609267551
 30
0.0
 11
2772.641094275913
 21
3794.048609267552
 31
0.0
  0
LINE
  5
12A3
330
1F
100
AcDbEntity
  8
D-STR
100
AcDbLine
 10
2447.529441924229
 20
3741.54860926755
 30
0.0
 11
2750.894882251324
 21
3741.548609267552
 31
0.0
  0
LINE
  5
12A4
330
1F
100
AcDbEntity
  8
D-STR
100
AcDbLine
 10
2999.089362447807
 20
3493.354129071065
 30
0.0
 11
3094.358481793619
 21
3723.354129071065
 31
0.0
  0
LINE
  5
12A5
330
1F
100
AcDbEntity
  8
D-STR
100
AcDbLine
 10
2999.089362447804
 20
3493.354129071065
 30
0.0
 11
3094.358481793616
 21
3723.354129071065
 31
0.0
  0
LINE
  5
12A6
330
1F
100
AcDbEntity
  8
D-STR
100
AcDbLine
 10
2999.089362447804
 20
3493.354129071065
 30
0.0
 11
2750.894882251327
 21
3741.548609267546
 31
0.0
  0
LINE
  5
12A7
330
1F
100
AcDbEntity
  8
D-STR
100
AcDbLine
 10
3020.835574472391
 20
3545.854129071066
 30
0.0
 11
2772.641094275915
 21
3794.048609267546
 31
0.0
  0
TEXT
  5
12A8
330
1F
100
AcDbEntity
  8
D-STR-DIM
100
AcDbText
 10
3133.890586435703
 20
3583.354129071063
 30
0.0
 40
50.0
  1
中　央
100
AcDbText
  0
TEXT
  5
12A9
330
1F
100
AcDbEntity
  8
D-STR-DIM
100
AcDbText
 10
2844.844934429059
 20
3774.877777703395
 30
0.0
 40
50.0
  1
斜部左
 50
315.0
100
AcDbText
  0
LINE
  5
12AA
330
1F
100
AcDbEntity
  8
D-STR
100
AcDbLine
 10
3671.806749965509
 20
3794.048609267543
 30
0.0
 11
3996.91840231719
 21
3794.048609267543
 31
0.0
  0
LINE
  5
12AB
330
1F
100
AcDbEntity
  8
D-STR
100
AcDbLine
 10
3693.552961990095
 20
3741.548609267542
 30
0.0
 11
3996.91840231719
 21
3741.548609267543
 31
0.0
  0
LINE
  5
12AC
330
1F
100
AcDbEntity
  8
D-STR
100
AcDbLine
 10
3445.358481793618
 20
3493.354129071065
 30
0.0
 11
3350.089362447807
 21
3723.354129071065
 31
0.0
  0
LINE
  5
12AD
330
1F
100
AcDbEntity
  8
D-STR
100
AcDbLine
 10
3445.358481793616
 20
3493.354129071063
 30
0.0
 11
3350.089362447802
 21
3723.354129071063
 31
0.0
  0
LINE
  5
12AE
330
1F
100
AcDbEntity
  8
D-STR
100
AcDbLine
 10
3671.806749965504
 20
3794.048609267543
 30
0.0
 11
3423.612269769029
 21
3545.854129071063
 31
0.0
  0
LINE
  5
12AF
330
1F
100
AcDbEntity
  8
D-STR
100
AcDbLine
 10
3693.552961990092
 20
3741.548609267542
 30
0.0
 11
3445.358481793616
 21
3493.354129071063
 31
0.0
  0
TEXT
  5
12B0
330
1F
100
AcDbEntity
  8
D-STR-DIM
100
AcDbText
 10
3481.751776288823
 20
3657.026644179838
 30
0.0
 40
50.0
  1
斜部右
 50
45.0
100
AcDbText
  0
LINE
  5
12B1
330
1F
100
AcDbEntity
  8
D-STR
100
AcDbLine
 10
2447.529441924229
 20
3919.048609267551
 30
0.0
 11
2824.417789572549
 21
3919.048609267552
 31
0.0
  0
LINE
  5
12B2
330
1F
100
AcDbEntity
  8
D-STR
100
AcDbLine
 10
2447.529441924229
 20
3971.548609267551
 30
0.0
 11
2846.164001597136
 21
3971.548609267552
 31
0.0
  0
LINE
  5
12B3
330
1F
100
AcDbEntity
  8
D-STR
100
AcDbLine
 10
3620.030054668869
 20
3919.048609267543
 30
0.0
 11
3996.918402317188
 21
3919.048609267543
 31
0.0
  0
LINE
  5
12B4
330
1F
100
AcDbEntity
  8
D-STR
100
AcDbLine
 10
3598.283842644282
 20
3971.548609267543
 30
0.0
 11
3996.918402317188
 21
3971.548609267545
 31
0.0
  0
LINE
  5
12B5
330
1F
100
AcDbEntity
  8
D-STR
100
AcDbLine
 10
3428.789939298669
 20
858.35441407106
 30
0.0
 11
3015.657904942703
 21
858.35441407106
 31
0.0
  0
LINE
  5
12B6
330
1F
100
AcDbEntity
  8
D-STR
100
AcDbLine
 10
3451.57168522919
 20
803.3544140710601
 30
0.0
 11
2992.876159012185
 21
803.3544140710601
 31
0.0
  0
LINE
  5
12B7
330
1F
100
AcDbEntity
  8
D-STR
100
AcDbLine
 10
3343.876159012185
 20
1063.35441407106
 30
0.0
 11
3100.57168522919
 21
1063.35441407106
 31
0.0
  0
LINE
  5
12B8
330
1F
100
AcDbEntity
  8
D-STR
100
AcDbLine
 10
3366.657904942703
 20
1008.35441407106
 30
0.0
 11
3077.789939298668
 21
1008.35441407106
 31
0.0
  0
TEXT
  5
12B9
330
1F
100
AcDbEntity
  8
D-STR-DIM
100
AcDbText
 10
3133.890588787351
 20
908.35441407106
 30
0.0
 40
50.0
  1
中　央
100
AcDbText
  0
LINE
  5
12BA
330
1F
100
AcDbEntity
  8
D-STR
100
AcDbLine
 10
2992.876159012189
 20
803.3544140710601
 30
0.0
 11
3100.571685229192
 21
1063.35441407106
 31
0.0
  0
LINE
  5
12BB
330
1F
100
AcDbEntity
  8
D-STR
100
AcDbLine
 10
3015.657904942708
 20
858.35441407106
 30
0.0
 11
2767.46342474623
 21
1106.548894267538
 31
0.0
  0
LINE
  5
12BC
330
1F
100
AcDbEntity
  8
D-STR
100
AcDbLine
 10
2992.876159012189
 20
803.3544140710601
 30
0.0
 11
2744.68167881571
 21
1051.548894267537
 31
0.0
  0
LINE
  5
12BD
330
1F
100
AcDbEntity
  8
D-STR
100
AcDbLine
 10
2992.876159012185
 20
803.3544140710601
 30
0.0
 11
3100.57168522919
 21
1063.35441407106
 31
0.0
  0
LINE
  5
12BE
330
1F
100
AcDbEntity
  8
D-STR
100
AcDbLine
 10
2447.529441924211
 20
1051.548894267537
 30
0.0
 11
2744.681678815708
 21
1051.548894267537
 31
0.0
  0
LINE
  5
12BF
330
1F
100
AcDbEntity
  8
D-STR
100
AcDbLine
 10
2447.529441924211
 20
1106.548894267538
 30
0.0
 11
2767.463424746229
 21
1106.548894267538
 31
0.0
  0
LINE
  5
12C0
330
1F
100
AcDbEntity
  8
D-STR
100
AcDbLine
 10
2447.529441924211
 20
1311.548894267537
 30
0.0
 11
2852.377205032713
 21
1311.548894267537
 31
0.0
  0
LINE
  5
12C1
330
1F
100
AcDbEntity
  8
D-STR
100
AcDbLine
 10
2447.529441924211
 20
1256.548894267538
 30
0.0
 11
2829.595459102193
 21
1256.548894267538
 31
0.0
  0
LINE
  5
12C2
330
1F
100
AcDbEntity
  8
D-STR
100
AcDbLine
 10
2447.529441924211
 20
1311.548894267537
 30
0.0
 11
2447.529441924211
 21
1051.548894267537
 31
0.0
  0
TEXT
  5
12C3
330
1F
100
AcDbEntity
  8
D-STR-DIM
100
AcDbText
 10
2538.02944192421
 20
1156.548894267537
 30
0.0
 40
50.0
  1
端部左
100
AcDbText
  0
LINE
  5
12C4
330
1F
100
AcDbEntity
  8
D-STR
100
AcDbLine
 10
2852.377205032713
 20
1311.548894267537
 30
0.0
 11
2744.681678815708
 21
1051.548894267537
 31
0.0
  0
LINE
  5
12C5
330
1F
100
AcDbEntity
  8
D-STR
100
AcDbLine
 10
2852.377205032714
 20
1311.548894267537
 30
0.0
 11
2744.68167881571
 21
1051.548894267537
 31
0.0
  0
LINE
  5
12C6
330
1F
100
AcDbEntity
  8
D-STR
100
AcDbLine
 10
3077.789939298673
 20
1008.35441407106
 30
0.0
 11
2829.595459102194
 21
1256.548894267538
 31
0.0
  0
LINE
  5
12C7
330
1F
100
AcDbEntity
  8
D-STR
100
AcDbLine
 10
3100.571685229192
 20
1063.35441407106
 30
0.0
 11
2852.377205032714
 21
1311.548894267537
 31
0.0
  0
TEXT
  5
12C8
330
1F
100
AcDbEntity
  8
D-STR-DIM
100
AcDbText
 10
2844.844936091928
 20
1099.878061040491
 30
0.0
 40
50.0
  1
斜部左
 50
315.0
100
AcDbText
  0
LINE
  5
12C9
330
1F
100
AcDbEntity
  8
D-STR
100
AcDbLine
 10
3699.766165425675
 20
1051.548894267537
 30
0.0
 11
3451.571685229196
 21
803.3544140710601
 31
0.0
  0
LINE
  5
12CA
330
1F
100
AcDbEntity
  8
D-STR
100
AcDbLine
 10
3676.984419495154
 20
1106.548894267538
 30
0.0
 11
3428.789939298678
 21
858.35441407106
 31
0.0
  0
LINE
  5
12CB
330
1F
100
AcDbEntity
  8
D-STR
100
AcDbLine
 10
3451.571685229196
 20
803.3544140710601
 30
0.0
 11
3343.876159012192
 21
1063.35441407106
 31
0.0
  0
LINE
  5
12CC
330
1F
100
AcDbEntity
  8
D-STR
100
AcDbLine
 10
3451.57168522919
 20
803.3544140710601
 30
0.0
 11
3343.876159012185
 21
1063.35441407106
 31
0.0
  0
LINE
  5
12CD
330
1F
100
AcDbEntity
  8
D-STR
100
AcDbLine
 10
3592.070639208667
 20
1311.548894267537
 30
0.0
 11
3996.918402317171
 21
1311.548894267537
 31
0.0
  0
LINE
  5
12CE
330
1F
100
AcDbEntity
  8
D-STR
100
AcDbLine
 10
3614.852385139187
 20
1256.548894267538
 30
0.0
 11
3996.918402317169
 21
1256.548894267538
 31
0.0
  0
LINE
  5
12CF
330
1F
100
AcDbEntity
  8
D-STR
100
AcDbLine
 10
3676.984419495153
 20
1106.548894267538
 30
0.0
 11
3996.918402317169
 21
1106.548894267538
 31
0.0
  0
LINE
  5
12D0
330
1F
100
AcDbEntity
  8
D-STR
100
AcDbLine
 10
3699.766165425671
 20
1051.548894267537
 30
0.0
 11
3996.918402317169
 21
1051.548894267537
 31
0.0
  0
LINE
  5
12D1
330
1F
100
AcDbEntity
  8
D-STR
100
AcDbLine
 10
3592.070639208667
 20
1311.548894267537
 30
0.0
 11
3699.766165425671
 21
1051.548894267537
 31
0.0
  0
LINE
  5
12D2
330
1F
100
AcDbEntity
  8
D-STR
100
AcDbLine
 10
3614.852385139191
 20
1256.548894267538
 30
0.0
 11
3366.657904942712
 21
1008.35441407106
 31
0.0
  0
LINE
  5
12D3
330
1F
100
AcDbEntity
  8
D-STR
100
AcDbLine
 10
3592.07063920867
 20
1311.548894267537
 30
0.0
 11
3343.876159012192
 21
1063.35441407106
 31
0.0
  0
LINE
  5
12D4
330
1F
100
AcDbEntity
  8
D-STR
100
AcDbLine
 10
3699.766165425675
 20
1051.548894267537
 30
0.0
 11
3592.07063920867
 21
1311.548894267537
 31
0.0
  0
TEXT
  5
12D5
330
1F
100
AcDbEntity
  8
D-STR-DIM
100
AcDbText
 10
3481.751777951704
 20
982.0269308427342
 30
0.0
 40
50.0
  1
斜部右
 50
45.0
100
AcDbText
  0
TEXT
  5
12D6
330
1F
100
AcDbEntity
  8
D-STR-DIM
100
AcDbText
 10
3739.751735650505
 20
1156.548894267537
 30
0.0
 40
50.0
  1
端部右
100
AcDbText
  0
LINE
  5
12D7
330
1F
100
AcDbEntity
  8
D-STR
100
AcDbLine
 10
3996.918402317169
 20
1311.548894267537
 30
0.0
 11
3996.918402317169
 21
1051.548894267537
 31
0.0
  0
DIMENSION
  5
1341
330
1F
100
AcDbEntity
  8
D-STR-DIM
100
AcDbDimension
  2
*D2
 10
3996.91840231719
 20
3310.205830307041
 30
0.0
 11
3222.22392212071
 21
3335.205830307041
 31
0.0
 70
    32
 71
     5
 42
3098.77792078592
  3
S5
100
AcDbAlignedDimension
 13
2447.529441924229
 23
3741.548609267546
 33
0.0
 14
3996.91840231719
 24
3741.548609267543
 34
0.0
100
AcDbRotatedDimension
  0
DIMENSION
  5
1360
330
1F
100
AcDbEntity
  8
D-STR-DIM
100
AcDbDimension
  2
*D3
 10
3152.005750656723
 20
3723.35412907106
 30
0.0
 11
3127.005750656723
 21
3847.451369169304
 31
0.0
 70
    32
 71
     5
 42
496.3889603929718
  3
S5
100
AcDbAlignedDimension
 13
2846.16400159714
 23
3971.548609267546
 33
0.0
 14
3094.358481793619
 24
3723.35412907106
 34
0.0
 50
90.0
100
AcDbRotatedDimension
  0
DIMENSION
  5
1376
330
1F
100
AcDbEntity
  8
D-STR-DIM
100
AcDbDimension
  2
*D6
 10
4113.418202466884
 20
3794.048609267543
 30
0.0
 11
4088.418202466885
 21
3856.548609267543
 31
0.0
 70
    32
 71
     5
 42
250.0
  3
S5
100
AcDbAlignedDimension
 13
3996.91840231719
 23
3919.048609267543
 33
0.0
 14
3996.91840231719
 24
3794.048609267543
 34
0.0
 50
90.0
100
AcDbRotatedDimension
  0
DIMENSION
  5
1377
330
1F
100
AcDbEntity
  8
D-STR-DIM
100
AcDbDimension
  2
*D5
 10
4113.418202466884
 20
3919.048609267543
 30
0.0
 11
4113.418202466884
 21
3944.048609267545
 31
0.0
 70
   160
 71
     5
 42
105.0
  3
S5
100
AcDbAlignedDimension
 13
3996.918402317188
 23
3971.548609267545
 33
0.0
 14
3996.91840231719
 24
3919.048609267543
 34
0.0
 50
90.0
100
AcDbRotatedDimension
1001
ACAD
1000
DSTYLE
1002
{
1070
   279
1070
     1
1002
}
  0
DIMENSION
  5
1378
330
1F
100
AcDbEntity
  8
D-STR-DIM
100
AcDbDimension
  2
*D4
 10
4113.418202466884
 20
3741.548609267542
 30
0.0
 11
4113.418202466884
 21
3767.798609267543
 31
0.0
 70
   160
 71
     5
 42
105.0000000000018
  3
S5
100
AcDbAlignedDimension
 13
3996.91840231719
 23
3794.048609267543
 33
0.0
 14
3996.918402317191
 24
3741.548609267542
 34
0.0
 50
90.0
100
AcDbRotatedDimension
1001
ACAD
1000
DSTYLE
1002
{
1070
   279
1070
     1
1002
}
  0
DIMENSION
  5
1379
330
1F
100
AcDbEntity
  8
D-STR-DIM
100
AcDbDimension
  2
*D7
 10
4218.517848052679
 20
3741.548609267541
 30
0.0
 11
4193.517848052677
 21
3856.548609267543
 31
0.0
 70
    32
 71
     5
 42
460.0000000000071
  3
S5
100
AcDbAlignedDimension
 13
3996.918402317188
 23
3971.548609267545
 33
0.0
 14
3996.918402317191
 24
3741.548609267541
 34
0.0
 50
90.0
100
AcDbRotatedDimension
  0
DIMENSION
  5
14EE
330
1F
100
AcDbEntity
  8
D-STR-DIM
100
AcDbDimension
  2
*D9
 10
3158.218954092296
 20
1063.354414071052
 30
0.0
 11
3133.218954092297
 21
1187.451654169295
 31
0.0
 70
    32
 71
     5
 42
496.3889603929728
  3
S5
100
AcDbAlignedDimension
 13
2852.377205032713
 23
1311.548894267537
 33
0.0
 14
3100.571685229192
 24
1063.354414071052
 34
0.0
 50
90.0
100
AcDbRotatedDimension
  0
DIMENSION
  5
14EF
330
1F
100
AcDbEntity
  8
D-STR-DIM
100
AcDbDimension
  2
*D8
 10
3996.918402317171
 20
620.2061153070334
 30
0.0
 11
3222.223922120691
 21
645.2061153070334
 31
0.0
 70
    32
 71
     5
 42
3098.77792078592
  3
S5
100
AcDbAlignedDimension
 13
2447.529441924211
 23
1051.548894267537
 33
0.0
 14
3996.918402317171
 24
1051.548894267536
 34
0.0
100
AcDbRotatedDimension
  0
DIMENSION
  5
14F0
330
1F
100
AcDbEntity
  8
D-STR-DIM
100
AcDbDimension
  2
*D13
 10
4218.517848052661
 20
1051.548894267537
 30
0.0
 11
4193.51784805266
 21
1181.548894267539
 31
0.0
 70
    32
 71
     5
 42
520.0
  3
S5
100
AcDbAlignedDimension
 13
3996.918402317171
 23
1311.548894267537
 33
0.0
 14
3996.918402317169
 24
1051.548894267537
 34
0.0
 50
90.0
100
AcDbRotatedDimension
  0
DIMENSION
  5
14F1
330
1F
100
AcDbEntity
  8
D-STR-DIM
100
AcDbDimension
  2
*D10
 10
4113.418202466868
 20
1106.548894267538
 30
0.0
 11
4088.418202466868
 21
1181.548894267538
 31
0.0
 70
    32
 71
     5
 42
299.9999999999991
  3
S5
100
AcDbAlignedDimension
 13
3996.918402317169
 23
1256.548894267538
 33
0.0
 14
3996.918402317169
 24
1106.548894267538
 34
0.0
 50
90.0
100
AcDbRotatedDimension
  0
DIMENSION
  5
14F2
330
1F
100
AcDbEntity
  8
D-STR-DIM
100
AcDbDimension
  2
*D12
 10
4113.418202466868
 20
1051.548894267541
 30
0.0
 11
4113.418202466868
 21
1079.048894267539
 31
0.0
 70
   160
 71
     5
 42
109.9999999999945
  3
S5
100
AcDbAlignedDimension
 13
3996.918402317169
 23
1106.548894267538
 33
0.0
 14
3996.918402317169
 24
1051.548894267541
 34
0.0
 50
90.0
100
AcDbRotatedDimension
1001
ACAD
1000
DSTYLE
1002
{
1070
   279
1070
     1
1002
}
  0
DIMENSION
  5
14F3
330
1F
100
AcDbEntity
  8
D-STR-DIM
100
AcDbDimension
  2
*D11
 10
4113.418202466868
 20
1256.548894267538
 30
0.0
 11
4113.418202466868
 21
1284.048894267537
 31
0.0
 70
   160
 71
     5
 42
110.0000000000009
  3
S5
100
AcDbAlignedDimension
 13
3996.918402317171
 23
1311.548894267537
 33
0.0
 14
3996.918402317169
 24
1256.548894267538
 34
0.0
 50
90.0
100
AcDbRotatedDimension
1001
ACAD
1000
DSTYLE
1002
{
1070
   279
1070
     1
1002
}
  0
MTEXT
  5
167C
330
1F
100
AcDbEntity
  8
D-STR-TXT
370
    -3
100
AcDbMText
 10
3222.223922120687
 20
1859.699157692926
 30
0.0
 40
50.0
 41
0.0
 71
     5
 72
     1
  1
（平面展開図）\PS=1/5
 73
     1
 44
1.0
  0
MTEXT
  5
167D
330
1F
100
AcDbEntity
  8
D-STR-TXT
370
    -3
100
AcDbMText
 10
3222.223922120714
 20
4519.698872692931
 30
0.0
 40
50.0
 41
0.0
 71
     5
 72
     1
  1
（平面展開図）\PS=1/5
 73
     1
 44
1.0
  0
LINE
  5
1681
102
{ACAD_REACTORS
330
191C
102
}
330
1F
100
AcDbEntity
  8
D-STR
100
AcDbLine
 10
-162.1911681941419
 20
4003.274616037992
 30
0.0
 11
635.0779511516702
 21
4003.274616037994
 31
0.0
  0
LINE
  5
1682
330
1F
100
AcDbEntity
  8
D-STR
100
AcDbLine
 10
984.4210969021803
 20
3151.885655645022
 30
0.0
 11
488.0321365092276
 21
3648.274616037983
 31
0.0
  0
LINE
  5
1683
102
{ACAD_REACTORS
330
1976
102
}
330
1F
100
AcDbEntity
  8
D-STR
100
AcDbLine
 10
940.928672853006
 20
3046.885655645021
 30
0.0
 11
444.5397124600531
 21
3543.274616037983
 31
0.0
  0
LINE
  5
1684
330
1F
100
AcDbEntity
  8
D-STR
100
AcDbLine
 10
635.0779511516702
 20
4003.274616037994
 30
0.0
 11
444.5397124600457
 21
3543.274616037994
 31
0.0
  0
LINE
  5
1685
330
1F
100
AcDbEntity
  8
D-STR
100
AcDbLine
 10
1087.974487495455
 20
3401.88565564502
 30
0.0
 11
591.5855271025028
 21
3898.274616037981
 31
0.0
  0
LINE
  5
1686
330
1F
100
AcDbEntity
  8
D-STR
100
AcDbLine
 10
635.0779511516774
 20
4003.274616037983
 30
0.0
 11
444.5397124600531
 21
3543.274616037983
 31
0.0
  0
LINE
  5
1687
330
1F
100
AcDbEntity
  8
D-STR
100
AcDbLine
 10
-162.1911681941419
 20
3898.274616037991
 30
0.0
 11
591.5855271024956
 21
3898.274616037994
 31
0.0
  0
LINE
  5
1688
102
{ACAD_REACTORS
330
1976
102
}
330
1F
100
AcDbEntity
  8
D-STR
100
AcDbLine
 10
-162.1911681941419
 20
3543.274616037992
 30
0.0
 11
444.5397124600457
 21
3543.274616037994
 31
0.0
  0
LINE
  5
1689
330
1F
100
AcDbEntity
  8
D-STR
100
AcDbLine
 10
-162.1911681941419
 20
3648.274616037991
 30
0.0
 11
488.0321365092241
 21
3648.274616037994
 31
0.0
  0
LINE
  5
168A
102
{ACAD_REACTORS
330
191C
330
1A01
102
}
330
1F
100
AcDbEntity
  8
D-STR
100
AcDbLine
 10
-162.1911681941419
 20
4003.274616037992
 30
0.0
 11
-162.1911681941419
 21
3543.274616037992
 31
0.0
  0
LINE
  5
168D
330
1F
100
AcDbEntity
  8
D-STR
100
AcDbLine
 10
1833.46691154463
 20
3046.885655645015
 30
0.0
 11
1642.928672853005
 21
3506.885655645016
 31
0.0
  0
LINE
  5
168E
330
1F
100
AcDbEntity
  8
D-STR
100
AcDbLine
 10
1833.466911544637
 20
3046.885655645019
 30
0.0
 11
1642.928672853012
 21
3506.885655645019
 31
0.0
  0
LINE
  5
168F
330
1F
100
AcDbEntity
  8
D-STR
100
AcDbLine
 10
940.928672853006
 20
3046.885655645021
 30
0.0
 11
1131.46691154463
 21
3506.885655645019
 31
0.0
  0
LINE
  5
1690
330
1F
100
AcDbEntity
  8
D-STR
100
AcDbLine
 10
940.9286728530132
 20
3046.885655645021
 30
0.0
 11
1131.466911544637
 21
3506.885655645019
 31
0.0
  0
LINE
  5
1691
330
1F
100
AcDbEntity
  8
D-STR
100
AcDbLine
 10
1833.466911544637
 20
3046.885655645019
 30
0.0
 11
940.9286728530132
 21
3046.885655645021
 31
0.0
  0
LINE
  5
1692
330
1F
100
AcDbEntity
  8
D-STR
100
AcDbLine
 10
1789.974487495462
 20
3151.885655645019
 30
0.0
 11
984.4210969021878
 21
3151.885655645019
 31
0.0
  0
LINE
  5
1694
330
1F
100
AcDbEntity
  8
D-STR
100
AcDbLine
 10
1642.928672853012
 20
3506.885655645019
 30
0.0
 11
1131.466911544637
 21
3506.885655645019
 31
0.0
  0
LINE
  5
1695
330
1F
100
AcDbEntity
  8
D-STR
100
AcDbLine
 10
1686.421096902186
 20
3401.885655645019
 30
0.0
 11
1087.974487495462
 21
3401.885655645019
 31
0.0
  0
LINE
  5
1696
330
1F
100
AcDbEntity
  8
D-STR
100
AcDbLine
 10
1131.46691154463
 20
3506.885655645019
 30
0.0
 11
635.0779511516774
 21
4003.274616037983
 31
0.0
  0
LINE
  5
1698
330
1F
100
AcDbEntity
  8
D-STR
100
AcDbLine
 10
1098.329826554769
 20
766.8859406450272
 30
0.0
 11
601.9408661618143
 21
1263.274901037984
 31
0.0
  0
LINE
  5
1699
330
1F
100
AcDbEntity
  8
D-STR
100
AcDbLine
 10
647.5043580228557
 20
1373.274901037984
 30
0.0
 11
432.1133055888458
 21
853.2749010379848
 31
0.0
  0
LINE
  5
169A
330
1F
100
AcDbEntity
  8
D-STR
100
AcDbLine
 10
647.5043580228521
 20
1373.274901037984
 30
0.0
 11
432.1133055888421
 21
853.274901037984
 31
0.0
  0
LINE
  5
169B
330
1F
100
AcDbEntity
  8
D-STR
100
AcDbLine
 10
-162.1911681941528
 20
1373.274901037984
 30
0.0
 11
647.5043580228521
 21
1373.274901037984
 31
0.0
  0
LINE
  5
169C
330
1F
100
AcDbEntity
  8
D-STR
100
AcDbLine
 10
928.5022659818023
 20
356.8859406450274
 30
0.0
 11
432.1133055888458
 21
853.2749010379848
 31
0.0
  0
LINE
  5
169D
330
1F
100
AcDbEntity
  8
D-STR
100
AcDbLine
 10
974.0657578428436
 20
466.8859406450272
 30
0.0
 11
477.6767974498871
 21
963.2749010379848
 31
0.0
  0
LINE
  5
169E
330
1F
100
AcDbEntity
  8
D-STR
100
AcDbLine
 10
-162.1911681941528
 20
1373.274901037984
 30
0.0
 11
-162.1911681941528
 21
853.274901037984
 31
0.0
  0
LINE
  5
169F
330
1F
100
AcDbEntity
  8
D-STR
100
AcDbLine
 10
-162.1911681941528
 20
1263.274901037983
 30
0.0
 11
601.9408661618107
 21
1263.274901037984
 31
0.0
  0
LINE
  5
16A0
330
1F
100
AcDbEntity
  8
D-STR
100
AcDbLine
 10
-162.1911681941528
 20
963.2749010379839
 30
0.0
 11
477.6767974498833
 21
963.2749010379839
 31
0.0
  0
LINE
  5
16A1
330
1F
100
AcDbEntity
  8
D-STR
100
AcDbLine
 10
-162.1911681941528
 20
853.274901037984
 30
0.0
 11
432.1133055888421
 21
853.274901037984
 31
0.0
  0
LINE
  5
16A4
330
1F
100
AcDbEntity
  8
D-STR
100
AcDbLine
 10
1143.893318415811
 20
876.8859406450273
 30
0.0
 11
647.5043580228557
 21
1373.274901037984
 31
0.0
  0
LINE
  5
16A5
330
1F
100
AcDbEntity
  8
D-STR
100
AcDbLine
 10
928.5022659817952
 20
356.8859406450274
 30
0.0
 11
1143.893318415803
 21
876.8859406450273
 31
0.0
  0
LINE
  5
16A6
330
1F
100
AcDbEntity
  8
D-STR
100
AcDbLine
 10
928.5022659818023
 20
356.8859406450274
 30
0.0
 11
1143.893318415811
 21
876.8859406450273
 31
0.0
  0
LINE
  5
16A7
330
1F
100
AcDbEntity
  8
D-STR
100
AcDbLine
 10
1845.893318415805
 20
356.8859406450265
 30
0.0
 11
1630.502265981795
 21
876.8859406450273
 31
0.0
  0
LINE
  5
16A8
330
1F
100
AcDbEntity
  8
D-STR
100
AcDbLine
 10
1845.893318415819
 20
356.8859406450254
 30
0.0
 11
1630.502265981809
 21
876.8859406450255
 31
0.0
  0
LINE
  5
16A9
330
1F
100
AcDbEntity
  8
D-STR
100
AcDbLine
 10
1845.893318415805
 20
356.8859406450274
 30
0.0
 11
928.5022659817952
 21
356.8859406450274
 31
0.0
  0
LINE
  5
16AB
330
1F
100
AcDbEntity
  8
D-STR
100
AcDbLine
 10
1676.065757842831
 20
766.8859406450272
 30
0.0
 11
1098.329826554762
 21
766.8859406450272
 31
0.0
  0
LINE
  5
16AC
330
1F
100
AcDbEntity
  8
D-STR
100
AcDbLine
 10
1630.502265981795
 20
876.8859406450273
 30
0.0
 11
1143.893318415803
 21
876.8859406450273
 31
0.0
  0
LINE
  5
16AD
330
1F
100
AcDbEntity
  8
D-STR
100
AcDbLine
 10
1800.329826554762
 20
466.8859406450272
 30
0.0
 11
974.0657578428326
 21
466.8859406450272
 31
0.0
  0
LINE
  5
18B8
102
{ACAD_REACTORS
330
1A01
102
}
330
1F
100
AcDbEntity
  8
D-STR-DIM
  6
CENTER
100
AcDbLine
 10
-212.1911681941419
 20
3773.274616037991
 30
0.0
 11
539.8088318058524
 21
3773.274616037991
 31
0.0
  0
LINE
  5
18B9
102
{ACAD_REACTORS
330
1A31
102
}
330
1F
100
AcDbEntity
  8
D-STR-DIM
  6
CENTER
100
AcDbLine
 10
1036.197792198821
 20
3276.88565564502
 30
0.0
 11
539.8088318058524
 21
3773.274616037991
 31
0.0
  0
LINE
  5
18BA
330
1F
100
AcDbEntity
  8
D-STR-DIM
  6
CENTER
100
AcDbLine
 10
1738.197792198829
 20
3276.885655645019
 30
0.0
 11
1036.197792198821
 21
3276.88565564502
 31
0.0
  0
LINE
  5
18BB
330
1F
100
AcDbEntity
  8
D-STR-DIM
  6
CENTER
100
AcDbLine
 10
-212.1911681941528
 20
1113.274901037983
 30
0.0
 11
539.8088318058507
 21
1113.274901037983
 31
0.0
  0
LINE
  5
18BC
330
1F
100
AcDbEntity
  8
D-STR-DIM
  6
CENTER
100
AcDbLine
 10
1036.197792198807
 20
616.8859406450272
 30
0.0
 11
539.8088318058507
 21
1113.274901037983
 31
0.0
  0
LINE
  5
18BD
330
1F
100
AcDbEntity
  8
D-STR-DIM
  6
CENTER
100
AcDbLine
 10
1738.1977921988
 20
616.8859406450272
 30
0.0
 11
1036.197792198807
 21
616.8859406450272
 31
0.0
  0
LINE
  5
18BE
330
1F
100
AcDbEntity
  8
D-STR
100
AcDbLine
 10
-162.1911681941419
 20
3958.27461603799
 30
0.0
 11
616.4383408448757
 21
3958.274616037995
 31
0.0
  0
LINE
  5
18BF
330
1F
100
AcDbEntity
  8
D-STR
100
AcDbLine
 10
1112.827301237841
 20
3461.885655645019
 30
0.0
 11
616.4383408448757
 21
3958.274616037995
 31
0.0
  0
LINE
  5
18C0
330
1F
100
AcDbEntity
  8
D-STR
100
AcDbLine
 10
1661.5682831598
 20
3461.885655645019
 30
0.0
 11
1112.827301237841
 21
3461.885655645019
 31
0.0
  0
LINE
  5
18C1
330
1F
100
AcDbEntity
  8
D-STR
100
AcDbLine
 10
-162.1911681941419
 20
3588.274616037992
 30
0.0
 11
463.1793227668312
 21
3588.274616037992
 31
0.0
  0
LINE
  5
18C2
330
1F
100
AcDbEntity
  8
D-STR
100
AcDbLine
 10
959.5682831597933
 20
3091.885655645022
 30
0.0
 11
463.1793227668312
 21
3588.274616037992
 31
0.0
  0
LINE
  5
18C3
330
1F
100
AcDbEntity
  8
D-STR
100
AcDbLine
 10
1814.827301237846
 20
3091.885655645018
 30
0.0
 11
959.5682831597933
 21
3091.885655645022
 31
0.0
  0
LINE
  5
18D0
330
1F
100
AcDbEntity
  8
D-STR
100
AcDbLine
 10
-162.1911681941528
 20
1328.274901037984
 30
0.0
 11
628.8647477160683
 21
1328.274901037984
 31
0.0
  0
LINE
  5
18D1
330
1F
100
AcDbEntity
  8
D-STR
100
AcDbLine
 10
-162.1911681941528
 20
898.2749010379839
 30
0.0
 11
450.7529158956348
 21
898.2749010379839
 31
0.0
  0
LINE
  5
18D2
330
1F
100
AcDbEntity
  8
D-STR
100
AcDbLine
 10
947.1418762885914
 20
401.8859406450274
 30
0.0
 11
450.7529158956348
 21
898.2749010379839
 31
0.0
  0
LINE
  5
18D3
330
1F
100
AcDbEntity
  8
D-STR
100
AcDbLine
 10
1125.253708109025
 20
831.8859406450272
 30
0.0
 11
628.8647477160683
 21
1328.274901037984
 31
0.0
  0
LINE
  5
18D4
330
1F
100
AcDbEntity
  8
D-STR
100
AcDbLine
 10
1827.253708109016
 20
401.8859406450274
 30
0.0
 11
947.1418762885914
 21
401.8859406450274
 31
0.0
  0
LINE
  5
18D5
330
1F
100
AcDbEntity
  8
D-STR
100
AcDbLine
 10
1649.141876288584
 20
831.8859406450272
 30
0.0
 11
1125.253708109025
 21
831.8859406450272
 31
0.0
  0
LINE
  5
18E3
330
1F
100
AcDbEntity
  8
D-STR
  6
HIDDEN
100
AcDbLine
 10
1649.141876288575
 20
831.8859406450272
 30
0.0
 11
1897.336356485053
 21
1080.080420841507
 31
0.0
  0
LINE
  5
18E4
330
1F
100
AcDbEntity
  8
D-STR
  6
HIDDEN
100
AcDbLine
 10
1630.502265981788
 20
876.8859406450273
 30
0.0
 11
1878.696746178268
 21
1125.080420841505
 31
0.0
  0
LINE
  5
18E5
330
1F
100
AcDbEntity
  8
D-STR
  6
HIDDEN
100
AcDbLine
 10
1676.065757842829
 20
766.8859406450272
 30
0.0
 11
1924.260238039306
 21
1015.080420841504
 31
0.0
  0
LINE
  5
18E6
330
1F
100
AcDbEntity
  8
D-STR
  6
HIDDEN
100
AcDbLine
 10
1827.253708109007
 20
401.8859406450274
 30
0.0
 11
2075.448188305488
 21
650.0804208415061
 31
0.0
  0
LINE
  5
18E7
330
1F
100
AcDbEntity
  8
D-STR
  6
HIDDEN
100
AcDbLine
 10
1845.893318415797
 20
356.8859406450274
 30
0.0
 11
2094.087798612278
 21
605.080420841505
 31
0.0
  0
LINE
  5
18E8
330
1F
100
AcDbEntity
  8
D-STR
  6
HIDDEN
100
AcDbLine
 10
1800.329826554755
 20
466.8859406450272
 30
0.0
 11
2048.524306751235
 21
715.0804208415062
 31
0.0
  0
LINE
  5
18EA
330
1F
100
AcDbEntity
  8
D-STR
  6
HIDDEN
100
AcDbLine
 10
1642.92867285302
 20
3506.885655645019
 30
0.0
 11
1891.123153049496
 21
3755.0801358415
 31
0.0
  0
LINE
  5
18EB
330
1F
100
AcDbEntity
  8
D-STR
  6
HIDDEN
100
AcDbLine
 10
1661.568283159809
 20
3461.885655645019
 30
0.0
 11
1909.762763356288
 21
3710.080135841502
 31
0.0
  0
LINE
  5
18EC
330
1F
100
AcDbEntity
  8
D-STR
  6
HIDDEN
100
AcDbLine
 10
1686.421096902195
 20
3401.88565564502
 30
0.0
 11
1934.615577098673
 21
3650.080135841501
 31
0.0
  0
LINE
  5
18ED
330
1F
100
AcDbEntity
  8
D-STR
  6
HIDDEN
100
AcDbLine
 10
1833.466911544643
 20
3046.885655645021
 30
0.0
 11
2081.661391741121
 21
3295.080135841502
 31
0.0
  0
LINE
  5
18EE
330
1F
100
AcDbEntity
  8
D-STR
  6
HIDDEN
100
AcDbLine
 10
1814.827301237857
 20
3091.885655645022
 30
0.0
 11
2063.021781434331
 21
3340.080135841502
 31
0.0
  0
LINE
  5
18EF
330
1F
100
AcDbEntity
  8
D-STR
  6
HIDDEN
100
AcDbLine
 10
1789.974487495469
 20
3151.885655645022
 30
0.0
 11
2038.168967691946
 21
3400.080135841503
 31
0.0
  0
LINE
  5
1901
330
1F
100
AcDbEntity
  8
D-STR-DIM
  6
CENTER
100
AcDbLine
 10
1738.197792198829
 20
3276.885655645019
 30
0.0
 11
2021.747611454637
 21
3560.435474900828
 31
0.0
  0
LINE
  5
1902
330
1F
100
AcDbEntity
  8
D-STR-DIM
  6
CENTER
100
AcDbLine
 10
1738.1977921988
 20
616.8859406450272
 30
0.0
 11
2021.747611454602
 21
900.435759900829
 31
0.0
  0
DIMENSION
  5
1905
102
{ACAD_XDICTIONARY
360
1912
102
}
102
{ACAD_REACTORS
330
191C
102
}
330
1F
100
AcDbEntity
  8
D-STR-DIM
100
AcDbDimension
  2
*D14
 10
635.0779511516702
 20
4209.31662483609
 30
0.0
 11
236.443391478764
 21
4234.31662483609
 31
0.0
 70
    32
 71
     5
 42
797.2691193458122
  3
S10
100
AcDbAlignedDimension
 13
-162.1911681941419
 23
4003.274616037992
 33
0.0
 14
635.0779511516702
 24
4003.274616037994
 34
0.0
100
AcDbRotatedDimension
  0
DIMENSION
  5
193E
330
1F
100
AcDbEntity
  8
D-STR-DIM
100
AcDbDimension
  2
*D15
 10
444.5397124600457
 20
3337.232607239892
 30
0.0
 11
141.1742721329519
 21
3362.232607239892
 31
0.0
 70
    32
 71
     5
 42
606.7308806541878
  3
S10
100
AcDbAlignedDimension
 13
-162.1911681941419
 23
3543.274616037992
 33
0.0
 14
444.5397124600457
 24
3543.274616037994
 34
0.0
100
AcDbRotatedDimension
  0
DIMENSION
  5
195F
102
{ACAD_XDICTIONARY
360
196C
102
}
102
{ACAD_REACTORS
330
1976
102
}
330
1F
100
AcDbEntity
  8
D-STR-DIM
100
AcDbDimension
  2
*D16
 10
805.3689555037394
 20
2911.325938295759
 30
0.0
 11
574.8521448369236
 21
3177.198088021908
 31
0.0
 70
    33
 71
     5
 42
702.0000000000139
  3
S10
100
AcDbAlignedDimension
 13
444.5397124600457
 23
3543.274616037994
 33
0.0
 14
940.928672853006
 24
3046.885655645021
 34
0.0
  0
DIMENSION
  5
1977
330
1F
100
AcDbEntity
  8
D-STR-DIM
100
AcDbDimension
  2
*D17
 10
1267.026628893906
 20
3642.445372994291
 30
0.0
 11
1036.509818227093
 21
3908.317522720438
 31
0.0
 70
    33
 71
     5
 42
702.000000000003
  3
S10
100
AcDbAlignedDimension
 13
635.0779511516774
 23
4003.274616037983
 33
0.0
 14
1131.46691154463
 24
3506.885655645019
 34
0.0
  0
DIMENSION
  5
19A1
330
1F
100
AcDbEntity
  8
D-STR-DIM
100
AcDbDimension
  2
*D19
 10
1642.928672853012
 20
3712.927664443118
 30
0.0
 11
1387.197792198825
 21
3737.927664443118
 31
0.0
 70
    32
 71
     5
 42
511.4617613083756
  3
S10
100
AcDbAlignedDimension
 13
1131.466911544637
 23
3506.885655645019
 33
0.0
 14
1642.928672853012
 24
3506.885655645019
 34
0.0
100
AcDbRotatedDimension
  0
DIMENSION
  5
19A4
330
1F
100
AcDbEntity
  8
D-STR-DIM
100
AcDbDimension
  2
*D18
 10
1833.466911544627
 20
2840.84364684692
 30
0.0
 11
1387.197792198819
 21
2865.84364684692
 31
0.0
 70
    32
 71
     5
 42
892.5382386916153
  3
S10
100
AcDbAlignedDimension
 13
940.9286728530132
 23
3046.885655645021
 33
0.0
 14
1833.466911544627
 24
3046.885655645019
 34
0.0
100
AcDbRotatedDimension
  0
DIMENSION
  5
19EA
102
{ACAD_XDICTIONARY
360
19F7
102
}
102
{ACAD_REACTORS
330
1A01
102
}
330
1F
100
AcDbEntity
  8
D-STR-DIM
100
AcDbDimension
  2
*D20
 10
539.8088318058524
 20
3837.882321025653
 30
0.0
 11
188.8088318058553
 21
3862.882321025653
 31
0.0
 70
    32
 71
     5
 42
701.9999999999945
  3
S10
100
AcDbAlignedDimension
 13
-162.1911681941419
 23
3773.274616037991
 33
0.0
 14
539.8088318058524
 24
3773.274616037991
 34
0.0
100
AcDbRotatedDimension
  0
DIMENSION
  5
1A1A
102
{ACAD_XDICTIONARY
360
1A27
102
}
102
{ACAD_REACTORS
330
1A31
102
}
330
1F
100
AcDbEntity
  8
D-STR-DIM
100
AcDbDimension
  2
*D21
 10
1081.09460205621
 20
3321.782465502408
 30
0.0
 11
850.5777913893897
 21
3587.654615228557
 31
0.0
 70
    33
 71
     5
 42
702.0000000000192
  3
S10
100
AcDbAlignedDimension
 13
539.8088318058524
 23
3773.274616037991
 33
0.0
 14
1036.197792198821
 24
3276.88565564502
 34
0.0
  0
DIMENSION
  5
1A32
330
1F
100
AcDbEntity
  8
D-STR-DIM
100
AcDbDimension
  2
*D22
 10
1738.197792198829
 20
3341.493360632681
 30
0.0
 11
1387.197792198823
 21
3366.493360632681
 31
0.0
 70
    32
 71
     5
 42
702.0000000000107
  3
S10
100
AcDbAlignedDimension
 13
1036.197792198817
 23
3276.88565564502
 33
0.0
 14
1738.197792198829
 24
3276.885655645019
 34
0.0
100
AcDbRotatedDimension
  0
LINE
  5
1A57
330
1F
100
AcDbEntity
  8
D-STR
  6
HIDDEN
100
AcDbLine
 10
597.2113466606259
 20
3911.856545914679
 30
0.0
 11
587.9725513355115
 21
3915.683380238331
 31
0.0
  0
LINE
  5
1A58
330
1F
100
AcDbEntity
  8
D-STR
  6
Continuous
100
AcDbLine
 10
587.9725513355115
 20
3915.683380238331
 30
0.0
 11
473.1675216259644
 21
3638.519520484953
 31
0.0
  0
LINE
  5
1A59
330
1F
100
AcDbEntity
  8
D-STR
  6
HIDDEN
100
AcDbLine
 10
473.1675216259644
 20
3638.519520484953
 30
0.0
 11
482.4063169510774
 21
3634.692686161302
 31
0.0
  0
LINE
  5
1A5A
330
1F
100
AcDbEntity
  8
D-STR
  6
HIDDEN
100
AcDbLine
 10
597.2113466606386
 20
3911.856545914673
 30
0.0
 11
606.4501419857515
 21
3908.02971159102
 31
0.0
  0
LINE
  5
1A5B
330
1F
100
AcDbEntity
  8
D-STR
  6
Continuous
100
AcDbLine
 10
606.4501419857515
 20
3908.02971159102
 30
0.0
 11
491.6451122761791
 21
3630.865851837653
 31
0.0
  0
LINE
  5
1A5C
330
1F
100
AcDbEntity
  8
D-STR
  6
HIDDEN
100
AcDbLine
 10
491.6451122761791
 20
3630.865851837653
 30
0.0
 11
482.4063169510663
 21
3634.692686161304
 31
0.0
  0
LINE
  5
1A5D
330
1F
100
AcDbEntity
  8
D-STR
  6
Continuous
100
AcDbLine
 10
-152.1911681941419
 20
3923.274616037991
 30
0.0
 11
-152.19116819414
 21
3623.27461603799
 31
0.0
  0
LINE
  5
1A5E
330
1F
100
AcDbEntity
  8
D-STR
  6
HIDDEN
100
AcDbLine
 10
-162.1911681941436
 20
3923.27461603799
 30
0.0
 11
-152.1911681941419
 21
3923.274616037991
 31
0.0
  0
LINE
  5
1A5F
330
1F
100
AcDbEntity
  8
D-STR
  6
HIDDEN
100
AcDbLine
 10
-152.19116819414
 20
3623.27461603799
 30
0.0
 11
-162.1911681941419
 21
3623.27461603799
 31
0.0
  0
LINE
  5
1A60
330
1F
100
AcDbEntity
  8
D-STR
  6
HIDDEN
100
AcDbLine
 10
1093.600307053608
 20
3415.467585521702
 30
0.0
 11
1102.839102378719
 21
3411.640751198049
 31
0.0
  0
LINE
  5
1A61
330
1F
100
AcDbEntity
  8
D-STR
  6
HIDDEN
100
AcDbLine
 10
1093.600307053594
 20
3415.467585521708
 30
0.0
 11
1084.36151172848
 21
3419.29441984536
 31
0.0
  0
LINE
  5
1A62
330
1F
100
AcDbEntity
  8
D-STR
  6
Continuous
100
AcDbLine
 10
1102.839102378719
 20
3411.640751198049
 30
0.0
 11
988.0340726691484
 21
3134.476891444682
 31
0.0
  0
LINE
  5
1A63
330
1F
100
AcDbEntity
  8
D-STR
  6
Continuous
100
AcDbLine
 10
1084.36151172848
 20
3419.29441984536
 30
0.0
 11
969.5564820189336
 21
3142.130560091981
 31
0.0
  0
LINE
  5
1A64
330
1F
100
AcDbEntity
  8
D-STR
  6
HIDDEN
100
AcDbLine
 10
969.5564820189336
 20
3142.130560091981
 30
0.0
 11
978.7952773440466
 21
3138.303725768331
 31
0.0
  0
LINE
  5
1A65
330
1F
100
AcDbEntity
  8
D-STR
  6
HIDDEN
100
AcDbLine
 10
988.0340726691484
 20
3134.476891444682
 30
0.0
 11
978.7952773440355
 21
3138.303725768333
 31
0.0
  0
LINE
  5
1A66
330
1F
100
AcDbEntity
  8
D-STR
  6
HIDDEN
100
AcDbLine
 10
1680.795277344043
 20
3415.467585521702
 30
0.0
 11
1671.55648201893
 21
3411.640751198049
 31
0.0
  0
LINE
  5
1A67
330
1F
100
AcDbEntity
  8
D-STR
  6
Continuous
100
AcDbLine
 10
1671.55648201893
 20
3411.640751198049
 30
0.0
 11
1786.361511728501
 21
3134.476891444682
 31
0.0
  0
LINE
  5
1A68
330
1F
100
AcDbEntity
  8
D-STR
  6
HIDDEN
100
AcDbLine
 10
1786.361511728501
 20
3134.476891444682
 30
0.0
 11
1795.600307053615
 21
3138.303725768333
 31
0.0
  0
LINE
  5
1A69
330
1F
100
AcDbEntity
  8
D-STR
  6
HIDDEN
100
AcDbLine
 10
1680.795277344095
 20
3415.467585521724
 30
0.0
 11
1690.03407266921
 21
3419.294419845371
 31
0.0
  0
LINE
  5
1A6A
330
1F
100
AcDbEntity
  8
D-STR
  6
HIDDEN
100
AcDbLine
 10
1690.03407266921
 20
3419.294419845371
 30
0.0
 11
1804.839102378678
 21
3142.130560091961
 31
0.0
  0
LINE
  5
1A6B
330
1F
100
AcDbEntity
  8
D-STR
  6
HIDDEN
100
AcDbLine
 10
1804.839102378678
 20
3142.130560091961
 30
0.0
 11
1795.600307053564
 21
3138.303725768313
 31
0.0
  0
DIMENSION
  5
1C16
330
1F
100
AcDbEntity
  8
D-STR-DIM
100
AcDbDimension
  2
*D25
 10
647.5043580228448
 20
1579.316909836083
 30
0.0
 11
242.6565949143459
 21
1604.316909836083
 31
0.0
 70
    32
 71
     5
 42
809.6955262169977
  3
S10
100
AcDbAlignedDimension
 13
-162.1911681941528
 23
1373.274901037984
 33
0.0
 14
647.5043580228448
 24
1373.274901037993
 34
0.0
100
AcDbRotatedDimension
  0
DIMENSION
  5
1C19
330
1F
100
AcDbEntity
  8
D-STR-DIM
100
AcDbDimension
  2
*D23
 10
1273.218055814696
 20
1006.210678043917
 30
0.0
 11
1042.701245147882
 21
1272.082827770059
 31
0.0
 70
    33
 71
     5
 42
701.9999999999976
  3
S10
100
AcDbAlignedDimension
 13
647.5043580228521
 23
1373.274901037984
 33
0.0
 14
1143.893318415803
 24
876.8859406450273
 34
0.0
  0
DIMENSION
  5
1C1A
330
1F
100
AcDbEntity
  8
D-STR-DIM
100
AcDbDimension
  2
*D24
 10
1630.502265981788
 20
1082.927949443109
 30
0.0
 11
1387.197792198796
 21
1107.927949443109
 31
0.0
 70
    32
 71
     5
 42
486.6089475659828
  3
S10
100
AcDbAlignedDimension
 13
1143.893318415803
 23
876.8859406450273
 33
0.0
 14
1630.502265981788
 24
876.8859406450273
 34
0.0
100
AcDbRotatedDimension
  0
DIMENSION
  5
1C87
330
1F
100
AcDbEntity
  8
D-STR-DIM
100
AcDbDimension
  2
*D26
 10
432.1133055888421
 20
647.2328922398847
 30
0.0
 11
134.9610686973445
 21
672.2328922398847
 31
0.0
 70
    32
 71
     5
 42
594.304473782995
  3
S10
100
AcDbAlignedDimension
 13
-162.1911681941528
 23
853.274901037984
 33
0.0
 14
432.1133055888421
 24
853.274901037984
 34
0.0
100
AcDbRotatedDimension
  0
DIMENSION
  5
1C88
330
1F
100
AcDbEntity
  8
D-STR-DIM
100
AcDbDimension
  2
*D28
 10
799.1764652457683
 20
227.5601399090014
 30
0.0
 11
568.6596545789556
 21
493.4322896351433
 31
0.0
 70
    33
 71
     5
 42
701.9999999999973
  3
S10
100
AcDbAlignedDimension
 13
432.1133055888421
 23
853.274901037984
 33
0.0
 14
928.5022659817952
 24
356.8859406450274
 34
0.0
  0
DIMENSION
  5
1C8B
330
1F
100
AcDbEntity
  8
D-STR-DIM
100
AcDbDimension
  2
*D27
 10
1845.893318415805
 20
150.8439318469118
 30
0.0
 11
1387.197792198803
 21
175.8439318469118
 31
0.0
 70
    32
 71
     5
 42
917.3910524340026
  3
S10
100
AcDbAlignedDimension
 13
928.5022659818023
 23
356.8859406450274
 33
0.0
 14
1845.893318415805
 24
356.8859406450274
 34
0.0
100
AcDbRotatedDimension
  0
DIMENSION
  5
1CF8
330
1F
100
AcDbEntity
  8
D-STR-DIM
100
AcDbDimension
  2
*D30
 10
539.8088318058417
 20
1177.882606025644
 30
0.0
 11
188.8088318058444
 21
1202.882606025645
 31
0.0
 70
    32
 71
     5
 42
701.9999999999945
  3
S10
100
AcDbAlignedDimension
 13
-162.1911681941528
 23
1113.274901037984
 33
0.0
 14
539.8088318058417
 24
1113.274901037983
 34
0.0
100
AcDbRotatedDimension
  0
DIMENSION
  5
1CFB
330
1F
100
AcDbEntity
  8
D-STR-DIM
100
AcDbDimension
  2
*D31
 10
1081.094602056198
 20
661.7827505023992
 30
0.0
 11
850.5777913893776
 21
927.6549002285488
 31
0.0
 70
    33
 71
     5
 42
702.0000000000195
  3
S10
100
AcDbAlignedDimension
 13
539.8088318058417
 23
1113.274901037983
 33
0.0
 14
1036.197792198811
 24
616.8859406450119
 34
0.0
  0
DIMENSION
  5
1CFE
330
1F
100
AcDbEntity
  8
D-STR-DIM
100
AcDbDimension
  2
*D29
 10
1738.197792198818
 20
681.4936456326733
 30
0.0
 11
1387.197792198811
 21
706.4936456326732
 31
0.0
 70
    32
 71
     5
 42
702.0000000000107
  3
S10
100
AcDbAlignedDimension
 13
1036.197792198807
 23
616.8859406450119
 33
0.0
 14
1738.197792198818
 24
616.885940645011
 34
0.0
100
AcDbRotatedDimension
  0
LINE
  5
1D41
330
1F
100
AcDbEntity
  8
D-STR
  6
Continuous
100
AcDbLine
 10
-152.1911681941928
 20
1288.274901037984
 30
0.0
 11
-152.1911681941928
 21
938.2749010379839
 31
0.0
  0
LINE
  5
1D42
330
1F
100
AcDbEntity
  8
D-STR
  6
HIDDEN
100
AcDbLine
 10
-162.1911681941928
 20
1288.274901037984
 30
0.0
 11
-152.1911681941928
 21
1288.274901037984
 31
0.0
  0
LINE
  5
1D43
330
1F
100
AcDbEntity
  8
D-STR
  6
HIDDEN
100
AcDbLine
 10
-162.1911681941928
 20
938.2749010379839
 30
0.0
 11
-152.1911681941928
 21
938.2749010379839
 31
0.0
  0
LINE
  5
1D44
330
1F
100
AcDbEntity
  8
D-STR
  6
HIDDEN
100
AcDbLine
 10
606.7784324697368
 20
1274.95381922746
 30
0.0
 11
597.539637144624
 21
1278.780653551111
 31
0.0
  0
LINE
  5
1D45
330
1F
100
AcDbEntity
  8
D-STR
  6
Continuous
100
AcDbLine
 10
597.539637144624
 20
1278.780653551111
 30
0.0
 11
463.600435816852
 21
955.422817172157
 31
0.0
  0
LINE
  5
1D46
330
1F
100
AcDbEntity
  8
D-STR
  6
HIDDEN
100
AcDbLine
 10
472.8392311419646
 20
951.595982848506
 30
0.0
 11
463.600435816852
 21
955.422817172157
 31
0.0
  0
LINE
  5
1D47
330
1F
100
AcDbEntity
  8
D-STR
  6
Continuous
100
AcDbLine
 10
616.0172277948567
 20
1271.126984903806
 30
0.0
 11
482.0780264670684
 21
947.7691485248586
 31
0.0
  0
LINE
  5
1D48
330
1F
100
AcDbEntity
  8
D-STR
  6
HIDDEN
100
AcDbLine
 10
606.7784324697441
 20
1274.953819227456
 30
0.0
 11
616.0172277948567
 21
1271.126984903806
 31
0.0
  0
LINE
  5
1D49
330
1F
100
AcDbEntity
  8
D-STR
  6
HIDDEN
100
AcDbLine
 10
472.8392311419574
 20
951.5959828485092
 30
0.0
 11
482.0780264670684
 21
947.7691485248586
 31
0.0
  0
LINE
  5
1D4A
330
1F
100
AcDbEntity
  8
D-STR
  6
HIDDEN
100
AcDbLine
 10
1103.1673928627
 20
778.5648588345005
 30
0.0
 11
1112.406188187812
 21
774.7380245108502
 31
0.0
  0
LINE
  5
1D4B
330
1F
100
AcDbEntity
  8
D-STR
  6
HIDDEN
100
AcDbLine
 10
1103.167392862693
 20
778.5648588345037
 30
0.0
 11
1093.92859753758
 21
782.3916931581548
 31
0.0
  0
LINE
  5
1D4C
330
1F
100
AcDbEntity
  8
D-STR
  6
Continuous
100
AcDbLine
 10
1112.406188187812
 20
774.7380245108502
 30
0.0
 11
978.4669868600246
 21
451.3801881319026
 31
0.0
  0
LINE
  5
1D4D
330
1F
100
AcDbEntity
  8
D-STR
  6
Continuous
100
AcDbLine
 10
1093.92859753758
 20
782.3916931581548
 30
0.0
 11
959.9893962098086
 21
459.0338567792008
 31
0.0
  0
LINE
  5
1D4E
330
1F
100
AcDbEntity
  8
D-STR
  6
HIDDEN
100
AcDbLine
 10
969.2281915349139
 20
455.2070224555532
 30
0.0
 11
978.4669868600246
 21
451.3801881319026
 31
0.0
  0
LINE
  5
1D4F
330
1F
100
AcDbEntity
  8
D-STR
  6
HIDDEN
100
AcDbLine
 10
969.2281915349212
 20
455.20702245555
 30
0.0
 11
959.9893962098086
 21
459.0338567792008
 31
0.0
  0
LINE
  5
1D50
330
1F
100
AcDbEntity
  8
D-STR
  6
HIDDEN
100
AcDbLine
 10
1671.228191534914
 20
778.5648588345037
 30
0.0
 11
1680.466986860025
 21
782.3916931581548
 31
0.0
  0
LINE
  5
1D51
330
1F
100
AcDbEntity
  8
D-STR
  6
HIDDEN
100
AcDbLine
 10
1671.228191534906
 20
778.5648588345005
 30
0.0
 11
1661.989396209794
 21
774.7380245108502
 31
0.0
  0
LINE
  5
1D52
330
1F
100
AcDbEntity
  8
D-STR
  6
Continuous
100
AcDbLine
 10
1661.989396209794
 20
774.7380245108502
 30
0.0
 11
1795.928597537582
 21
451.3801881319026
 31
0.0
  0
LINE
  5
1D53
330
1F
100
AcDbEntity
  8
D-STR
  6
HIDDEN
100
AcDbLine
 10
1680.466986860025
 20
782.3916931581548
 30
0.0
 11
1814.406188187797
 21
459.0338567792008
 31
0.0
  0
LINE
  5
1D54
330
1F
100
AcDbEntity
  8
D-STR
  6
HIDDEN
100
AcDbLine
 10
1805.167392862692
 20
455.2070224555532
 30
0.0
 11
1795.928597537582
 21
451.3801881319026
 31
0.0
  0
LINE
  5
1D55
330
1F
100
AcDbEntity
  8
D-STR
  6
HIDDEN
100
AcDbLine
 10
1805.167392862685
 20
455.20702245555
 30
0.0
 11
1814.406188187797
 21
459.0338567792008
 31
0.0
  0
MTEXT
  5
1E96
102
{ACAD_REACTORS
330
1E97
102
}
330
1F
100
AcDbEntity
  8
D-STR-DIM
100
AcDbMText
 10
-276.070931855158
 20
3587.400967442122
 30
0.0
 40
30.0
 41
0.0
 71
     9
 72
     1
  1
\A1;目地部
 73
     1
 44
1.0
  0
LEADER
  5
1E97
330
1F
100
AcDbEntity
  8
D-STR-DIM
100
AcDbLeader
  3
S10
 73
     0
 40
35.02538071065989
 41
87.4720812182741
 76
     3
 10
-155.3621359613661
 20
3725.497843333303
 30
0.0
 10
-255.1163813095281
 20
3577.400967442122
 30
0.0
 10
-266.0709318551579
 20
3577.400967442122
 30
0.0
340
1E96
1001
ACAD
1000
DSTYLE
1002
{
1070
   147
1040
1.0
1070
    77
1070
     1
1002
}
  0
LEADER
  5
1E99
330
1F
100
AcDbEntity
  8
D-STR-DIM
100
AcDbLeader
  3
S10
 73
     0
 40
35.02538071065989
 41
87.4720812182741
 76
     3
 10
-155.362135961377
 20
1035.498128333294
 30
0.0
 10
-255.1163813095389
 20
887.4012524421141
 30
0.0
 10
-266.0709318551689
 20
887.4012524421141
 30
0.0
340
1E9A
1001
ACAD
1000
DSTYLE
1002
{
1070
   147
1040
1.0
1070
    77
1070
     1
1002
}
  0
MTEXT
  5
1E9A
102
{ACAD_REACTORS
330
1E99
102
}
330
1F
100
AcDbEntity
  8
D-STR-DIM
100
AcDbMText
 10
-276.0709318551689
 20
897.4012524421141
 30
0.0
 40
30.0
 41
0.0
 71
     9
 72
     1
  1
\A1;目地部
 73
     1
 44
1.0
  0
MTEXT
  5
20F7
330
1F
100
AcDbEntity
  8
D-STR-TXT
370
    -3
100
AcDbMText
 10
1128.033393914873
 20
1859.699157692926
 30
0.0
 40
50.0
 41
0.0
 71
     5
 72
     1
  1
（平面図）\PS=1/10
 73
     1
 44
1.0
  0
MTEXT
  5
20F8
330
1F
100
AcDbEntity
  8
D-STR-TXT
370
    -3
100
AcDbMText
 10
1128.033393914898
 20
4519.698872692931
 30
0.0
 40
50.0
 41
0.0
 71
     5
 72
     1
  1
（平面図）\PS=1/10
 73
     1
 44
1.0
  0
LINE
  5
2277
330
1F
100
AcDbEntity
  8
D-STR-DIM
  6
CENTER
100
AcDbLine
 10
5142.783320551676
 20
1523.467603499288
 30
0.0
 11
5142.783320551679
 21
1047.467603499288
 31
0.0
  0
LINE
  5
2278
330
1F
100
AcDbEntity
  8
D-STR
100
AcDbLine
 10
5347.78332055168
 20
1087.467603499288
 30
0.0
 11
5347.78332055168
 21
1523.467603499288
 31
0.0
  0
LINE
  5
2279
330
1F
100
AcDbEntity
  8
D-STR
100
AcDbLine
 10
4937.78332055168
 20
1087.467603499288
 30
0.0
 11
4937.78332055168
 21
1353.467603499288
 31
0.0
  0
LINE
  5
227A
330
1F
100
AcDbEntity
  8
D-STR
100
AcDbLine
 10
4942.783320551679
 20
1092.467603499288
 30
0.0
 11
4942.783320551679
 21
1350.128008128271
 31
0.0
  0
LINE
  5
227B
330
1F
100
AcDbEntity
  8
D-STR
100
AcDbLine
 10
5342.78332055168
 20
1092.467603499288
 30
0.0
 11
5342.78332055168
 21
1515.981666664854
 31
0.0
  0
DIMENSION
  5
227C
330
1F
100
AcDbEntity
  8
D-STR-DIM
100
AcDbDimension
  2
*D32
 10
5262.975648396663
 20
1087.467603499288
 30
0.0
 11
5237.975648396663
 21
1262.967603499289
 31
0.0
 70
    32
 71
     5
 42
351.0
  3
S10
100
AcDbAlignedDimension
 13
5142.783320551676
 23
1438.467603499288
 33
0.0
 14
5142.783320551679
 24
1087.467603499288
 34
0.0
 50
90.0
100
AcDbRotatedDimension
  0
DIMENSION
  5
227D
330
1F
100
AcDbEntity
  8
D-STR-DIM
100
AcDbDimension
  2
*D33
 10
5547.975648396663
 20
1087.467603499288
 30
0.0
 11
5522.975648396663
 21
1305.467603499289
 31
0.0
 70
    32
 71
     5
 42
436.0
  3
S10
100
AcDbAlignedDimension
 13
5347.975648396663
 23
1523.467603499288
 33
0.0
 14
5347.78332055168
 24
1087.467603499288
 34
0.0
 50
90.0
100
AcDbRotatedDimension
  0
DIMENSION
  5
227E
330
1F
100
AcDbEntity
  8
D-STR-DIM
100
AcDbDimension
  2
*D34
 10
4737.975648396663
 20
1087.467603499288
 30
0.0
 11
4712.975648396663
 21
1220.467603499288
 31
0.0
 70
    32
 71
     5
 42
266.0
  3
S10
100
AcDbAlignedDimension
 13
4937.78332055168
 23
1353.467603499288
 33
0.0
 14
4937.78332055168
 24
1087.467603499288
 34
0.0
 50
90.0
100
AcDbRotatedDimension
  0
LINE
  5
227F
330
1F
100
AcDbEntity
  8
D-STR
100
AcDbLine
 10
5347.975648396663
 20
353.467603499288
 30
0.0
 11
4937.975648396663
 21
523.467603499288
 31
0.0
  0
LINE
  5
2280
330
1F
100
AcDbEntity
  8
D-STR
100
AcDbLine
 10
5342.975648396663
 20
350.1280081282711
 30
0.0
 11
4942.975648396663
 21
515.9816666648548
 31
0.0
  0
LINE
  5
2281
330
1F
100
AcDbEntity
  8
D-STR
100
AcDbLine
 10
4942.975648396667
 20
92.46760349928809
 30
0.0
 11
4942.975648396663
 21
515.9816666648548
 31
0.0
  0
LINE
  5
2282
330
1F
100
AcDbEntity
  8
D-STR
100
AcDbLine
 10
4937.975648396666
 20
87.46760349928811
 30
0.0
 11
4937.975648396663
 21
523.467603499288
 31
0.0
  0
LINE
  5
2283
330
1F
100
AcDbEntity
  8
D-STR-DIM
  6
CENTER
100
AcDbLine
 10
5142.783320551679
 20
523.467603499288
 30
0.0
 11
5142.783320551679
 21
47.46760349928808
 31
0.0
  0
DIMENSION
  5
2284
330
1F
100
AcDbEntity
  8
D-STR-DIM
100
AcDbDimension
  2
*D35
 10
4737.975648396663
 20
523.467603499288
 30
0.0
 11
4712.975648396663
 21
305.4676034992871
 31
0.0
 70
    32
 71
     5
 42
436.0000000000036
  3
S10
100
AcDbAlignedDimension
 13
4937.975648396663
 23
87.46760349928447
 33
0.0
 14
4937.975648396663
 24
523.467603499288
 34
0.0
 50
90.0
100
AcDbRotatedDimension
  0
DIMENSION
  5
2285
330
1F
100
AcDbEntity
  8
D-STR-DIM
100
AcDbDimension
  2
*D36
 10
5263.167976241653
 20
87.46760349928804
 30
0.0
 11
5238.167976241652
 21
262.9676034992888
 31
0.0
 70
    32
 71
     5
 42
351.0
  3
S10
100
AcDbAlignedDimension
 13
5142.975648396667
 23
438.4676034992881
 33
0.0
 14
5142.975648396671
 24
87.46760349928811
 34
0.0
 50
90.0
100
AcDbRotatedDimension
  0
LINE
  5
2286
330
1F
100
AcDbEntity
  8
D-STR
100
AcDbLine
 10
5347.975648396666
 20
87.46760349928811
 30
0.0
 11
4937.975648396666
 21
87.46760349928811
 31
0.0
  0
LINE
  5
2287
330
1F
100
AcDbEntity
  8
D-STR
100
AcDbLine
 10
5342.975648396667
 20
92.46760349928809
 30
0.0
 11
4942.975648396667
 21
92.46760349928809
 31
0.0
  0
DIMENSION
  5
2288
330
1F
100
AcDbEntity
  8
D-STR-DIM
100
AcDbDimension
  2
*D37
 10
5347.975648396663
 20
-112.5323965007118
 30
0.0
 11
5142.975648396663
 21
-87.53239650071192
 31
0.0
 70
    32
 71
     5
 42
410.0
  3
S10
100
AcDbAlignedDimension
 13
4937.975648396663
 23
87.46760349928811
 33
0.0
 14
5347.975648396663
 24
87.46760349928811
 34
0.0
100
AcDbRotatedDimension
  0
LINE
  5
2289
330
1F
100
AcDbEntity
  8
D-STR
100
AcDbLine
 10
4937.975648396666
 20
87.46760349928811
 30
0.0
 11
4942.975648396667
 21
92.46760349928809
 31
0.0
  0
DIMENSION
  5
228A
330
1F
100
AcDbEntity
  8
D-STR-DIM
100
AcDbDimension
  2
*D38
 10
5547.975648396663
 20
87.46760349928804
 30
0.0
 11
5522.975648396663
 21
220.4676034992889
 31
0.0
 70
    32
 71
     5
 42
266.0
  3
S10
100
AcDbAlignedDimension
 13
5347.975648396663
 23
353.467603499288
 33
0.0
 14
5347.975648396666
 24
87.46760349928811
 34
0.0
 50
90.0
100
AcDbRotatedDimension
  0
LINE
  5
228B
330
1F
100
AcDbEntity
  8
D-STR
100
AcDbLine
 10
5342.975648396667
 20
92.46760349928809
 30
0.0
 11
5342.975648396663
 21
350.1280081282711
 31
0.0
  0
LINE
  5
228C
330
1F
100
AcDbEntity
  8
D-STR
100
AcDbLine
 10
5347.975648396666
 20
87.46760349928811
 30
0.0
 11
5347.975648396663
 21
353.467603499288
 31
0.0
  0
LINE
  5
228D
330
1F
100
AcDbEntity
  8
D-STR
100
AcDbLine
 10
5347.975648396666
 20
87.46760349928811
 30
0.0
 11
5342.975648396667
 21
92.46760349928809
 31
0.0
  0
LINE
  5
228E
330
1F
100
AcDbEntity
  8
D-STR
100
AcDbLine
 10
5347.975648396663
 20
353.467603499288
 30
0.0
 11
5342.975648396663
 21
350.1280081282711
 31
0.0
  0
LINE
  5
228F
330
1F
100
AcDbEntity
  8
D-STR
100
AcDbLine
 10
4937.78332055168
 20
1087.467603499288
 30
0.0
 11
5347.78332055168
 21
1087.467603499288
 31
0.0
  0
LINE
  5
2290
330
1F
100
AcDbEntity
  8
D-STR
100
AcDbLine
 10
4942.783320551679
 20
1092.467603499288
 30
0.0
 11
5342.78332055168
 21
1092.467603499288
 31
0.0
  0
DIMENSION
  5
2291
330
1F
100
AcDbEntity
  8
D-STR-DIM
100
AcDbDimension
  2
*D39
 10
5347.78332055168
 20
887.467603499288
 30
0.0
 11
5142.783320551679
 21
912.467603499288
 31
0.0
 70
    32
 71
     5
 42
410.0
  3
S10
100
AcDbAlignedDimension
 13
4937.78332055168
 23
1087.467603499288
 33
0.0
 14
5347.78332055168
 24
1087.467603499288
 34
0.0
100
AcDbRotatedDimension
  0
LINE
  5
2292
330
1F
100
AcDbEntity
  8
D-STR
100
AcDbLine
 10
4937.975648396663
 20
523.467603499288
 30
0.0
 11
4942.975648396663
 21
515.9816666648548
 31
0.0
  0
LINE
  5
2293
330
1F
100
AcDbEntity
  8
D-STR
100
AcDbLine
 10
4937.78332055168
 20
1087.467603499288
 30
0.0
 11
4942.783320551679
 21
1092.467603499288
 31
0.0
  0
LINE
  5
2294
330
1F
100
AcDbEntity
  8
D-STR
100
AcDbLine
 10
5347.78332055168
 20
1087.467603499288
 30
0.0
 11
5342.78332055168
 21
1092.467603499288
 31
0.0
  0
LINE
  5
2295
330
1F
100
AcDbEntity
  8
D-STR
100
AcDbLine
 10
4937.78332055168
 20
1353.467603499288
 30
0.0
 11
5347.78332055168
 21
1523.467603499288
 31
0.0
  0
LINE
  5
2296
330
1F
100
AcDbEntity
  8
D-STR
100
AcDbLine
 10
4942.783320551679
 20
1350.128008128271
 30
0.0
 11
5342.78332055168
 21
1515.981666664854
 31
0.0
  0
LINE
  5
2297
330
1F
100
AcDbEntity
  8
D-STR
100
AcDbLine
 10
4937.78332055168
 20
1353.467603499288
 30
0.0
 11
4942.783320551679
 21
1350.128008128271
 31
0.0
  0
LINE
  5
2298
330
1F
100
AcDbEntity
  8
D-STR
100
AcDbLine
 10
5347.78332055168
 20
1523.467603499288
 30
0.0
 11
5342.78332055168
 21
1515.981666664854
 31
0.0
  0
DIMENSION
  5
2299
330
1F
100
AcDbEntity
  8
D-STR-DIM
100
AcDbDimension
  2
*D40
 10
5322.7833205517
 20
3577.467318499296
 30
0.0
 11
5142.783320551699
 21
3602.467318499296
 31
0.0
 70
    32
 71
     5
 42
360.0
  3
S10
100
AcDbAlignedDimension
 13
4962.783320551699
 23
3777.467318499296
 33
0.0
 14
5322.7833205517
 24
3777.467318499296
 34
0.0
100
AcDbRotatedDimension
  0
LINE
  5
229A
330
1F
100
AcDbEntity
  8
D-STR-DIM
  6
CENTER
100
AcDbLine
 10
5142.783320551698
 20
3213.467318499296
 30
0.0
 11
5142.783320551698
 21
2737.467318499295
 31
0.0
  0
LINE
  5
229B
330
1F
100
AcDbEntity
  8
D-STR
100
AcDbLine
 10
4962.975648396685
 20
2777.467318499296
 30
0.0
 11
4962.975648396685
 21
3203.467318499296
 31
0.0
  0
LINE
  5
229C
330
1F
100
AcDbEntity
  8
D-STR
100
AcDbLine
 10
4967.975648396684
 20
2782.467318499296
 30
0.0
 11
4967.975648396684
 21
3195.981381664863
 31
0.0
  0
LINE
  5
229D
330
1F
100
AcDbEntity
  8
D-STR
100
AcDbLine
 10
5322.975648396685
 20
2777.467318499296
 30
0.0
 11
5322.975648396685
 21
3053.467318499296
 31
0.0
  0
LINE
  5
229E
330
1F
100
AcDbEntity
  8
D-STR
100
AcDbLine
 10
5317.975648396685
 20
2782.467318499296
 30
0.0
 11
5317.975648396685
 21
3050.127723128283
 31
0.0
  0
DIMENSION
  5
229F
330
1F
100
AcDbEntity
  8
D-STR-DIM
100
AcDbDimension
  2
*D41
 10
4762.783320551698
 20
3203.467318499296
 30
0.0
 11
4737.783320551697
 21
2990.467318499296
 31
0.0
 70
    32
 71
     5
 42
426.0
  3
S10
100
AcDbAlignedDimension
 13
4962.975648396685
 23
2777.467318499296
 33
0.0
 14
4962.975648396685
 24
3203.467318499296
 34
0.0
 50
90.0
100
AcDbRotatedDimension
  0
DIMENSION
  5
22A0
330
1F
100
AcDbEntity
  8
D-STR-DIM
100
AcDbDimension
  2
*D42
 10
5262.975648396685
 20
2777.467318499296
 30
0.0
 11
5237.975648396684
 21
2952.967318499296
 31
0.0
 70
    32
 71
     5
 42
351.0
  3
S10
100
AcDbAlignedDimension
 13
5142.975648396685
 23
3128.467318499296
 33
0.0
 14
5142.975648396685
 24
2777.467318499296
 34
0.0
 50
90.0
100
AcDbRotatedDimension
  0
DIMENSION
  5
22A1
330
1F
100
AcDbEntity
  8
D-STR-DIM
100
AcDbDimension
  2
*D43
 10
5522.975648396685
 20
3053.467318499296
 30
0.0
 11
5497.975648396685
 21
2915.467318499296
 31
0.0
 70
    32
 71
     5
 42
276.0
  3
S10
100
AcDbAlignedDimension
 13
5322.975648396685
 23
2777.467318499296
 33
0.0
 14
5322.975648396685
 24
3053.467318499296
 34
0.0
 50
90.0
100
AcDbRotatedDimension
  0
LINE
  5
22A2
330
1F
100
AcDbEntity
  8
D-STR
100
AcDbLine
 10
5317.975648396685
 20
2782.467318499296
 30
0.0
 11
4967.975648396684
 21
2782.467318499296
 31
0.0
  0
LINE
  5
22A3
330
1F
100
AcDbEntity
  8
D-STR
100
AcDbLine
 10
5322.975648396685
 20
2777.467318499296
 30
0.0
 11
4962.975648396685
 21
2777.467318499296
 31
0.0
  0
DIMENSION
  5
22A4
330
1F
100
AcDbEntity
  8
D-STR-DIM
100
AcDbDimension
  2
*D44
 10
5322.975648396685
 20
2577.467318499296
 30
0.0
 11
5142.975648396685
 21
2602.467318499296
 31
0.0
 70
    32
 71
     5
 42
360.0
  3
S10
100
AcDbAlignedDimension
 13
4962.975648396685
 23
2777.467318499296
 33
0.0
 14
5322.975648396685
 24
2777.467318499296
 34
0.0
100
AcDbRotatedDimension
  0
LINE
  5
22A5
330
1F
100
AcDbEntity
  8
D-STR
100
AcDbLine
 10
4962.975648396685
 20
2777.467318499296
 30
0.0
 11
4967.975648396684
 21
2782.467318499296
 31
0.0
  0
LINE
  5
22A6
330
1F
100
AcDbEntity
  8
D-STR
100
AcDbLine
 10
5322.975648396685
 20
2777.467318499296
 30
0.0
 11
5317.975648396685
 21
2782.467318499296
 31
0.0
  0
LINE
  5
22A7
330
1F
100
AcDbEntity
  8
D-STR
100
AcDbLine
 10
5317.975648396685
 20
3050.127723128283
 30
0.0
 11
4967.975648396684
 21
3195.981381664863
 31
0.0
  0
LINE
  5
22A8
330
1F
100
AcDbEntity
  8
D-STR
100
AcDbLine
 10
5322.975648396685
 20
3053.467318499296
 30
0.0
 11
4962.975648396685
 21
3203.467318499296
 31
0.0
  0
LINE
  5
22A9
330
1F
100
AcDbEntity
  8
D-STR
100
AcDbLine
 10
4962.975648396685
 20
3203.467318499296
 30
0.0
 11
4967.975648396684
 21
3195.981381664863
 31
0.0
  0
LINE
  5
22AA
330
1F
100
AcDbEntity
  8
D-STR
100
AcDbLine
 10
5322.975648396685
 20
3053.467318499296
 30
0.0
 11
5317.975648396685
 21
3050.127723128283
 31
0.0
  0
LINE
  5
22AB
330
1F
100
AcDbEntity
  8
D-STR
100
AcDbLine
 10
4962.783320551699
 20
3777.467318499296
 30
0.0
 11
5322.7833205517
 21
3777.467318499296
 31
0.0
  0
LINE
  5
22AC
330
1F
100
AcDbEntity
  8
D-STR
100
AcDbLine
 10
4967.783320551699
 20
3782.467318499296
 30
0.0
 11
5317.783320551699
 21
3782.467318499296
 31
0.0
  0
LINE
  5
22AD
330
1F
100
AcDbEntity
  8
D-STR
100
AcDbLine
 10
4962.783320551699
 20
4053.467318499296
 30
0.0
 11
5322.7833205517
 21
4203.467318499295
 31
0.0
  0
LINE
  5
22AE
330
1F
100
AcDbEntity
  8
D-STR
100
AcDbLine
 10
4967.783320551699
 20
4050.127723128275
 30
0.0
 11
5317.783320551699
 21
4195.981381664862
 31
0.0
  0
DIMENSION
  5
22AF
330
1F
100
AcDbEntity
  8
D-STR-DIM
100
AcDbDimension
  2
*D45
 10
5262.783320551699
 20
3777.467318499296
 30
0.0
 11
5237.783320551699
 21
3952.967318499296
 31
0.0
 70
    32
 71
     5
 42
350.9999999999986
  3
S10
100
AcDbAlignedDimension
 13
5142.783320551699
 23
4128.467318499295
 33
0.0
 14
5142.783320551699
 24
3777.467318499296
 34
0.0
 50
90.0
100
AcDbRotatedDimension
  0
LINE
  5
22B0
330
1F
100
AcDbEntity
  8
D-STR-DIM
  6
CENTER
100
AcDbLine
 10
5142.783320551699
 20
4213.467318499295
 30
0.0
 11
5142.783320551699
 21
3737.467318499296
 31
0.0
  0
DIMENSION
  5
22B1
330
1F
100
AcDbEntity
  8
D-STR-DIM
100
AcDbDimension
  2
*D46
 10
4762.783320551699
 20
4053.467318499296
 30
0.0
 11
4737.783320551698
 21
3915.467318499296
 31
0.0
 70
    32
 71
     5
 42
275.9999999999994
  3
S10
100
AcDbAlignedDimension
 13
4962.783320551699
 23
3777.467318499296
 33
0.0
 14
4962.783320551699
 24
4053.467318499296
 34
0.0
 50
90.0
100
AcDbRotatedDimension
  0
LINE
  5
22B2
330
1F
100
AcDbEntity
  8
D-STR
100
AcDbLine
 10
4967.783320551699
 20
3782.467318499296
 30
0.0
 11
4967.783320551699
 21
4050.127723128275
 31
0.0
  0
LINE
  5
22B3
330
1F
100
AcDbEntity
  8
D-STR
100
AcDbLine
 10
4962.783320551699
 20
3777.467318499296
 30
0.0
 11
4962.783320551699
 21
4053.467318499296
 31
0.0
  0
LINE
  5
22B4
330
1F
100
AcDbEntity
  8
D-STR
100
AcDbLine
 10
4962.783320551699
 20
3777.467318499296
 30
0.0
 11
4967.783320551699
 21
3782.467318499296
 31
0.0
  0
LINE
  5
22B5
330
1F
100
AcDbEntity
  8
D-STR
100
AcDbLine
 10
4962.783320551699
 20
4053.467318499296
 30
0.0
 11
4967.783320551699
 21
4050.127723128275
 31
0.0
  0
LINE
  5
22B6
330
1F
100
AcDbEntity
  8
D-STR
100
AcDbLine
 10
5317.783320551699
 20
3782.467318499296
 30
0.0
 11
5317.783320551699
 21
4195.981381664862
 31
0.0
  0
LINE
  5
22B7
330
1F
100
AcDbEntity
  8
D-STR
100
AcDbLine
 10
5322.7833205517
 20
3777.467318499296
 30
0.0
 11
5322.7833205517
 21
4203.467318499295
 31
0.0
  0
DIMENSION
  5
22B8
330
1F
100
AcDbEntity
  8
D-STR-DIM
100
AcDbDimension
  2
*D47
 10
5522.783320551699
 20
4203.467318499295
 30
0.0
 11
5497.783320551698
 21
3990.467318499296
 31
0.0
 70
    32
 71
     5
 42
425.9999999999986
  3
S10
100
AcDbAlignedDimension
 13
5322.7833205517
 23
3777.467318499296
 33
0.0
 14
5322.7833205517
 24
4203.467318499295
 34
0.0
 50
90.0
100
AcDbRotatedDimension
  0
LINE
  5
22B9
330
1F
100
AcDbEntity
  8
D-STR
100
AcDbLine
 10
5322.7833205517
 20
3777.467318499296
 30
0.0
 11
5317.783320551699
 21
3782.467318499296
 31
0.0
  0
LINE
  5
22BA
330
1F
100
AcDbEntity
  8
D-STR
100
AcDbLine
 10
5322.7833205517
 20
4203.467318499295
 30
0.0
 11
5317.783320551699
 21
4195.981381664862
 31
0.0
  0
LINE
  5
2750
330
1F
100
AcDbEntity
  8
D-STR
100
AcDbLine
 10
6248.141924792509
 20
4128.467318499295
 30
0.0
 11
6243.141924792508
 21
4123.467318499296
 31
0.0
  0
LINE
  5
2751
330
1F
100
AcDbEntity
  8
D-STR
100
AcDbLine
 10
5888.141924792509
 20
4128.467318499295
 30
0.0
 11
5893.141924792509
 21
4123.467318499296
 31
0.0
  0
LINE
  5
2752
330
1F
100
AcDbEntity
  8
D-STR
100
AcDbLine
 10
5888.141924792509
 20
4128.467318499295
 30
0.0
 11
6248.141924792509
 21
4128.467318499295
 31
0.0
  0
LINE
  5
2753
330
1F
100
AcDbEntity
  8
D-STR
100
AcDbLine
 10
5893.141924792505
 20
4123.467318499296
 30
0.0
 11
6243.141924792508
 21
4123.467318499296
 31
0.0
  0
LINE
  5
2754
330
1F
100
AcDbEntity
  8
D-STR
100
AcDbLine
 10
6248.141924792509
 20
3777.467318499296
 30
0.0
 11
6243.141924792508
 21
3782.467318499296
 31
0.0
  0
LINE
  5
2755
330
1F
100
AcDbEntity
  8
D-STR
100
AcDbLine
 10
5888.141924792509
 20
3777.467318499296
 30
0.0
 11
5893.141924792509
 21
3782.467318499296
 31
0.0
  0
LINE
  5
2756
330
1F
100
AcDbEntity
  8
D-STR
100
AcDbLine
 10
5888.141924792509
 20
3777.467318499296
 30
0.0
 11
6248.141924792509
 21
3777.467318499296
 31
0.0
  0
LINE
  5
2757
330
1F
100
AcDbEntity
  8
D-STR
100
AcDbLine
 10
5893.141924792509
 20
3782.467318499296
 30
0.0
 11
6243.141924792508
 21
3782.467318499296
 31
0.0
  0
DIMENSION
  5
2758
330
1F
100
AcDbEntity
  8
D-STR-DIM
100
AcDbDimension
  2
*D48
 10
6248.141924792509
 20
3577.467318499296
 30
0.0
 11
6068.141924792509
 21
3602.467318499296
 31
0.0
 70
    32
 71
     5
 42
360.0
  3
S10
100
AcDbAlignedDimension
 13
5888.141924792509
 23
3777.467318499296
 33
0.0
 14
6248.141924792509
 24
3777.467318499296
 34
0.0
100
AcDbRotatedDimension
  0
LINE
  5
2759
330
1F
100
AcDbEntity
  8
D-STR
100
AcDbLine
 10
5893.141924792509
 20
3782.467318499296
 30
0.0
 11
5893.141924792505
 21
4123.467318499296
 31
0.0
  0
LINE
  5
275A
330
1F
100
AcDbEntity
  8
D-STR
100
AcDbLine
 10
5888.141924792509
 20
3777.467318499296
 30
0.0
 11
5888.141924792509
 21
4128.467318499295
 31
0.0
  0
LINE
  5
275B
330
1F
100
AcDbEntity
  8
D-STR-DIM
  6
CENTER
100
AcDbLine
 10
6068.141924792509
 20
4213.467318499295
 30
0.0
 11
6068.141924792509
 21
3737.467318499296
 31
0.0
  0
LINE
  5
275C
330
1F
100
AcDbEntity
  8
D-STR
100
AcDbLine
 10
6243.141924792508
 20
3782.467318499296
 30
0.0
 11
6243.141924792508
 21
4123.467318499296
 31
0.0
  0
LINE
  5
275D
330
1F
100
AcDbEntity
  8
D-STR
100
AcDbLine
 10
6248.141924792509
 20
3777.467318499296
 30
0.0
 11
6248.141924792509
 21
4128.467318499295
 31
0.0
  0
DIMENSION
  5
275E
330
1F
100
AcDbEntity
  8
D-STR-DIM
100
AcDbDimension
  2
*D49
 10
6448.141924792508
 20
4128.467318499295
 30
0.0
 11
6423.141924792507
 21
3952.967318499296
 31
0.0
 70
    32
 71
     5
 42
350.9999999999994
  3
S10
100
AcDbAlignedDimension
 13
6248.141924792509
 23
3777.467318499296
 33
0.0
 14
6248.141924792509
 24
4128.467318499295
 34
0.0
 50
90.0
100
AcDbRotatedDimension
  0
LINE
  5
27B5
330
1F
100
AcDbEntity
  8
D-STR
100
AcDbLine
 10
6273.334252637469
 20
1438.467603499284
 30
0.0
 11
6268.334252637469
 21
1433.467603499288
 31
0.0
  0
LINE
  5
27B6
330
1F
100
AcDbEntity
  8
D-STR
100
AcDbLine
 10
5863.334252637464
 20
1438.467603499288
 30
0.0
 11
5868.334252637469
 21
1433.467603499288
 31
0.0
  0
LINE
  5
27B7
330
1F
100
AcDbEntity
  8
D-STR
100
AcDbLine
 10
6273.334252637469
 20
1438.467603499288
 30
0.0
 11
5863.334252637464
 21
1438.467603499288
 31
0.0
  0
LINE
  5
27B8
330
1F
100
AcDbEntity
  8
D-STR
100
AcDbLine
 10
6268.334252637469
 20
1433.467603499288
 30
0.0
 11
5868.334252637469
 21
1433.467603499288
 31
0.0
  0
LINE
  5
27B9
330
1F
100
AcDbEntity
  8
D-STR
100
AcDbLine
 10
6273.334252637472
 20
1087.467603499288
 30
0.0
 11
6268.334252637473
 21
1092.467603499288
 31
0.0
  0
LINE
  5
27BA
330
1F
100
AcDbEntity
  8
D-STR
100
AcDbLine
 10
5863.334252637471
 20
1087.467603499288
 30
0.0
 11
5868.334252637474
 21
1092.467603499288
 31
0.0
  0
LINE
  5
27BB
330
1F
100
AcDbEntity
  8
D-STR
100
AcDbLine
 10
6273.334252637472
 20
1087.467603499288
 30
0.0
 11
5863.334252637471
 21
1087.467603499288
 31
0.0
  0
LINE
  5
27BC
330
1F
100
AcDbEntity
  8
D-STR
100
AcDbLine
 10
6268.334252637473
 20
1092.467603499288
 30
0.0
 11
5868.334252637474
 21
1092.467603499288
 31
0.0
  0
DIMENSION
  5
27BD
330
1F
100
AcDbEntity
  8
D-STR-DIM
100
AcDbDimension
  2
*D50
 10
6273.334252637472
 20
887.467603499288
 30
0.0
 11
6068.334252637473
 21
912.467603499288
 31
0.0
 70
    32
 71
     5
 42
410.0
  3
S10
100
AcDbAlignedDimension
 13
5863.334252637471
 23
1087.467603499288
 33
0.0
 14
6273.334252637472
 24
1087.467603499288
 34
0.0
100
AcDbRotatedDimension
  0
LINE
  5
27BE
330
1F
100
AcDbEntity
  8
D-STR
100
AcDbLine
 10
5868.334252637474
 20
1092.467603499288
 30
0.0
 11
5868.334252637469
 21
1433.467603499288
 31
0.0
  0
LINE
  5
27BF
330
1F
100
AcDbEntity
  8
D-STR
100
AcDbLine
 10
5863.334252637471
 20
1087.467603499288
 30
0.0
 11
5863.334252637464
 21
1438.467603499288
 31
0.0
  0
LINE
  5
27C0
330
1F
100
AcDbEntity
  8
D-STR-DIM
  6
CENTER
100
AcDbLine
 10
6068.141924792485
 20
1523.467603499288
 30
0.0
 11
6068.141924792485
 21
1047.467603499288
 31
0.0
  0
LINE
  5
27C1
330
1F
100
AcDbEntity
  8
D-STR
100
AcDbLine
 10
6268.334252637473
 20
1092.467603499288
 30
0.0
 11
6268.334252637469
 21
1433.467603499288
 31
0.0
  0
LINE
  5
27C2
330
1F
100
AcDbEntity
  8
D-STR
100
AcDbLine
 10
6273.334252637472
 20
1087.467603499288
 30
0.0
 11
6273.334252637469
 21
1438.467603499288
 31
0.0
  0
DIMENSION
  5
27C3
330
1F
100
AcDbEntity
  8
D-STR-DIM
100
AcDbDimension
  2
*D51
 10
6473.334252637474
 20
1438.467603499288
 30
0.0
 11
6448.334252637471
 21
1262.967603499289
 31
0.0
 70
    32
 71
     5
 42
351.0
  3
S10
100
AcDbAlignedDimension
 13
6273.334252637472
 23
1087.467603499288
 33
0.0
 14
6273.334252637472
 24
1438.467603499288
 34
0.0
 50
90.0
100
AcDbRotatedDimension
  0
MTEXT
  5
2A2B
330
1F
100
AcDbEntity
  8
D-STR-TXT
370
    -3
100
AcDbMText
 10
5629.195483488725
 20
4519.698872692931
 30
0.0
 40
50.0
 41
0.0
 71
     5
 72
     1
  1
（蓋製品図）\PS=1/10
 73
     1
 44
1.0
  0
MTEXT
  5
2A2C
330
1F
100
AcDbEntity
  8
D-STR-TXT
370
    -3
100
AcDbMText
 10
5629.1954834887
 20
1859.699157692926
 30
0.0
 40
50.0
 41
0.0
 71
     5
 72
     1
  1
（蓋製品図）\PS=1/10
 73
     1
 44
1.0
  0
MTEXT
  5
2A2D
330
1F
100
AcDbEntity
  8
D-STR-TXT
370
    -3
100
AcDbMText
 10
5142.783320551699
 20
4324.165050333479
 30
0.0
 40
50.0
 41
0.0
 71
     5
 72
     1
  1
（1）
 73
     1
 44
1.0
  0
MTEXT
  5
2A2E
330
1F
100
AcDbEntity
  8
D-STR-TXT
370
    -3
100
AcDbMText
 10
6068.141924792509
 20
4324.165050333479
 30
0.0
 40
50.0
 41
0.0
 71
     5
 72
     1
  1
（3）
 73
     1
 44
1.0
  0
MTEXT
  5
2A2F
330
1F
100
AcDbEntity
  8
D-STR-TXT
370
    -3
100
AcDbMText
 10
5142.783320551698
 20
3324.165050333481
 30
0.0
 40
50.0
 41
0.0
 71
     5
 72
     1
  1
（2）
 73
     1
 44
1.0
  0
MTEXT
  5
2A30
330
1F
100
AcDbEntity
  8
D-STR-TXT
370
    -3
100
AcDbMText
 10
5142.783320551676
 20
1634.165335333473
 30
0.0
 40
50.0
 41
0.0
 71
     5
 72
     1
  1
（1）
 73
     1
 44
1.0
  0
MTEXT
  5
2A31
330
1F
100
AcDbEntity
  8
D-STR-TXT
370
    -3
100
AcDbMText
 10
6068.141924792485
 20
1634.165335333473
 30
0.0
 40
50.0
 41
0.0
 71
     5
 72
     1
  1
（3）
 73
     1
 44
1.0
  0
MTEXT
  5
2A32
330
1F
100
AcDbEntity
  8
D-STR-TXT
370
    -3
100
AcDbMText
 10
5142.783320551675
 20
634.1653353334741
 30
0.0
 40
50.0
 41
0.0
 71
     5
 72
     1
  1
（2）
 73
     1
 44
1.0
  0
TEXT
  5
2ABA
330
1F
100
AcDbEntity
  8
D-STR
 62
     0
100
AcDbText
 10
7068.242692837451
 20
2474.549349050828
 30
0.0
 40
50.0
  1
（1）
100
AcDbText
  0
LINE
  5
2ABB
330
1F
100
AcDbEntity
  8
D-STR
 62
     0
100
AcDbLine
 10
7244.990663786079
 20
2589.549349050829
 30
0.0
 11
7031.990663786081
 21
2589.549349050829
 31
0.0
  0
LINE
  5
2ABC
330
1F
100
AcDbEntity
  8
D-STR
 62
     0
100
AcDbLine
 10
7242.49066378608
 20
2587.049349050829
 30
0.0
 11
7035.733632203298
 21
2587.049349050829
 31
0.0
  0
LINE
  5
2ABD
330
1F
100
AcDbEntity
  8
D-STR
 62
     0
100
AcDbLine
 10
7244.990663786079
 20
2409.549349050829
 30
0.0
 11
7106.990663786081
 21
2409.549349050829
 31
0.0
  0
LINE
  5
2ABE
330
1F
100
AcDbEntity
  8
D-STR
 62
     0
100
AcDbLine
 10
7242.49066378608
 20
2412.049349050828
 30
0.0
 11
7108.660461471591
 21
2412.049349050828
 31
0.0
  0
TEXT
  5
2ABF
330
1F
100
AcDbEntity
  8
D-STR
 62
     0
100
AcDbText
 10
6920.370897965655
 20
2412.241656743133
 30
0.0
 40
50.0
  1
（2）
100
AcDbText
  0
TEXT
  5
2AC0
330
1F
100
AcDbEntity
  8
D-STR
 62
     0
100
AcDbText
 10
6796.793974888732
 20
2287.62627212775
 30
0.0
 40
50.0
  1
（2）
100
AcDbText
  0
TEXT
  5
2AC1
330
1F
100
AcDbEntity
  8
D-STR
 62
     0
100
AcDbText
 10
6049.101667196426
 20
2474.549349050828
 30
0.0
 40
50.0
  1
（2）
100
AcDbText
  0
TEXT
  5
2AC2
330
1F
100
AcDbEntity
  8
D-STR
 62
     0
100
AcDbText
 10
6645.588846683605
 20
2225.318579820063
 30
0.0
 40
50.0
  1
（1）
100
AcDbText
  0
TEXT
  5
2AC3
330
1F
100
AcDbEntity
  8
D-STR
 62
     0
100
AcDbText
 10
6320.550385145143
 20
2287.62627212775
 30
0.0
 40
50.0
  1
（1）
100
AcDbText
  0
TEXT
  5
2AC4
330
1F
100
AcDbEntity
  8
D-STR
 62
     0
100
AcDbText
 10
6471.75551335027
 20
2225.318579820063
 30
0.0
 40
50.0
  1
（2）
100
AcDbText
  0
TEXT
  5
2AC5
330
1F
100
AcDbEntity
  8
D-STR
 62
     0
100
AcDbText
 10
6196.973462068221
 20
2412.241656743133
 30
0.0
 40
50.0
  1
（1）
100
AcDbText
  0
TEXT
  5
2AC6
330
1F
100
AcDbEntity
  8
D-STR
 62
     0
100
AcDbText
 10
5873.601667196426
 20
2474.549349050828
 30
0.0
 40
50.0
  1
（3）
100
AcDbText
  0
LINE
  5
2AC8
330
1F
100
AcDbEntity
  8
D-STR
 62
     0
100
AcDbLine
 10
5873.182971478389
 20
2409.549349050829
 30
0.0
 11
5875.682971478389
 21
2412.049349050828
 31
0.0
  0
LINE
  5
2AC9
330
1F
100
AcDbEntity
  8
D-STR
 62
     0
100
AcDbLine
 10
5873.182971478389
 20
2409.549349050829
 30
0.0
 11
5873.182971478389
 21
2589.549349050829
 31
0.0
  0
LINE
  5
2ACA
330
1F
100
AcDbEntity
  8
D-STR
 62
     0
100
AcDbLine
 10
5875.682971478389
 20
2412.049349050828
 30
0.0
 11
5875.682971478389
 21
2587.049349050829
 31
0.0
  0
LINE
  5
2ACB
330
1F
100
AcDbEntity
  8
D-STR
 62
     0
100
AcDbLine
 10
6048.682971478387
 20
2589.549349050829
 30
0.0
 11
6046.182971478389
 21
2587.049349050829
 31
0.0
  0
LINE
  5
2ACC
330
1F
100
AcDbEntity
  8
D-STR
 62
     0
100
AcDbLine
 10
6048.682971478387
 20
2409.549349050829
 30
0.0
 11
6046.182971478389
 21
2412.049349050828
 31
0.0
  0
LINE
  5
2ACD
330
1F
100
AcDbEntity
  8
D-STR
 62
     0
100
AcDbLine
 10
6048.682971478387
 20
2409.549349050829
 30
0.0
 11
6048.682971478387
 21
2589.549349050829
 31
0.0
  0
LINE
  5
2ACE
330
1F
100
AcDbEntity
  8
D-STR
 62
     0
100
AcDbLine
 10
6046.182971478389
 20
2412.049349050828
 30
0.0
 11
6046.182971478389
 21
2587.049349050829
 31
0.0
  0
LINE
  5
2ACF
330
1F
100
AcDbEntity
  8
D-STR
 62
     0
100
AcDbLine
 10
6046.182971478389
 20
2412.049349050828
 30
0.0
 11
5875.682971478389
 21
2412.049349050828
 31
0.0
  0
LINE
  5
2AD0
330
1F
100
AcDbEntity
  8
D-STR
 62
     0
100
AcDbLine
 10
6048.682971478387
 20
2409.549349050829
 30
0.0
 11
5873.182971478389
 21
2409.549349050829
 31
0.0
  0
LINE
  5
2AD1
330
1F
100
AcDbEntity
  8
D-STR
 62
     0
100
AcDbLine
 10
6046.182971478389
 20
2587.049349050829
 30
0.0
 11
5875.682971478389
 21
2587.049349050829
 31
0.0
  0
LINE
  5
2AD2
330
1F
100
AcDbEntity
  8
D-STR
 62
     0
100
AcDbLine
 10
6048.682971478387
 20
2589.549349050829
 30
0.0
 11
5873.182971478389
 21
2589.549349050829
 31
0.0
  0
LINE
  5
2AD3
330
1F
100
AcDbEntity
  8
D-STR
 62
     0
100
AcDbLine
 10
7031.990663786081
 20
2589.549349050829
 30
0.0
 11
7031.130230403544
 21
2585.131264967598
 31
0.0
  0
LINE
  5
2AD4
330
1F
100
AcDbEntity
  8
D-STR
 62
     0
100
AcDbLine
 10
7106.990663786081
 20
2409.549349050829
 30
0.0
 11
7104.039741155455
 21
2410.124048919106
 31
0.0
  0
LINE
  5
2AD5
330
1F
100
AcDbEntity
  8
D-STR
 62
     0
100
AcDbLine
 10
7106.990663786081
 20
2409.549349050829
 30
0.0
 11
7031.990663786081
 21
2589.549349050829
 31
0.0
  0
LINE
  5
2AD6
330
1F
100
AcDbEntity
  8
D-STR
 62
     0
100
AcDbLine
 10
7104.039741155455
 20
2410.124048919106
 30
0.0
 11
7031.130230403544
 21
2585.131264967598
 31
0.0
  0
LINE
  5
2AD7
330
1F
100
AcDbEntity
  8
D-STR
 62
     0
100
AcDbLine
 10
6882.008415265371
 20
2438.306745500534
 30
0.0
 11
6885.543918223949
 21
2438.321538399943
 31
0.0
  0
LINE
  5
2AD8
330
1F
100
AcDbEntity
  8
D-STR
 62
     0
100
AcDbLine
 10
7009.819066152944
 20
2311.561183370357
 30
0.0
 11
7009.804273253536
 21
2315.096686328937
 31
0.0
  0
LINE
  5
2AD9
330
1F
100
AcDbEntity
  8
D-STR
 62
     0
100
AcDbLine
 10
7009.819066152944
 20
2311.561183370357
 30
0.0
 11
6882.008415265371
 21
2438.306745500534
 31
0.0
  0
LINE
  5
2ADA
330
1F
100
AcDbEntity
  8
D-STR
 62
     0
100
AcDbLine
 10
7009.804273253536
 20
2315.096686328937
 30
0.0
 11
6885.543918223949
 21
2438.321538399943
 31
0.0
  0
LINE
  5
2ADB
330
1F
100
AcDbEntity
  8
D-STR
 62
     0
100
AcDbLine
 10
7009.804273253536
 20
2315.096686328937
 30
0.0
 11
7104.039741155455
 21
2410.124048919106
 31
0.0
  0
LINE
  5
2ADC
330
1F
100
AcDbEntity
  8
D-STR
 62
     0
100
AcDbLine
 10
7009.819066152944
 20
2311.561183370357
 30
0.0
 11
7106.990663786081
 21
2409.549349050829
 31
0.0
  0
LINE
  5
2ADD
330
1F
100
AcDbEntity
  8
D-STR
 62
     0
100
AcDbLine
 10
6885.543918223949
 20
2438.321538399943
 30
0.0
 11
7031.130230403544
 21
2585.131264967598
 31
0.0
  0
LINE
  5
2ADE
330
1F
100
AcDbEntity
  8
D-STR
 62
     0
100
AcDbLine
 10
6882.008415265371
 20
2438.306745500534
 30
0.0
 11
7031.990663786081
 21
2589.549349050829
 31
0.0
  0
LINE
  5
2ADF
330
1F
100
AcDbEntity
  8
D-STR
 62
     0
100
AcDbLine
 10
6859.836817632231
 20
2160.318579820063
 30
0.0
 11
6860.697251014769
 21
2164.736663903293
 31
0.0
  0
LINE
  5
2AE0
330
1F
100
AcDbEntity
  8
D-STR
 62
     0
100
AcDbLine
 10
6784.836817632231
 20
2340.318579820063
 30
0.0
 11
6787.787740262857
 21
2339.743879951786
 31
0.0
  0
LINE
  5
2AE1
330
1F
100
AcDbEntity
  8
D-STR
 62
     0
100
AcDbLine
 10
6784.836817632231
 20
2340.318579820063
 30
0.0
 11
6859.836817632231
 21
2160.318579820063
 31
0.0
  0
LINE
  5
2AE2
330
1F
100
AcDbEntity
  8
D-STR
 62
     0
100
AcDbLine
 10
6787.787740262857
 20
2339.743879951786
 30
0.0
 11
6860.697251014769
 21
2164.736663903293
 31
0.0
  0
LINE
  5
2AE3
330
1F
100
AcDbEntity
  8
D-STR
 62
     0
100
AcDbLine
 10
7009.819066152942
 20
2311.561183370357
 30
0.0
 11
7006.283563194364
 21
2311.546390470947
 31
0.0
  0
LINE
  5
2AE4
330
1F
100
AcDbEntity
  8
D-STR
 62
     0
100
AcDbLine
 10
6882.008415265369
 20
2438.306745500534
 30
0.0
 11
6882.023208164778
 21
2434.771242541954
 31
0.0
  0
LINE
  5
2AE5
330
1F
100
AcDbEntity
  8
D-STR
 62
     0
100
AcDbLine
 10
6882.008415265369
 20
2438.306745500534
 30
0.0
 11
7009.819066152942
 21
2311.561183370357
 31
0.0
  0
LINE
  5
2AE6
330
1F
100
AcDbEntity
  8
D-STR
 62
     0
100
AcDbLine
 10
6882.023208164778
 20
2434.771242541954
 30
0.0
 11
7006.283563194364
 21
2311.546390470947
 31
0.0
  0
LINE
  5
2AE7
330
1F
100
AcDbEntity
  8
D-STR
 62
     0
100
AcDbLine
 10
6882.023208164778
 20
2434.771242541954
 30
0.0
 11
6787.787740262857
 21
2339.743879951786
 31
0.0
  0
LINE
  5
2AE8
330
1F
100
AcDbEntity
  8
D-STR
 62
     0
100
AcDbLine
 10
6882.008415265369
 20
2438.306745500534
 30
0.0
 11
6784.836817632231
 21
2340.318579820063
 31
0.0
  0
LINE
  5
2AE9
330
1F
100
AcDbEntity
  8
D-STR
 62
     0
100
AcDbLine
 10
7006.283563194364
 20
2311.546390470947
 30
0.0
 11
6860.697251014769
 21
2164.736663903293
 31
0.0
  0
LINE
  5
2AEA
330
1F
100
AcDbEntity
  8
D-STR
 62
     0
100
AcDbLine
 10
7009.819066152942
 20
2311.561183370357
 30
0.0
 11
6859.836817632231
 21
2160.318579820063
 31
0.0
  0
LINE
  5
2AEB
330
1F
100
AcDbEntity
  8
D-STR
 62
     0
100
AcDbLine
 10
6784.836817632231
 20
2340.318579820063
 30
0.0
 11
6783.167019946723
 21
2337.818579820063
 31
0.0
  0
LINE
  5
2AEC
330
1F
100
AcDbEntity
  8
D-STR
 62
     0
100
AcDbLine
 10
6859.836817632231
 20
2160.318579820063
 30
0.0
 11
6856.093849215016
 21
2162.818579820063
 31
0.0
  0
LINE
  5
2AED
330
1F
100
AcDbEntity
  8
D-STR
 62
     0
100
AcDbLine
 10
6783.167019946723
 20
2337.818579820063
 30
0.0
 11
6856.093849215016
 21
2162.818579820063
 31
0.0
  0
LINE
  5
2AEE
330
1F
100
AcDbEntity
  8
D-STR
 62
     0
100
AcDbLine
 10
6784.836817632231
 20
2340.318579820063
 30
0.0
 11
6859.836817632231
 21
2160.318579820063
 31
0.0
  0
LINE
  5
2AEF
330
1F
100
AcDbEntity
  8
D-STR
 62
     0
100
AcDbLine
 10
6646.836817632233
 20
2340.318579820063
 30
0.0
 11
6649.336817632233
 21
2337.818579820063
 31
0.0
  0
LINE
  5
2AF0
330
1F
100
AcDbEntity
  8
D-STR
 62
     0
100
AcDbLine
 10
6646.836817632233
 20
2160.318579820063
 30
0.0
 11
6649.336817632233
 21
2162.818579820063
 31
0.0
  0
LINE
  5
2AF1
330
1F
100
AcDbEntity
  8
D-STR
 62
     0
100
AcDbLine
 10
6649.336817632233
 20
2337.818579820063
 30
0.0
 11
6649.336817632233
 21
2162.818579820063
 31
0.0
  0
LINE
  5
2AF2
330
1F
100
AcDbEntity
  8
D-STR
 62
     0
100
AcDbLine
 10
6646.836817632233
 20
2340.318579820063
 30
0.0
 11
6646.836817632233
 21
2160.318579820063
 31
0.0
  0
LINE
  5
2AF3
330
1F
100
AcDbEntity
  8
D-STR
 62
     0
100
AcDbLine
 10
6646.836817632233
 20
2160.318579820063
 30
0.0
 11
6859.836817632231
 21
2160.318579820063
 31
0.0
  0
LINE
  5
2AF4
330
1F
100
AcDbEntity
  8
D-STR
 62
     0
100
AcDbLine
 10
6649.336817632233
 20
2162.818579820063
 30
0.0
 11
6856.093849215016
 21
2162.818579820063
 31
0.0
  0
LINE
  5
2AF5
330
1F
100
AcDbEntity
  8
D-STR
 62
     0
100
AcDbLine
 10
6646.836817632233
 20
2340.318579820063
 30
0.0
 11
6784.836817632231
 21
2340.318579820063
 31
0.0
  0
LINE
  5
2AF6
330
1F
100
AcDbEntity
  8
D-STR
 62
     0
100
AcDbLine
 10
6649.336817632233
 20
2337.818579820063
 30
0.0
 11
6783.167019946723
 21
2337.818579820063
 31
0.0
  0
LINE
  5
2AF7
330
1F
100
AcDbEntity
  8
D-STR
 62
     0
100
AcDbLine
 10
6433.836817632233
 20
2160.318579820063
 30
0.0
 11
6432.976384249696
 21
2164.736663903293
 31
0.0
  0
LINE
  5
2AF8
330
1F
100
AcDbEntity
  8
D-STR
 62
     0
100
AcDbLine
 10
6508.836817632233
 20
2340.318579820063
 30
0.0
 11
6505.885895001608
 21
2339.743879951786
 31
0.0
  0
LINE
  5
2AF9
330
1F
100
AcDbEntity
  8
D-STR
 62
     0
100
AcDbLine
 10
6508.836817632233
 20
2340.318579820063
 30
0.0
 11
6433.836817632233
 21
2160.318579820063
 31
0.0
  0
LINE
  5
2AFA
330
1F
100
AcDbEntity
  8
D-STR
 62
     0
100
AcDbLine
 10
6505.885895001608
 20
2339.743879951786
 30
0.0
 11
6432.976384249696
 21
2164.736663903293
 31
0.0
  0
LINE
  5
2AFB
330
1F
100
AcDbEntity
  8
D-STR
 62
     0
100
AcDbLine
 10
6283.854569111523
 20
2311.561183370357
 30
0.0
 11
6287.390072070103
 21
2311.546390470947
 31
0.0
  0
LINE
  5
2AFC
330
1F
100
AcDbEntity
  8
D-STR
 62
     0
100
AcDbLine
 10
6411.665219999097
 20
2438.306745500534
 30
0.0
 11
6411.650427099687
 21
2434.771242541954
 31
0.0
  0
LINE
  5
2AFD
330
1F
100
AcDbEntity
  8
D-STR
 62
     0
100
AcDbLine
 10
6411.665219999097
 20
2438.306745500534
 30
0.0
 11
6283.854569111523
 21
2311.561183370357
 31
0.0
  0
LINE
  5
2AFE
330
1F
100
AcDbEntity
  8
D-STR
 62
     0
100
AcDbLine
 10
6411.650427099687
 20
2434.771242541954
 30
0.0
 11
6287.390072070103
 21
2311.546390470947
 31
0.0
  0
LINE
  5
2AFF
330
1F
100
AcDbEntity
  8
D-STR
 62
     0
100
AcDbLine
 10
6411.650427099687
 20
2434.771242541954
 30
0.0
 11
6505.885895001608
 21
2339.743879951786
 31
0.0
  0
LINE
  5
2B00
330
1F
100
AcDbEntity
  8
D-STR
 62
     0
100
AcDbLine
 10
6411.665219999097
 20
2438.306745500534
 30
0.0
 11
6508.836817632233
 21
2340.318579820063
 31
0.0
  0
LINE
  5
2B01
330
1F
100
AcDbEntity
  8
D-STR
 62
     0
100
AcDbLine
 10
6287.390072070103
 20
2311.546390470947
 30
0.0
 11
6432.976384249696
 21
2164.736663903293
 31
0.0
  0
LINE
  5
2B02
330
1F
100
AcDbEntity
  8
D-STR
 62
     0
100
AcDbLine
 10
6283.854569111523
 20
2311.561183370357
 30
0.0
 11
6433.836817632233
 21
2160.318579820063
 31
0.0
  0
LINE
  5
2B03
330
1F
100
AcDbEntity
  8
D-STR
 62
     0
100
AcDbLine
 10
6186.682971478389
 20
2409.549349050829
 30
0.0
 11
6185.013173792881
 21
2412.049349050828
 31
0.0
  0
LINE
  5
2B04
330
1F
100
AcDbEntity
  8
D-STR
 62
     0
100
AcDbLine
 10
6261.682971478389
 20
2589.549349050829
 30
0.0
 11
6257.940003061172
 21
2587.049349050829
 31
0.0
  0
LINE
  5
2B05
330
1F
100
AcDbEntity
  8
D-STR
 62
     0
100
AcDbLine
 10
6185.013173792881
 20
2412.049349050828
 30
0.0
 11
6257.940003061172
 21
2587.049349050829
 31
0.0
  0
LINE
  5
2B06
330
1F
100
AcDbEntity
  8
D-STR
 62
     0
100
AcDbLine
 10
6186.682971478389
 20
2409.549349050829
 30
0.0
 11
6261.682971478389
 21
2589.549349050829
 31
0.0
  0
LINE
  5
2B07
330
1F
100
AcDbEntity
  8
D-STR
 62
     0
100
AcDbLine
 10
6048.682971478387
 20
2409.549349050829
 30
0.0
 11
6051.18297147839
 21
2412.049349050828
 31
0.0
  0
LINE
  5
2B08
330
1F
100
AcDbEntity
  8
D-STR
 62
     0
100
AcDbLine
 10
6048.682971478387
 20
2589.549349050829
 30
0.0
 11
6051.18297147839
 21
2587.049349050829
 31
0.0
  0
LINE
  5
2B09
330
1F
100
AcDbEntity
  8
D-STR
 62
     0
100
AcDbLine
 10
6051.18297147839
 20
2412.049349050828
 30
0.0
 11
6051.18297147839
 21
2587.049349050829
 31
0.0
  0
LINE
  5
2B0A
330
1F
100
AcDbEntity
  8
D-STR
 62
     0
100
AcDbLine
 10
6048.682971478387
 20
2409.549349050829
 30
0.0
 11
6048.682971478387
 21
2589.549349050829
 31
0.0
  0
LINE
  5
2B0B
330
1F
100
AcDbEntity
  8
D-STR
 62
     0
100
AcDbLine
 10
6048.682971478387
 20
2589.549349050829
 30
0.0
 11
6261.682971478389
 21
2589.549349050829
 31
0.0
  0
LINE
  5
2B0C
330
1F
100
AcDbEntity
  8
D-STR
 62
     0
100
AcDbLine
 10
6051.18297147839
 20
2587.049349050829
 30
0.0
 11
6257.940003061172
 21
2587.049349050829
 31
0.0
  0
LINE
  5
2B0D
330
1F
100
AcDbEntity
  8
D-STR
 62
     0
100
AcDbLine
 10
6048.682971478387
 20
2409.549349050829
 30
0.0
 11
6186.682971478389
 21
2409.549349050829
 31
0.0
  0
LINE
  5
2B0E
330
1F
100
AcDbEntity
  8
D-STR
 62
     0
100
AcDbLine
 10
6051.18297147839
 20
2412.049349050828
 30
0.0
 11
6185.013173792881
 21
2412.049349050828
 31
0.0
  0
LINE
  5
2B0F
330
1F
100
AcDbEntity
  8
D-STR
 62
     0
100
AcDbLine
 10
6508.836817632233
 20
2340.318579820063
 30
0.0
 11
6510.506615317741
 21
2337.818579820063
 31
0.0
  0
LINE
  5
2B10
330
1F
100
AcDbEntity
  8
D-STR
 62
     0
100
AcDbLine
 10
6433.836817632233
 20
2160.318579820063
 30
0.0
 11
6437.57978604945
 21
2162.818579820063
 31
0.0
  0
LINE
  5
2B11
330
1F
100
AcDbEntity
  8
D-STR
 62
     0
100
AcDbLine
 10
6510.506615317741
 20
2337.818579820063
 30
0.0
 11
6437.57978604945
 21
2162.818579820063
 31
0.0
  0
LINE
  5
2B12
330
1F
100
AcDbEntity
  8
D-STR
 62
     0
100
AcDbLine
 10
6508.836817632233
 20
2340.318579820063
 30
0.0
 11
6433.836817632233
 21
2160.318579820063
 31
0.0
  0
LINE
  5
2B13
330
1F
100
AcDbEntity
  8
D-STR
 62
     0
100
AcDbLine
 10
6646.836817632233
 20
2340.318579820063
 30
0.0
 11
6644.336817632233
 21
2337.818579820063
 31
0.0
  0
LINE
  5
2B14
330
1F
100
AcDbEntity
  8
D-STR
 62
     0
100
AcDbLine
 10
6646.836817632233
 20
2160.318579820063
 30
0.0
 11
6644.336817632233
 21
2162.818579820063
 31
0.0
  0
LINE
  5
2B15
330
1F
100
AcDbEntity
  8
D-STR
 62
     0
100
AcDbLine
 10
6644.336817632233
 20
2337.818579820063
 30
0.0
 11
6644.336817632233
 21
2162.818579820063
 31
0.0
  0
LINE
  5
2B16
330
1F
100
AcDbEntity
  8
D-STR
 62
     0
100
AcDbLine
 10
6646.836817632233
 20
2340.318579820063
 30
0.0
 11
6646.836817632233
 21
2160.318579820063
 31
0.0
  0
LINE
  5
2B17
330
1F
100
AcDbEntity
  8
D-STR
 62
     0
100
AcDbLine
 10
6646.836817632233
 20
2160.318579820063
 30
0.0
 11
6433.836817632233
 21
2160.318579820063
 31
0.0
  0
LINE
  5
2B18
330
1F
100
AcDbEntity
  8
D-STR
 62
     0
100
AcDbLine
 10
6644.336817632233
 20
2162.818579820063
 30
0.0
 11
6437.57978604945
 21
2162.818579820063
 31
0.0
  0
LINE
  5
2B19
330
1F
100
AcDbEntity
  8
D-STR
 62
     0
100
AcDbLine
 10
6646.836817632233
 20
2340.318579820063
 30
0.0
 11
6508.836817632233
 21
2340.318579820063
 31
0.0
  0
LINE
  5
2B1A
330
1F
100
AcDbEntity
  8
D-STR
 62
     0
100
AcDbLine
 10
6644.336817632233
 20
2337.818579820063
 30
0.0
 11
6510.506615317741
 21
2337.818579820063
 31
0.0
  0
LINE
  5
2B1B
330
1F
100
AcDbEntity
  8
D-STR
 62
     0
100
AcDbLine
 10
6261.682971478389
 20
2589.549349050829
 30
0.0
 11
6262.543404860927
 21
2585.131264967598
 31
0.0
  0
LINE
  5
2B1C
330
1F
100
AcDbEntity
  8
D-STR
 62
     0
100
AcDbLine
 10
6186.682971478389
 20
2409.549349050829
 30
0.0
 11
6189.633894109014
 21
2410.124048919106
 31
0.0
  0
LINE
  5
2B1D
330
1F
100
AcDbEntity
  8
D-STR
 62
     0
100
AcDbLine
 10
6186.682971478389
 20
2409.549349050829
 30
0.0
 11
6261.682971478389
 21
2589.549349050829
 31
0.0
  0
LINE
  5
2B1E
330
1F
100
AcDbEntity
  8
D-STR
 62
     0
100
AcDbLine
 10
6189.633894109014
 20
2410.124048919106
 30
0.0
 11
6262.543404860927
 21
2585.131264967598
 31
0.0
  0
LINE
  5
2B1F
330
1F
100
AcDbEntity
  8
D-STR
 62
     0
100
AcDbLine
 10
6411.665219999098
 20
2438.306745500534
 30
0.0
 11
6408.12971704052
 21
2438.321538399943
 31
0.0
  0
LINE
  5
2B20
330
1F
100
AcDbEntity
  8
D-STR
 62
     0
100
AcDbLine
 10
6283.854569111525
 20
2311.561183370357
 30
0.0
 11
6283.869362010932
 21
2315.096686328937
 31
0.0
  0
LINE
  5
2B21
330
1F
100
AcDbEntity
  8
D-STR
 62
     0
100
AcDbLine
 10
6283.854569111525
 20
2311.561183370357
 30
0.0
 11
6411.665219999098
 21
2438.306745500534
 31
0.0
  0
LINE
  5
2B22
330
1F
100
AcDbEntity
  8
D-STR
 62
     0
100
AcDbLine
 10
6283.869362010932
 20
2315.096686328937
 30
0.0
 11
6408.12971704052
 21
2438.321538399943
 31
0.0
  0
LINE
  5
2B23
330
1F
100
AcDbEntity
  8
D-STR
 62
     0
100
AcDbLine
 10
6283.869362010932
 20
2315.096686328937
 30
0.0
 11
6189.633894109014
 21
2410.124048919106
 31
0.0
  0
LINE
  5
2B24
330
1F
100
AcDbEntity
  8
D-STR
 62
     0
100
AcDbLine
 10
6283.854569111525
 20
2311.561183370357
 30
0.0
 11
6186.682971478389
 21
2409.549349050829
 31
0.0
  0
LINE
  5
2B25
330
1F
100
AcDbEntity
  8
D-STR
 62
     0
100
AcDbLine
 10
6408.12971704052
 20
2438.321538399943
 30
0.0
 11
6262.543404860927
 21
2585.131264967598
 31
0.0
  0
LINE
  5
2B26
330
1F
100
AcDbEntity
  8
D-STR
 62
     0
100
AcDbLine
 10
6411.665219999098
 20
2438.306745500534
 30
0.0
 11
6261.682971478389
 21
2589.549349050829
 31
0.0
  0
LINE
  5
2B27
330
1F
100
AcDbEntity
  8
D-STR
 62
     0
100
AcDbLine
 10
7106.990663786081
 20
2409.549349050829
 30
0.0
 11
7108.660461471591
 21
2412.049349050828
 31
0.0
  0
LINE
  5
2B28
330
1F
100
AcDbEntity
  8
D-STR
 62
     0
100
AcDbLine
 10
7031.990663786081
 20
2589.549349050829
 30
0.0
 11
7035.733632203298
 21
2587.049349050829
 31
0.0
  0
LINE
  5
2B29
330
1F
100
AcDbEntity
  8
D-STR
 62
     0
100
AcDbLine
 10
7108.660461471591
 20
2412.049349050828
 30
0.0
 11
7035.733632203298
 21
2587.049349050829
 31
0.0
  0
LINE
  5
2B2A
330
1F
100
AcDbEntity
  8
D-STR
 62
     0
100
AcDbLine
 10
7106.990663786081
 20
2409.549349050829
 30
0.0
 11
7031.990663786081
 21
2589.549349050829
 31
0.0
  0
TEXT
  5
2B2B
330
1F
100
AcDbEntity
  8
D-STR
 62
     0
100
AcDbText
 10
7245.40935950412
 20
2474.549349050828
 30
0.0
 40
50.0
  1
（3）
100
AcDbText
  0
LINE
  5
2B2C
330
1F
100
AcDbEntity
  8
D-STR
 62
     0
100
AcDbLine
 10
7244.990663786079
 20
2589.549349050829
 30
0.0
 11
7247.490663786081
 21
2587.049349050829
 31
0.0
  0
LINE
  5
2B2D
330
1F
100
AcDbEntity
  8
D-STR
 62
     0
100
AcDbLine
 10
7244.990663786079
 20
2409.549349050829
 30
0.0
 11
7247.490663786081
 21
2412.049349050828
 31
0.0
  0
LINE
  5
2B2E
330
1F
100
AcDbEntity
  8
D-STR
 62
     0
100
AcDbLine
 10
7244.990663786079
 20
2409.549349050829
 30
0.0
 11
7244.990663786079
 21
2589.549349050829
 31
0.0
  0
LINE
  5
2B2F
330
1F
100
AcDbEntity
  8
D-STR
 62
     0
100
AcDbLine
 10
7247.490663786081
 20
2412.049349050828
 30
0.0
 11
7247.490663786081
 21
2587.049349050829
 31
0.0
  0
LINE
  5
2B30
330
1F
100
AcDbEntity
  8
D-STR
 62
     0
100
AcDbLine
 10
7420.49066378608
 20
2589.549349050829
 30
0.0
 11
7417.990663786081
 21
2587.049349050829
 31
0.0
  0
LINE
  5
2B31
330
1F
100
AcDbEntity
  8
D-STR
 62
     0
100
AcDbLine
 10
7420.49066378608
 20
2409.549349050829
 30
0.0
 11
7417.990663786081
 21
2412.049349050828
 31
0.0
  0
LINE
  5
2B32
330
1F
100
AcDbEntity
  8
D-STR
 62
     0
100
AcDbLine
 10
7420.49066378608
 20
2409.549349050829
 30
0.0
 11
7420.49066378608
 21
2589.549349050829
 31
0.0
  0
LINE
  5
2B33
330
1F
100
AcDbEntity
  8
D-STR
 62
     0
100
AcDbLine
 10
7417.990663786081
 20
2412.049349050828
 30
0.0
 11
7417.990663786081
 21
2587.049349050829
 31
0.0
  0
LINE
  5
2B34
330
1F
100
AcDbEntity
  8
D-STR
 62
     0
100
AcDbLine
 10
7417.990663786081
 20
2412.049349050828
 30
0.0
 11
7247.490663786081
 21
2412.049349050828
 31
0.0
  0
LINE
  5
2B35
330
1F
100
AcDbEntity
  8
D-STR
 62
     0
100
AcDbLine
 10
7420.49066378608
 20
2409.549349050829
 30
0.0
 11
7244.990663786079
 21
2409.549349050829
 31
0.0
  0
LINE
  5
2B36
330
1F
100
AcDbEntity
  8
D-STR
 62
     0
100
AcDbLine
 10
7417.990663786081
 20
2587.049349050829
 30
0.0
 11
7247.490663786081
 21
2587.049349050829
 31
0.0
  0
LINE
  5
2B37
330
1F
100
AcDbEntity
  8
D-STR
 62
     0
100
AcDbLine
 10
7420.49066378608
 20
2589.549349050829
 30
0.0
 11
7244.990663786079
 21
2589.549349050829
 31
0.0
  0
LINE
  5
2B38
330
1F
100
AcDbEntity
  8
D-STR
 62
     0
100
AcDbLine
 10
7244.990663786079
 20
2409.549349050829
 30
0.0
 11
7242.49066378608
 21
2412.049349050828
 31
0.0
  0
LINE
  5
2B39
330
1F
100
AcDbEntity
  8
D-STR
 62
     0
100
AcDbLine
 10
7244.990663786079
 20
2589.549349050829
 30
0.0
 11
7242.49066378608
 21
2587.049349050829
 31
0.0
  0
LINE
  5
2B3A
330
1F
100
AcDbEntity
  8
D-STR
 62
     0
100
AcDbLine
 10
7242.49066378608
 20
2412.049349050828
 30
0.0
 11
7242.49066378608
 21
2587.049349050829
 31
0.0
  0
LINE
  5
2B3B
330
1F
100
AcDbEntity
  8
D-STR
 62
     0
100
AcDbLine
 10
7244.990663786079
 20
2409.549349050829
 30
0.0
 11
7244.990663786079
 21
2589.549349050829
 31
0.0
  0
LINE
  5
2C67
330
1F
100
AcDbEntity
  8
D-STR
 62
     0
100
AcDbLine
 10
5873.182971478389
 20
2589.549349050829
 30
0.0
 11
5875.682971478389
 21
2587.049349050829
 31
0.0
  0
MTEXT
  5
2C69
330
1F
100
AcDbEntity
  8
D-STR-TXT
370
    -3
100
AcDbMText
 10
6646.836817632233
 20
2826.678973714399
 30
0.0
 40
50.0
 41
0.0
 71
     5
 72
     1
  1
（蓋配列図）
 73
     1
 44
1.0
  0
ENDSEC
  0
SECTION
  2
OBJECTS
  0
DICTIONARY
  5
C
330
0
100
AcDbDictionary
281
     1
  3
ACAD_GROUP
350
D
  3
ACAD_LAYOUT
350
1A
  3
ACAD_MLINESTYLE
350
17
  3
ACAD_PLOTSETTINGS
350
19
  3
ACAD_PLOTSTYLENAME
350
E
  3
AcadDim
350
930
  3
AcDbVariableDictionary
350
11D5
  3
ASE_INDEX_DICTIONARY
350
2C76
  0
DICTIONARY
  5
1912
330
1905
100
AcDbDictionary
280
     1
281
     1
  3
ACAD_DIMASSOC
360
191C
  0
DICTIONARY
  5
196C
330
195F
100
AcDbDictionary
280
     1
281
     1
  3
ACAD_DIMASSOC
360
1976
  0
DICTIONARY
  5
19F7
330
19EA
100
AcDbDictionary
280
     1
281
     1
  3
ACAD_DIMASSOC
360
1A01
  0
DICTIONARY
  5
1A27
330
1A1A
100
AcDbDictionary
280
     1
281
     1
  3
ACAD_DIMASSOC
360
1A31
  0
DICTIONARY
  5
D
102
{ACAD_REACTORS
330
C
102
}
330
C
100
AcDbDictionary
281
     1
  0
DICTIONARY
  5
1A
102
{ACAD_REACTORS
330
C
102
}
330
C
100
AcDbDictionary
281
     1
  3
Model
350
22
  3
ﾚｲｱｳﾄ1
350
1E
  3
ﾚｲｱｳﾄ2
350
26
  0
DICTIONARY
  5
17
102
{ACAD_REACTORS
330
C
102
}
330
C
100
AcDbDictionary
281
     1
  3
Standard
350
18
  0
DICTIONARY
  5
19
102
{ACAD_REACTORS
330
C
102
}
330
C
100
AcDbDictionary
281
     1
  0
ACDBDICTIONARYWDFLT
  5
E
102
{ACAD_REACTORS
330
C
102
}
330
C
100
AcDbDictionary
281
     1
  3
Normal
350
F
100
AcDbDictionaryWithDefault
340
F
  0
XRECORD
  5
930
102
{ACAD_REACTORS
330
C
102
}
330
C
100
AcDbXrecord
280
     1
 90
   990106
  3
OPEN30
 60
     0
 61
     0
 62
     1
 63
     3
 64
     1
 65
     0
 66
     0
 67
     3
 68
     1
 69
     0
 70
     0
 71
     0
 72
     0
 40
0.0
170
     2
340
0
  0
DICTIONARY
  5
11D5
102
{ACAD_REACTORS
330
C
102
}
330
C
100
AcDbDictionary
281
     1
  3
DIMASSOC
350
11D7
  3
HIDETEXT
350
11D6
  0
DICTIONARY
  5
2C76
102
{ACAD_REACTORS
330
C
102
}
330
C
100
AcDbDictionary
281
     1
  3
ASEBlockHierarchyIndexRecord
350
2C78
1001
DCO15
1040
1594528813.552
  0
DIMASSOC
  5
191C
102
{ACAD_REACTORS
330
1912
102
}
330
1912
100
AcDbDimAssoc
330
1905
 90
        3
 70
     0
 71
     0
  1
AcDbOsnapPointRef
 72
    13
331
168A
 73
     2
 91
        0
 40
0.0
 10
-162.1911681941419
 20
4003.274616037992
 30
0.0
 75
     0
  1
AcDbOsnapPointRef
 72
     1
331
1681
 73
     2
 91
        0
 40
0.9999999999999998
 10
635.0779511516702
 20
4003.274616037994
 30
0.0
 75
     0
  0
DIMASSOC
  5
1976
102
{ACAD_REACTORS
330
196C
102
}
330
196C
100
AcDbDimAssoc
330
195F
 90
        3
 70
     0
 71
     0
  1
AcDbOsnapPointRef
 72
     1
331
1688
 73
     2
 91
        0
 40
1.0
 10
444.5397124600457
 20
3543.274616037994
 30
0.0
 75
     0
  1
AcDbOsnapPointRef
 72
    13
331
1683
 73
     2
 91
        0
 40
0.0
 10
940.928672853006
 20
3046.885655645021
 30
0.0
 75
     0
  0
DIMASSOC
  5
1A01
102
{ACAD_REACTORS
330
19F7
102
}
330
19F7
100
AcDbDimAssoc
330
19EA
 90
        3
 70
     0
 71
     0
  1
AcDbOsnapPointRef
 72
     2
331
168A
 73
     2
 91
        0
 40
0.5
 10
-162.1911681941419
 20
3773.274616037991
 30
0.0
 75
     0
  1
AcDbOsnapPointRef
 72
     1
331
18B8
 73
     2
 91
        0
 40
1.0
 10
539.8088318058524
 20
3773.274616037991
 30
0.0
 75
     0
  0
DIMASSOC
  5
1A31
102
{ACAD_REACTORS
330
1A27
102
}
330
1A27
100
AcDbDimAssoc
330
1A1A
 90
        3
 70
     0
 71
     0
  1
AcDbOsnapPointRef
 72
     1
331
18B9
 73
     2
 91
        0
 40
1.0
 10
539.8088318058524
 20
3773.274616037991
 30
0.0
 75
     0
  1
AcDbOsnapPointRef
 72
    13
331
18B9
 73
     2
 91
        0
 40
0.0
 10
1036.197792198821
 20
3276.88565564502
 30
0.0
 75
     0
  0
LAYOUT
  5
22
102
{ACAD_REACTORS
330
1A
102
}
330
1A
100
AcDbPlotSettings
  1

  2
RICOH IPSiO NX620 RPCS
  4
A4
  6

 40
5.873749732971191
 41
5.873747825622557
 42
5.873748779296875
 43
5.873748779296875
 44
209.9733276367186
 45
296.9259948730469
 46
0.0
 47
0.0
 48
9548.597689637004
 49
5493.228943571151
140
10791.923520097
141
6446.96145060973
142
1.0
143
4.811343260619199
 70
 11952
 72
     1
 73
     1
 74
     4
  7
monochrome.ctb
 75
     0
147
0.2078421650321629
148
-9548.597689637004
149
-5493.228943571151
100
AcDbLayout
  1
Model
 70
     1
 71
     0
 10
0.0
 20
0.0
 11
12.0
 21
9.0
 12
0.0
 22
0.0
 32
0.0
 14
0.0
 24
0.0
 34
0.0
 15
0.0
 25
0.0
 35
0.0
146
0.0
 13
0.0
 23
0.0
 33
0.0
 16
1.0
 26
0.0
 36
0.0
 17
0.0
 27
1.0
 37
0.0
 76
     0
330
1F
  0
LAYOUT
  5
1E
102
{ACAD_REACTORS
330
1A
102
}
330
1A
100
AcDbPlotSettings
  1

  2
RICOH IPSiO NX620 RPCS
  4

  6

 40
0.0
 41
0.0
 42
0.0
 43
0.0
 44
0.0
 45
0.0
 46
0.0
 47
0.0
 48
0.0
 49
0.0
140
0.0
141
0.0
142
1.0
143
1.0
 70
   688
 72
     0
 73
     0
 74
     5
  7
monochrome.ctb
 75
    16
147
1.0
148
0.0
149
0.0
100
AcDbLayout
  1
ﾚｲｱｳﾄ1
 70
     1
 71
     1
 10
0.0
 20
0.0
 11
420.0
 21
297.0
 12
0.0
 22
0.0
 32
0.0
 14
1.000000000000000E+20
 24
1.000000000000000E+20
 34
1.000000000000000E+20
 15
-1.000000000000000E+20
 25
-1.000000000000000E+20
 35
-1.000000000000000E+20
146
0.0
 13
0.0
 23
0.0
 33
0.0
 16
1.0
 26
0.0
 36
0.0
 17
0.0
 27
1.0
 37
0.0
 76
     0
330
1B
  0
LAYOUT
  5
26
102
{ACAD_REACTORS
330
1A
102
}
330
1A
100
AcDbPlotSettings
  1

  2
RICOH IPSiO NX620 RPCS
  4

  6

 40
0.0
 41
0.0
 42
0.0
 43
0.0
 44
0.0
 45
0.0
 46
0.0
 47
0.0
 48
0.0
 49
0.0
140
0.0
141
0.0
142
1.0
143
1.0
 70
   688
 72
     0
 73
     0
 74
     5
  7
monochrome.ctb
 75
    16
147
1.0
148
0.0
149
0.0
100
AcDbLayout
  1
ﾚｲｱｳﾄ2
 70
     1
 71
     2
 10
0.0
 20
0.0
 11
12.0
 21
9.0
 12
0.0
 22
0.0
 32
0.0
 14
0.0
 24
0.0
 34
0.0
 15
0.0
 25
0.0
 35
0.0
146
0.0
 13
0.0
 23
0.0
 33
0.0
 16
1.0
 26
0.0
 36
0.0
 17
0.0
 27
1.0
 37
0.0
 76
     0
330
23
  0
MLINESTYLE
  5
18
102
{ACAD_REACTORS
330
17
102
}
330
17
100
AcDbMlineStyle
  2
STANDARD
 70
     0
  3

 62
   256
 51
90.0
 52
90.0
 71
     2
 49
0.5
 62
   256
  6
BYLAYER
 49
-0.5
 62
   256
  6
BYLAYER
  0
ACDBPLACEHOLDER
  5
F
102
{ACAD_REACTORS
330
E
102
}
330
E
  0
DICTIONARYVAR
  5
11D7
102
{ACAD_REACTORS
330
11D5
102
}
330
11D5
100
DictionaryVariables
280
     0
  1
2
  0
DICTIONARYVAR
  5
11D6
102
{ACAD_REACTORS
330
11D5
102
}
330
11D5
100
DictionaryVariables
280
     0
  1
1
  0
XRECORD
  5
2C78
102
{ACAD_REACTORS
330
2C76
102
}
330
2C76
100
AcDbXrecord
280
     1
330
2B42
330
2B43
330
2B4B
330
2B4C
330
2B6B
330
2B6C
330
2B57
330
2B58
330
2B73
330
2B74
330
2B5F
330
2B60
330
2B7C
330
2B7D
330
2B85
330
2B86
330
2B8E
330
2B8F
330
2BAE
330
2BAF
330
2BA3
330
2BA4
330
2B97
330
2B98
330
2073
330
2074
330
2085
330
2086
330
2061
330
2062
330
2058
330
2059
330
208E
330
208F
330
20A0
330
20A1
330
207C
330
207D
330
206A
330
206B
330
2097
330
2098
330
20B2
330
20B3
330
20E8
330
20E9
330
20D6
330
20D7
330
20CD
330
20CE
330
20DF
330
20E0
330
20BB
330
20BC
330
20F1
330
20F2
330
20C4
330
20C5
330
20A9
330
20AA
330
2C46
330
2C47
330
2C4F
330
2C50
330
2C3D
330
2C3E
330
2C19
330
2C1A
330
2C22
330
2C23
330
2C10
330
2C11
330
2C2B
330
2C2C
330
2C34
330
2C35
330
2BD1
330
2BD2
330
2BF5
330
2BF6
330
2BFE
330
2BFF
330
2C07
330
2C08
330
2BEC
330
2BED
330
2BBF
330
2BC0
330
2BB6
330
2BB7
330
2BC8
330
2BC9
330
2BE3
330
2BE4
330
2BDA
330
2BDB
330
2C58
330
2C59
330
2C61
330
2C62
  0
ENDSEC
  0
EOF
