  0
SECTION
  2
HEADER
  9
$ACADVER
  1
AC1015
  9
$ACADMAINTVER
 70
    14
  9
$DWGCODEPAGE
  3
ANSI_932
  9
$INSBASE
 10
0.0
 20
0.0
 30
0.0
  9
$EXTMIN
 10
-0.3110228930308949
 20
-0.3414373999039526
 30
-0.0000000000112498
  9
$EXTMAX
 10
8400.280663109548
 20
5940.268946972956
 30
0.0000000000002956
  9
$LIMMIN
 10
0.0
 20
0.0
  9
$LIMMAX
 10
420.0
 20
297.0
  9
$ORTHOMODE
 70
     1
  9
$REGENMODE
 70
     1
  9
$FILLMODE
 70
     1
  9
$QTEXTMODE
 70
     0
  9
$MIRRTEXT
 70
     1
  9
$LTSCALE
 40
10.0
  9
$ATTMODE
 70
     1
  9
$TEXTSIZE
 40
2.5
  9
$TRACEWID
 40
1.0
  9
$TEXTSTYLE
  7
Standard
  9
$CLAYER
  8
D-STR
  9
$CELTYPE
  6
ByLayer
  9
$CECOLOR
 62
   256
  9
$CELTSCALE
 40
1.0
  9
$DISPSILH
 70
     0
  9
$DIMSCALE
 40
10.0
  9
$DIMASZ
 40
2.5
  9
$DIMEXO
 40
1.0
  9
$DIMDLI
 40
10.0
  9
$DIMRND
 40
0.0
  9
$DIMDLE
 40
0.0
  9
$DIMEXE
 40
2.0
  9
$DIMTP
 40
0.0
  9
$DIMTM
 40
0.0
  9
$DIMTXT
 40
3.0
  9
$DIMCEN
 40
2.5
  9
$DIMTSZ
 40
0.0
  9
$DIMTOL
 70
     0
  9
$DIMLIM
 70
     0
  9
$DIMTIH
 70
     0
  9
$DIMTOH
 70
     0
  9
$DIMSE1
 70
     0
  9
$DIMSE2
 70
     0
  9
$DIMTAD
 70
     1
  9
$DIMZIN
 70
     8
  9
$DIMBLK
  1
OPEN30
  9
$DIMASO
 70
     1
  9
$DIMSHO
 70
     1
  9
$DIMPOST
  1

  9
$DIMAPOST
  1

  9
$DIMALT
 70
     0
  9
$DIMALTD
 70
     3
  9
$DIMALTF
 40
0.03937007874016
  9
$DIMLFAC
 40
1.0
  9
$DIMTOFL
 70
     1
  9
$DIMTVP
 40
0.0
  9
$DIMTIX
 70
     0
  9
$DIMSOXD
 70
     0
  9
$DIMSAH
 70
     0
  9
$DIMBLK1
  1

  9
$DIMBLK2
  1

  9
$DIMSTYLE
  2
S10
  9
$DIMCLRD
 70
   256
  9
$DIMCLRE
 70
   256
  9
$DIMCLRT
 70
   256
  9
$DIMTFAC
 40
1.0
  9
$DIMGAP
 40
1.0
  9
$DIMJUST
 70
     0
  9
$DIMSD1
 70
     0
  9
$DIMSD2
 70
     0
  9
$DIMTOLJ
 70
     0
  9
$DIMTZIN
 70
     8
  9
$DIMALTZ
 70
     0
  9
$DIMALTTZ
 70
     0
  9
$DIMUPT
 70
     0
  9
$DIMDEC
 70
     0
  9
$DIMTDEC
 70
     0
  9
$DIMALTU
 70
     2
  9
$DIMALTTD
 70
     3
  9
$DIMTXSTY
  7
Standard
  9
$DIMAUNIT
 70
     0
  9
$DIMADEC
 70
     0
  9
$DIMALTRND
 40
0.0
  9
$DIMAZIN
 70
     0
  9
$DIMDSEP
 70
    46
  9
$DIMATFIT
 70
     3
  9
$DIMFRAC
 70
     0
  9
$DIMLDRBLK
  1
OPEN30
  9
$DIMLUNIT
 70
     2
  9
$DIMLWD
 70
    -2
  9
$DIMLWE
 70
    -2
  9
$DIMTMOVE
 70
     0
  9
$LUNITS
 70
     2
  9
$LUPREC
 70
     4
  9
$SKETCHINC
 40
1.0
  9
$FILLETRAD
 40
30.0
  9
$AUNITS
 70
     0
  9
$AUPREC
 70
     0
  9
$MENU
  1
.
  9
$ELEVATION
 40
0.0
  9
$PELEVATION
 40
0.0
  9
$THICKNESS
 40
0.0
  9
$LIMCHECK
 70
     0
  9
$CHAMFERA
 40
0.0
  9
$CHAMFERB
 40
0.0
  9
$CHAMFERC
 40
20.0
  9
$CHAMFERD
 40
0.0
  9
$SKPOLY
 70
     0
  9
$TDCREATE
 40
2452871.347558217
  9
$TDUCREATE
 40
2452870.972558217
  9
$TDUPDATE
 40
2454642.401862315
  9
$TDUUPDATE
 40
2454642.026862314
  9
$TDINDWG
 40
0.5968256597
  9
$TDUSRTIMER
 40
0.5968256597
  9
$USRTIMER
 70
     1
  9
$ANGBASE
 50
0.0
  9
$ANGDIR
 70
     0
  9
$PDMODE
 70
     0
  9
$PDSIZE
 40
0.0
  9
$PLINEWID
 40
0.0
  9
$SPLFRAME
 70
     0
  9
$SPLINETYPE
 70
     6
  9
$SPLINESEGS
 70
     8
  9
$HANDSEED
  5
F80A
  9
$SURFTAB1
 70
     6
  9
$SURFTAB2
 70
     6
  9
$SURFTYPE
 70
     6
  9
$SURFU
 70
     6
  9
$SURFV
 70
     6
  9
$UCSBASE
  2

  9
$UCSNAME
  2

  9
$UCSORG
 10
0.0
 20
0.0
 30
0.0
  9
$UCSXDIR
 10
1.0
 20
0.0
 30
0.0
  9
$UCSYDIR
 10
0.0
 20
1.0
 30
0.0
  9
$UCSORTHOREF
  2

  9
$UCSORTHOVIEW
 70
     0
  9
$UCSORGTOP
 10
0.0
 20
0.0
 30
0.0
  9
$UCSORGBOTTOM
 10
0.0
 20
0.0
 30
0.0
  9
$UCSORGLEFT
 10
0.0
 20
0.0
 30
0.0
  9
$UCSORGRIGHT
 10
0.0
 20
0.0
 30
0.0
  9
$UCSORGFRONT
 10
0.0
 20
0.0
 30
0.0
  9
$UCSORGBACK
 10
0.0
 20
0.0
 30
0.0
  9
$PUCSBASE
  2

  9
$PUCSNAME
  2

  9
$PUCSORG
 10
0.0
 20
0.0
 30
0.0
  9
$PUCSXDIR
 10
1.0
 20
0.0
 30
0.0
  9
$PUCSYDIR
 10
0.0
 20
1.0
 30
0.0
  9
$PUCSORTHOREF
  2

  9
$PUCSORTHOVIEW
 70
     0
  9
$PUCSORGTOP
 10
0.0
 20
0.0
 30
0.0
  9
$PUCSORGBOTTOM
 10
0.0
 20
0.0
 30
0.0
  9
$PUCSORGLEFT
 10
0.0
 20
0.0
 30
0.0
  9
$PUCSORGRIGHT
 10
0.0
 20
0.0
 30
0.0
  9
$PUCSORGFRONT
 10
0.0
 20
0.0
 30
0.0
  9
$PUCSORGBACK
 10
0.0
 20
0.0
 30
0.0
  9
$USERI1
 70
     0
  9
$USERI2
 70
     0
  9
$USERI3
 70
     0
  9
$USERI4
 70
     0
  9
$USERI5
 70
     0
  9
$USERR1
 40
0.0
  9
$USERR2
 40
0.0
  9
$USERR3
 40
0.0
  9
$USERR4
 40
0.0
  9
$USERR5
 40
0.0
  9
$WORLDVIEW
 70
     1
  9
$SHADEDGE
 70
     3
  9
$SHADEDIF
 70
    70
  9
$TILEMODE
 70
     1
  9
$MAXACTVP
 70
    64
  9
$PINSBASE
 10
0.0
 20
0.0
 30
0.0
  9
$PLIMCHECK
 70
     0
  9
$PEXTMIN
 10
1.000000000000000E+20
 20
1.000000000000000E+20
 30
1.000000000000000E+20
  9
$PEXTMAX
 10
-1.000000000000000E+20
 20
-1.000000000000000E+20
 30
-1.000000000000000E+20
  9
$PLIMMIN
 10
0.0
 20
0.0
  9
$PLIMMAX
 10
420.0
 20
297.0
  9
$UNITMODE
 70
     0
  9
$VISRETAIN
 70
     1
  9
$PLINEGEN
 70
     0
  9
$PSLTSCALE
 70
     1
  9
$TREEDEPTH
 70
  3020
  9
$CMLSTYLE
  2
Standard
  9
$CMLJUST
 70
     0
  9
$CMLSCALE
 40
20.0
  9
$PROXYGRAPHICS
 70
     1
  9
$MEASUREMENT
 70
     1
  9
$CELWEIGHT
370
    -1
  9
$ENDCAPS
280
     0
  9
$JOINSTYLE
280
     0
  9
$LWDISPLAY
290
     0
  9
$INSUNITS
 70
     4
  9
$HYPERLINKBASE
  1

  9
$STYLESHEET
  1
monochrome.ctb
  9
$XEDIT
290
     1
  9
$CEPSNTYPE
380
     0
  9
$PSTYLEMODE
290
     1
  9
$FINGERPRINTGUID
  2
{D1FD9ED3-811D-4C3D-9EA5-C7A58094841D}
  9
$VERSIONGUID
  2
{F00299C6-8EF1-48FE-8E1C-A8768349FB35}
  9
$EXTNAMES
290
     1
  9
$PSVPSCALE
 40
0.0
  9
$OLESTARTUP
290
     0
  0
ENDSEC
  0
SECTION
  2
CLASSES
  0
CLASS
  1
ACDBDICTIONARYWDFLT
  2
AcDbDictionaryWithDefault
  3
AutoCAD 2000
 90
        0
280
     0
281
     0
  0
CLASS
  1
ACDBPLACEHOLDER
  2
AcDbPlaceHolder
  3
AutoCAD 2000
 90
        0
280
     0
281
     0
  0
CLASS
  1
LAYOUT
  2
AcDbLayout
  3
AutoCAD 2000
 90
        0
280
     0
281
     0
  0
CLASS
  1
DICTIONARYVAR
  2
AcDbDictionaryVar
  3
AutoCAD 2000
 90
        0
280
     0
281
     0
  0
CLASS
  1
DIMASSOC
  2
AcDbDimAssoc
  3
"AcDbDimAssoc|Product Desc:     AcDim ARX App For Dimension|Company:          Autodesk, Inc.|WEB Address:      www.autodesk.com"
 90
        0
280
     0
281
     0
  0
ENDSEC
  0
SECTION
  2
TABLES
  0
TABLE
  2
VPORT
  5
8
330
0
100
AcDbSymbolTable
 70
     3
  0
VPORT
  5
F809
330
8
100
AcDbSymbolTableRecord
100
AcDbViewportTableRecord
  2
*Active
 70
     0
 10
0.0
 20
0.0
 11
1.0
 21
1.0
 12
4199.984820108261
 22
2969.963754786526
 13
0.0
 23
0.0
 14
10.0
 24
10.0
 15
10.0
 25
10.0
 16
0.0
 26
0.0
 36
1.0
 17
0.0
 27
0.0
 37
0.0
 40
5989.370524326672
 41
1.649315068493151
 42
50.0
 43
0.0
 44
0.0
 50
0.0
 51
0.0
 71
     0
 72
   100
 73
     1
 74
     1
 75
     0
 76
     0
 77
     0
 78
     0
281
     0
 65
     1
110
0.0
120
0.0
130
0.0
111
1.0
121
0.0
131
0.0
112
0.0
122
1.0
132
0.0
 79
     0
146
0.0
  0
ENDTAB
  0
TABLE
  2
LTYPE
  5
5
330
0
100
AcDbSymbolTable
 70
     2
  0
LTYPE
  5
14
330
5
100
AcDbSymbolTableRecord
100
AcDbLinetypeTableRecord
  2
ByBlock
 70
     0
  3

 72
    65
 73
     0
 40
0.0
  0
LTYPE
  5
15
330
5
100
AcDbSymbolTableRecord
100
AcDbLinetypeTableRecord
  2
ByLayer
 70
     0
  3

 72
    65
 73
     0
 40
0.0
  0
LTYPE
  5
16
330
5
100
AcDbSymbolTableRecord
100
AcDbLinetypeTableRecord
  2
Continuous
 70
     0
  3
Solid line
 72
    65
 73
     0
 40
0.0
  0
LTYPE
  5
E418
330
5
100
AcDbSymbolTableRecord
100
AcDbLinetypeTableRecord
  2
DASHED1
 70
     0
  3
--  --  --  --  --  --  --  --  
 72
    65
 73
     2
 40
2.5
 49
1.25
 74
     0
 49
-1.25
 74
     0
  0
ENDTAB
  0
TABLE
  2
LAYER
  5
2
330
0
100
AcDbSymbolTable
 70
     6
  0
LAYER
  5
10
330
2
100
AcDbSymbolTableRecord
100
AcDbLayerTableRecord
  2
0
 70
     0
 62
     7
  6
Continuous
370
    -3
390
F
  0
LAYER
  5
40
330
2
100
AcDbSymbolTableRecord
100
AcDbLayerTableRecord
  2
DEFPOINTS
 70
     0
 62
     7
  6
Continuous
290
     0
370
    -3
390
F
  0
LAYER
  5
9E
330
2
100
AcDbSymbolTableRecord
100
AcDbLayerTableRecord
  2
D-STR
 70
     0
 62
     1
  6
Continuous
370
    -3
390
F
  0
LAYER
  5
A0
330
2
100
AcDbSymbolTableRecord
100
AcDbLayerTableRecord
  2
D-STR-TXT
 70
     0
 62
     7
  6
Continuous
370
    15
390
F
  0
LAYER
  5
A1
330
2
100
AcDbSymbolTableRecord
100
AcDbLayerTableRecord
  2
D-STR-DIM
 70
     0
 62
     7
  6
Continuous
370
    15
390
F
  0
LAYER
  5
D81E
330
2
100
AcDbSymbolTableRecord
100
AcDbLayerTableRecord
  2
D-TTL
 70
     0
 62
     2
  6
Continuous
370
    -3
390
F
  0
ENDTAB
  0
TABLE
  2
STYLE
  5
3
330
0
100
AcDbSymbolTable
 70
     1
  0
STYLE
  5
11
330
3
100
AcDbSymbolTableRecord
100
AcDbTextStyleTableRecord
  2
Standard
 70
     0
 40
0.0
 41
0.8
 50
0.0
 71
     0
 42
2.5
  3
MS Gothic.ttf
  4

1001
ACAD
1000
MS Gothic
1071
    32817
  0
ENDTAB
  0
TABLE
  2
VIEW
  5
6
330
0
100
AcDbSymbolTable
 70
     0
  0
ENDTAB
  0
TABLE
  2
UCS
  5
7
330
0
100
AcDbSymbolTable
 70
     0
  0
ENDTAB
  0
TABLE
  2
APPID
  5
9
330
0
100
AcDbSymbolTable
 70
     2
  0
APPID
  5
12
330
9
100
AcDbSymbolTableRecord
100
AcDbRegAppTableRecord
  2
ACAD
 70
     0
  0
APPID
  5
E9D2
330
9
100
AcDbSymbolTableRecord
100
AcDbRegAppTableRecord
  2
DCO15
 70
     0
  0
ENDTAB
  0
TABLE
  2
DIMSTYLE
  5
A
330
0
100
AcDbSymbolTable
 70
     2
100
AcDbDimStyleTable
 71
     1
340
229D
  0
DIMSTYLE
105
229D
102
{ACAD_REACTORS
330
E477
330
E476
330
E479
330
E47A
330
E478
330
E47D
330
E47B
330
E47C
330
E47E
330
E559
330
E557
330
E558
330
E556
330
E5B6
330
E5D2
330
E728
330
E727
330
E729
330
E7A3
330
E7A5
330
E7A7
330
E7A6
330
E7A4
330
E7A8
330
E7AA
330
E7A9
330
E7AB
330
E8D9
330
E8D8
330
E8DA
330
E8DB
330
E8DE
330
E8DC
330
E8DD
330
E982
330
E9A9
330
EB5C
330
EB5A
330
EB5B
330
EB59
330
EB56
330
EB54
330
EB57
330
EB58
330
EB55
330
EB69
330
EB68
330
EB6A
330
EB67
330
EB65
330
EB64
330
EB66
330
ECDD
330
ECF9
330
F124
330
F140
330
F158
330
F170
330
F19D
330
F1DA
330
F1F6
330
F218
330
F23E
330
F23B
330
F273
330
F270
330
F26F
330
F27C
330
F279
330
F276
330
F373
330
F374
330
F3C2
330
F3C0
330
F3C1
330
F3C3
330
F3C4
330
F3C5
102
}
330
A
100
AcDbSymbolTableRecord
100
AcDbDimStyleTableRecord
  2
S10
 70
     0
 40
10.0
 41
2.5
 42
1.0
 43
10.0
 44
2.0
 73
     0
 74
     0
 77
     1
 78
     8
140
3.0
141
2.5
143
0.03937007874016
147
1.0
171
     3
172
     1
176
   256
177
   256
178
   256
271
     0
272
     0
274
     3
283
     0
284
     8
340
11
341
2B
342
2B
  0
DIMSTYLE
105
E419
330
A
100
AcDbSymbolTableRecord
100
AcDbDimStyleTableRecord
  2
Standard
 70
     0
340
11
  0
ENDTAB
  0
TABLE
  2
BLOCK_RECORD
  5
1
330
0
100
AcDbSymbolTable
 70
    80
  0
BLOCK_RECORD
  5
1F
330
1
100
AcDbSymbolTableRecord
100
AcDbBlockTableRecord
  2
*Model_Space
340
22
  0
BLOCK_RECORD
  5
1B
330
1
100
AcDbSymbolTableRecord
100
AcDbBlockTableRecord
  2
*Paper_Space
340
1E
  0
BLOCK_RECORD
  5
23
330
1
100
AcDbSymbolTableRecord
100
AcDbBlockTableRecord
  2
*Paper_Space0
340
26
  0
BLOCK_RECORD
  5
2B
330
1
100
AcDbSymbolTableRecord
100
AcDbBlockTableRecord
  2
_OPEN30
340
0
102
{BLKREFS
331
EF0E
331
EF0F
331
EF17
331
EF18
331
EF23
331
EF24
331
EF2D
331
EF2E
331
EF36
331
EF37
331
EF3F
331
EF40
331
EF4B
331
EF4C
331
EF53
331
EF54
331
EF5F
331
EF60
331
EF67
331
EF68
331
EF70
331
EF71
331
EF79
331
EF7A
331
EF85
331
EF86
331
EF90
331
EF91
331
EF9B
331
EF9C
331
EFA6
331
EFA7
331
EFAE
331
EFAF
331
EFB7
331
EFB8
331
EFC3
331
EFC4
331
EFCE
331
EFCF
331
EFD6
331
EFD7
331
EFDF
331
EFE0
331
EFE8
331
EFE9
331
EFF1
331
EFF2
331
EFFA
331
EFFB
331
F006
331
F007
331
F010
331
F011
331
F019
331
F01A
331
F022
331
F023
331
F02B
331
F02C
331
F036
331
F037
331
F042
331
F043
331
F04C
331
F04D
331
F058
331
F059
331
F060
331
F061
331
F069
331
F06A
331
F072
331
F073
331
F07B
331
F07C
331
F084
331
F085
331
F08D
331
F08E
331
F096
331
F097
331
F09F
331
F0A0
331
F0A8
331
F0A9
331
F0B4
331
F0B5
331
F0BE
331
F0BF
331
F0C7
331
F0C8
331
F0D0
331
F0D1
331
F0D9
331
F0DA
331
F0E5
331
F0E6
331
F0ED
331
F0EE
331
F0F6
331
F0F7
331
F101
331
F102
331
F10C
331
F10D
331
F118
331
F119
331
F139
331
F13A
331
F151
331
F152
331
F169
331
F16A
331
F198
331
F199
331
F1D4
331
F1D5
331
F1EF
331
F1F0
331
F229
331
F22A
331
F236
331
F237
331
F25E
331
F25F
331
F269
331
F26A
331
F2F3
331
F2F4
331
F313
331
F314
331
F324
331
F325
331
F34E
331
F34F
331
F357
331
F358
331
F36E
331
F36F
331
F3AF
331
F3B0
331
F3BA
331
F3BB
331
F478
331
F479
331
F481
331
F482
331
F498
331
F499
331
F4D3
331
F4D4
331
F4EA
331
F4EB
331
F4F2
331
F4F3
331
F505
331
F506
331
F50E
331
F50F
331
F517
331
F518
331
F520
331
F521
331
F529
331
F52A
331
F532
331
F533
331
F53B
331
F53C
331
F544
331
F545
331
F54D
331
F54E
331
F559
331
F55A
331
F563
331
F564
331
F56E
331
F56F
331
F57A
331
F57B
331
F582
331
F583
331
F58D
331
F58E
331
F598
331
F599
331
F5A4
331
F5A5
331
F5AC
331
F5AD
331
F5B8
331
F5B9
331
F5C2
331
F5C3
331
F5CD
331
F5CE
331
F5D6
331
F5D7
331
F5DF
331
F5E0
331
F5E8
331
F5E9
331
F5F1
331
F5F2
331
F5FA
331
F5FB
331
F606
331
F607
331
F611
331
F612
331
F619
331
F61A
331
F622
331
F623
331
F62E
331
F62F
331
F636
331
F637
331
F642
331
F643
331
F64A
331
F64B
331
F655
331
F656
331
F661
331
F662
331
F66C
331
F66D
331
F674
331
F675
331
F680
331
F681
331
F68A
331
F68B
331
F696
331
F697
331
F69E
331
F69F
331
F6AA
331
F6AB
331
F6B2
331
F6B3
331
F6BB
331
F6BC
331
F6C6
331
F6C7
331
F6CF
331
F6D0
331
F6DB
331
F6DC
331
F6E3
331
F6E4
331
F6EC
331
F6ED
331
F6F5
331
F6F6
331
F700
331
F701
331
F70C
331
F70D
331
F714
331
F715
331
F720
331
F721
331
F72A
331
F72B
331
F733
331
F734
331
F73C
331
F73D
331
F745
331
F746
331
F74E
331
F74F
331
F757
331
F758
331
F762
331
F763
331
F76E
331
F76F
331
F776
331
F777
331
F782
331
F783
331
F78A
331
F78B
331
F793
331
F794
331
F79F
331
F7A0
331
F7A7
331
F7A8
331
F7B0
331
F7B1
331
F7BB
331
F7BC
331
F7C4
331
F7C5
331
F7CF
331
F7D0
331
F7DB
331
F7DC
331
F7E3
331
F7E4
331
F7EC
331
F7ED
331
F7F7
331
F7F8
331
F803
331
F804
102
}
  0
BLOCK_RECORD
  5
E47F
330
1
100
AcDbSymbolTableRecord
100
AcDbBlockTableRecord
  2
*D2
340
0
  0
BLOCK_RECORD
  5
E48D
330
1
100
AcDbSymbolTableRecord
100
AcDbBlockTableRecord
  2
*D3
340
0
  0
BLOCK_RECORD
  5
E49B
330
1
100
AcDbSymbolTableRecord
100
AcDbBlockTableRecord
  2
*D4
340
0
  0
BLOCK_RECORD
  5
E4A7
330
1
100
AcDbSymbolTableRecord
100
AcDbBlockTableRecord
  2
*D5
340
0
  0
BLOCK_RECORD
  5
E4B3
330
1
100
AcDbSymbolTableRecord
100
AcDbBlockTableRecord
  2
*D6
340
0
  0
BLOCK_RECORD
  5
E4BF
330
1
100
AcDbSymbolTableRecord
100
AcDbBlockTableRecord
  2
*D7
340
0
  0
BLOCK_RECORD
  5
E4CB
330
1
100
AcDbSymbolTableRecord
100
AcDbBlockTableRecord
  2
*D8
340
0
  0
BLOCK_RECORD
  5
E4D7
330
1
100
AcDbSymbolTableRecord
100
AcDbBlockTableRecord
  2
*D9
340
0
  0
BLOCK_RECORD
  5
E4E3
330
1
100
AcDbSymbolTableRecord
100
AcDbBlockTableRecord
  2
*D10
340
0
  0
BLOCK_RECORD
  5
E55A
330
1
100
AcDbSymbolTableRecord
100
AcDbBlockTableRecord
  2
*D11
340
0
  0
BLOCK_RECORD
  5
E566
330
1
100
AcDbSymbolTableRecord
100
AcDbBlockTableRecord
  2
*D12
340
0
  0
BLOCK_RECORD
  5
E572
330
1
100
AcDbSymbolTableRecord
100
AcDbBlockTableRecord
  2
*D13
340
0
  0
BLOCK_RECORD
  5
E580
330
1
100
AcDbSymbolTableRecord
100
AcDbBlockTableRecord
  2
*D14
340
0
  0
BLOCK_RECORD
  5
E5B7
330
1
100
AcDbSymbolTableRecord
100
AcDbBlockTableRecord
  2
*D15
340
0
  0
BLOCK_RECORD
  5
E5D3
330
1
100
AcDbSymbolTableRecord
100
AcDbBlockTableRecord
  2
*D16
340
0
  0
BLOCK_RECORD
  5
E72A
330
1
100
AcDbSymbolTableRecord
100
AcDbBlockTableRecord
  2
*D17
340
0
  0
BLOCK_RECORD
  5
E738
330
1
100
AcDbSymbolTableRecord
100
AcDbBlockTableRecord
  2
*D18
340
0
  0
BLOCK_RECORD
  5
E744
330
1
100
AcDbSymbolTableRecord
100
AcDbBlockTableRecord
  2
*D19
340
0
  0
BLOCK_RECORD
  5
E7AC
330
1
100
AcDbSymbolTableRecord
100
AcDbBlockTableRecord
  2
*D20
340
0
  0
BLOCK_RECORD
  5
E7B8
330
1
100
AcDbSymbolTableRecord
100
AcDbBlockTableRecord
  2
*D21
340
0
  0
BLOCK_RECORD
  5
E7C6
330
1
100
AcDbSymbolTableRecord
100
AcDbBlockTableRecord
  2
*D22
340
0
  0
BLOCK_RECORD
  5
E7D4
330
1
100
AcDbSymbolTableRecord
100
AcDbBlockTableRecord
  2
*D23
340
0
  0
BLOCK_RECORD
  5
E7E0
330
1
100
AcDbSymbolTableRecord
100
AcDbBlockTableRecord
  2
*D24
340
0
  0
BLOCK_RECORD
  5
E7EC
330
1
100
AcDbSymbolTableRecord
100
AcDbBlockTableRecord
  2
*D25
340
0
  0
BLOCK_RECORD
  5
E7F8
330
1
100
AcDbSymbolTableRecord
100
AcDbBlockTableRecord
  2
*D26
340
0
  0
BLOCK_RECORD
  5
E804
330
1
100
AcDbSymbolTableRecord
100
AcDbBlockTableRecord
  2
*D27
340
0
  0
BLOCK_RECORD
  5
E810
330
1
100
AcDbSymbolTableRecord
100
AcDbBlockTableRecord
  2
*D28
340
0
  0
BLOCK_RECORD
  5
E8DF
330
1
100
AcDbSymbolTableRecord
100
AcDbBlockTableRecord
  2
*D29
340
0
  0
BLOCK_RECORD
  5
E8EB
330
1
100
AcDbSymbolTableRecord
100
AcDbBlockTableRecord
  2
*D30
340
0
  0
BLOCK_RECORD
  5
E8F7
330
1
100
AcDbSymbolTableRecord
100
AcDbBlockTableRecord
  2
*D31
340
0
  0
BLOCK_RECORD
  5
E905
330
1
100
AcDbSymbolTableRecord
100
AcDbBlockTableRecord
  2
*D32
340
0
  0
BLOCK_RECORD
  5
E913
330
1
100
AcDbSymbolTableRecord
100
AcDbBlockTableRecord
  2
*D33
340
0
  0
BLOCK_RECORD
  5
E921
330
1
100
AcDbSymbolTableRecord
100
AcDbBlockTableRecord
  2
*D34
340
0
  0
BLOCK_RECORD
  5
E92D
330
1
100
AcDbSymbolTableRecord
100
AcDbBlockTableRecord
  2
*D35
340
0
  0
BLOCK_RECORD
  5
E983
330
1
100
AcDbSymbolTableRecord
100
AcDbBlockTableRecord
  2
*D36
340
0
  0
BLOCK_RECORD
  5
E9AA
330
1
100
AcDbSymbolTableRecord
100
AcDbBlockTableRecord
  2
*D37
340
0
  0
BLOCK_RECORD
  5
EB6B
330
1
100
AcDbSymbolTableRecord
100
AcDbBlockTableRecord
  2
*D38
340
0
  0
BLOCK_RECORD
  5
EB77
330
1
100
AcDbSymbolTableRecord
100
AcDbBlockTableRecord
  2
*D39
340
0
  0
BLOCK_RECORD
  5
EB83
330
1
100
AcDbSymbolTableRecord
100
AcDbBlockTableRecord
  2
*D40
340
0
  0
BLOCK_RECORD
  5
EB8F
330
1
100
AcDbSymbolTableRecord
100
AcDbBlockTableRecord
  2
*D41
340
0
  0
BLOCK_RECORD
  5
EB9B
330
1
100
AcDbSymbolTableRecord
100
AcDbBlockTableRecord
  2
*D42
340
0
  0
BLOCK_RECORD
  5
EBA7
330
1
100
AcDbSymbolTableRecord
100
AcDbBlockTableRecord
  2
*D43
340
0
  0
BLOCK_RECORD
  5
EBB3
330
1
100
AcDbSymbolTableRecord
100
AcDbBlockTableRecord
  2
*D44
340
0
  0
BLOCK_RECORD
  5
EBC1
330
1
100
AcDbSymbolTableRecord
100
AcDbBlockTableRecord
  2
*D45
340
0
  0
BLOCK_RECORD
  5
EBCF
330
1
100
AcDbSymbolTableRecord
100
AcDbBlockTableRecord
  2
*D46
340
0
  0
BLOCK_RECORD
  5
EBDB
330
1
100
AcDbSymbolTableRecord
100
AcDbBlockTableRecord
  2
*D47
340
0
  0
BLOCK_RECORD
  5
EBE7
330
1
100
AcDbSymbolTableRecord
100
AcDbBlockTableRecord
  2
*D48
340
0
  0
BLOCK_RECORD
  5
EBF3
330
1
100
AcDbSymbolTableRecord
100
AcDbBlockTableRecord
  2
*D49
340
0
  0
BLOCK_RECORD
  5
EC01
330
1
100
AcDbSymbolTableRecord
100
AcDbBlockTableRecord
  2
*D50
340
0
  0
BLOCK_RECORD
  5
EC0F
330
1
100
AcDbSymbolTableRecord
100
AcDbBlockTableRecord
  2
*D51
340
0
  0
BLOCK_RECORD
  5
EC1B
330
1
100
AcDbSymbolTableRecord
100
AcDbBlockTableRecord
  2
*D52
340
0
  0
BLOCK_RECORD
  5
EC27
330
1
100
AcDbSymbolTableRecord
100
AcDbBlockTableRecord
  2
*D53
340
0
  0
BLOCK_RECORD
  5
ECDE
330
1
100
AcDbSymbolTableRecord
100
AcDbBlockTableRecord
  2
*D54
340
0
  0
BLOCK_RECORD
  5
ECFA
330
1
100
AcDbSymbolTableRecord
100
AcDbBlockTableRecord
  2
*D55
340
0
  0
BLOCK_RECORD
  5
F125
330
1
100
AcDbSymbolTableRecord
100
AcDbBlockTableRecord
  2
*D56
340
0
  0
BLOCK_RECORD
  5
F141
330
1
100
AcDbSymbolTableRecord
100
AcDbBlockTableRecord
  2
*D57
340
0
  0
BLOCK_RECORD
  5
F159
330
1
100
AcDbSymbolTableRecord
100
AcDbBlockTableRecord
  2
*D58
340
0
  0
BLOCK_RECORD
  5
F171
330
1
100
AcDbSymbolTableRecord
100
AcDbBlockTableRecord
  2
*D59
340
0
  0
BLOCK_RECORD
  5
F19E
330
1
100
AcDbSymbolTableRecord
100
AcDbBlockTableRecord
  2
*D60
340
0
  0
BLOCK_RECORD
  5
F1DB
330
1
100
AcDbSymbolTableRecord
100
AcDbBlockTableRecord
  2
*D61
340
0
  0
BLOCK_RECORD
  5
F1F7
330
1
100
AcDbSymbolTableRecord
100
AcDbBlockTableRecord
  2
*D62
340
0
  0
BLOCK_RECORD
  5
F219
330
1
100
AcDbSymbolTableRecord
100
AcDbBlockTableRecord
  2
*D63
340
0
  0
BLOCK_RECORD
  5
F241
330
1
100
AcDbSymbolTableRecord
100
AcDbBlockTableRecord
  2
*D64
340
0
  0
BLOCK_RECORD
  5
F24F
330
1
100
AcDbSymbolTableRecord
100
AcDbBlockTableRecord
  2
*D65
340
0
  0
BLOCK_RECORD
  5
F27F
330
1
100
AcDbSymbolTableRecord
100
AcDbBlockTableRecord
  2
*D66
340
0
  0
BLOCK_RECORD
  5
F28D
330
1
100
AcDbSymbolTableRecord
100
AcDbBlockTableRecord
  2
*D67
340
0
  0
BLOCK_RECORD
  5
F299
330
1
100
AcDbSymbolTableRecord
100
AcDbBlockTableRecord
  2
*D68
340
0
  0
BLOCK_RECORD
  5
F2B2
330
1
100
AcDbSymbolTableRecord
100
AcDbBlockTableRecord
  2
*D69
340
0
  0
BLOCK_RECORD
  5
F2C0
330
1
100
AcDbSymbolTableRecord
100
AcDbBlockTableRecord
  2
*D70
340
0
  0
BLOCK_RECORD
  5
F2CE
330
1
100
AcDbSymbolTableRecord
100
AcDbBlockTableRecord
  2
*D71
340
0
  0
BLOCK_RECORD
  5
F375
330
1
100
AcDbSymbolTableRecord
100
AcDbBlockTableRecord
  2
*D72
340
0
  0
BLOCK_RECORD
  5
F381
330
1
100
AcDbSymbolTableRecord
100
AcDbBlockTableRecord
  2
*D73
340
0
  0
BLOCK_RECORD
  5
F3C6
330
1
100
AcDbSymbolTableRecord
100
AcDbBlockTableRecord
  2
*D74
340
0
  0
BLOCK_RECORD
  5
F3D4
330
1
100
AcDbSymbolTableRecord
100
AcDbBlockTableRecord
  2
*D75
340
0
  0
BLOCK_RECORD
  5
F3E2
330
1
100
AcDbSymbolTableRecord
100
AcDbBlockTableRecord
  2
*D76
340
0
  0
BLOCK_RECORD
  5
F3EE
330
1
100
AcDbSymbolTableRecord
100
AcDbBlockTableRecord
  2
*D77
340
0
  0
BLOCK_RECORD
  5
F3FA
330
1
100
AcDbSymbolTableRecord
100
AcDbBlockTableRecord
  2
*D78
340
0
  0
BLOCK_RECORD
  5
F408
330
1
100
AcDbSymbolTableRecord
100
AcDbBlockTableRecord
  2
*D79
340
0
  0
ENDTAB
  0
ENDSEC
  0
SECTION
  2
BLOCKS
  0
BLOCK
  5
20
330
1F
100
AcDbEntity
  8
0
100
AcDbBlockBegin
  2
*Model_Space
 70
     0
 10
0.0
 20
0.0
 30
0.0
  3
*Model_Space
  1

  0
ENDBLK
  5
21
330
1F
100
AcDbEntity
  8
0
100
AcDbBlockEnd
  0
BLOCK
  5
1C
330
1B
100
AcDbEntity
 67
     1
  8
0
100
AcDbBlockBegin
  2
*Paper_Space
 70
     0
 10
0.0
 20
0.0
 30
0.0
  3
*Paper_Space
  1

  0
ENDBLK
  5
1D
330
1B
100
AcDbEntity
 67
     1
  8
0
100
AcDbBlockEnd
  0
BLOCK
  5
24
330
23
100
AcDbEntity
  8
0
100
AcDbBlockBegin
  2
*Paper_Space0
 70
     0
 10
0.0
 20
0.0
 30
0.0
  3
*Paper_Space0
  1

  0
ENDBLK
  5
25
330
23
100
AcDbEntity
  8
0
100
AcDbBlockEnd
  0
BLOCK
  5
2F
330
2B
100
AcDbEntity
  8
0
100
AcDbBlockBegin
  2
_OPEN30
 70
     0
 10
0.0
 20
0.0
 30
0.0
  3
_OPEN30
  1

  0
LINE
  5
2C
330
2B
100
AcDbEntity
  8
0
  6
ByBlock
 62
     0
100
AcDbLine
 10
-1.0
 20
0.26794919
 30
0.0
 11
0.0
 21
0.0
 31
0.0
  0
LINE
  5
2D
330
2B
100
AcDbEntity
  8
0
  6
ByBlock
 62
     0
100
AcDbLine
 10
0.0
 20
0.0
 30
0.0
 11
-1.0
 21
-0.26794919
 31
0.0
  0
LINE
  5
2E
330
2B
100
AcDbEntity
  8
0
  6
ByBlock
 62
     0
100
AcDbLine
 10
0.0
 20
0.0
 30
0.0
 11
-1.0
 21
0.0
 31
0.0
  0
ENDBLK
  5
30
330
2B
100
AcDbEntity
  8
0
100
AcDbBlockEnd
  0
BLOCK
  5
E48B
330
E47F
100
AcDbEntity
  8
0
100
AcDbBlockBegin
  2
*D2
 70
     1
 10
0.0
 20
0.0
 30
0.0
  3
*D2
  1

  0
LINE
  5
F650
330
E47F
100
AcDbEntity
  8
D-STR-DIM
370
    -2
100
AcDbLine
 10
1509.99996494077
 20
4392.769250959991
 30
0.0
 11
1352.499955
 21
4392.769250959991
 31
0.0
  0
LINE
  5
F651
330
E47F
100
AcDbEntity
  8
D-STR-DIM
370
    -2
100
AcDbLine
 10
1550.000025
 20
4342.769183208611
 30
0.0
 11
1352.499955
 21
4342.769183208611
 31
0.0
  0
LINE
  5
F652
330
E47F
100
AcDbEntity
  8
D-STR-DIM
370
    -2
100
AcDbLine
 10
1372.499955
 20
4417.769250959991
 30
0.0
 11
1372.499955
 21
4442.769250959991
 31
0.0
  0
LINE
  5
F653
330
E47F
100
AcDbEntity
  8
D-STR-DIM
370
    -2
100
AcDbLine
 10
1372.499955
 20
4317.769183208611
 30
0.0
 11
1372.499955
 21
4292.769183208611
 31
0.0
  0
LINE
  5
F654
330
E47F
100
AcDbEntity
  8
D-STR-DIM
370
    -2
100
AcDbLine
 10
1372.499955
 20
4392.769250959991
 30
0.0
 11
1372.499955
 21
4342.769183208611
 31
0.0
  0
INSERT
  5
F655
330
E47F
100
AcDbEntity
  8
D-STR-DIM
370
    -2
100
AcDbBlockReference
  2
_OPEN30
 10
1372.499955
 20
4392.769250959991
 30
0.0
 41
25.0
 42
25.0
 43
25.0
 50
270.0
  0
INSERT
  5
F656
330
E47F
100
AcDbEntity
  8
D-STR-DIM
370
    -2
100
AcDbBlockReference
  2
_OPEN30
 10
1372.499955
 20
4342.769183208611
 30
0.0
 41
25.0
 42
25.0
 43
25.0
 50
90.0
  0
MTEXT
  5
F657
330
E47F
100
AcDbEntity
  8
D-STR-DIM
100
AcDbMText
 10
1347.499955
 20
4367.7692170843
 30
0.0
 40
30.0
 41
0.0
 71
     5
 72
     1
  1
50
 11
0.0000000000000001
 21
1.0
 31
0.0
 73
     1
 44
1.0
  0
POINT
  5
F658
330
E47F
100
AcDbEntity
  8
DEFPOINTS
 62
     0
100
AcDbPoint
 10
1519.99996494077
 20
4392.769250959991
 30
0.0
  0
POINT
  5
F659
330
E47F
100
AcDbEntity
  8
DEFPOINTS
 62
     0
100
AcDbPoint
 10
1560.000025
 20
4342.769183208611
 30
0.0
  0
POINT
  5
F65A
330
E47F
100
AcDbEntity
  8
DEFPOINTS
 62
     0
100
AcDbPoint
 10
1372.499955
 20
4342.769183208611
 30
0.0
  0
ENDBLK
  5
E48C
330
E47F
100
AcDbEntity
  8
0
100
AcDbBlockEnd
  0
BLOCK
  5
E499
330
E48D
100
AcDbEntity
  8
0
100
AcDbBlockBegin
  2
*D3
 70
     1
 10
0.0
 20
0.0
 30
0.0
  3
*D3
  1

  0
LINE
  5
F628
330
E48D
100
AcDbEntity
  8
D-STR-DIM
370
    -2
100
AcDbLine
 10
1550.000025
 20
4342.769183208611
 30
0.0
 11
1352.499955
 21
4342.769183208611
 31
0.0
  0
LINE
  5
F629
330
E48D
100
AcDbEntity
  8
D-STR-DIM
370
    -2
100
AcDbLine
 10
1450.000025
 20
4312.769193208611
 30
0.0
 11
1352.499955
 21
4312.769193208611
 31
0.0
  0
LINE
  5
F62A
330
E48D
100
AcDbEntity
  8
D-STR-DIM
370
    -2
100
AcDbLine
 10
1372.499955
 20
4367.76918320861
 30
0.0
 11
1372.499955
 21
4392.769183208611
 31
0.0
  0
LINE
  5
F62B
330
E48D
100
AcDbEntity
  8
D-STR-DIM
370
    -2
100
AcDbLine
 10
1372.499955
 20
4287.76919320861
 30
0.0
 11
1372.499955
 21
4262.769193208611
 31
0.0
  0
MTEXT
  5
F62C
330
E48D
100
AcDbEntity
  8
D-STR-DIM
100
AcDbMText
 10
1409.35398347318
 20
4324.273961029035
 30
0.0
 40
30.0
 41
0.0
 71
     5
 72
     1
  1
30
 11
0.0000000000000001
 21
1.0
 31
0.0
 73
     1
 44
1.0
  0
LINE
  5
F62D
330
E48D
100
AcDbEntity
  8
D-STR-DIM
370
    -2
100
AcDbLine
 10
1372.499955
 20
4342.769183208611
 30
0.0
 11
1372.499955
 21
4312.769193208611
 31
0.0
  0
INSERT
  5
F62E
330
E48D
100
AcDbEntity
  8
D-STR-DIM
370
    -2
100
AcDbBlockReference
  2
_OPEN30
 10
1372.499955
 20
4342.769183208611
 30
0.0
 41
25.0
 42
25.0
 43
25.0
 50
270.0
  0
INSERT
  5
F62F
330
E48D
100
AcDbEntity
  8
D-STR-DIM
370
    -2
100
AcDbBlockReference
  2
_OPEN30
 10
1372.499955
 20
4312.769193208611
 30
0.0
 41
25.0
 42
25.0
 43
25.0
 50
90.0
  0
POINT
  5
F630
330
E48D
100
AcDbEntity
  8
DEFPOINTS
 62
     0
100
AcDbPoint
 10
1560.000025
 20
4342.769183208611
 30
0.0
  0
POINT
  5
F631
330
E48D
100
AcDbEntity
  8
DEFPOINTS
 62
     0
100
AcDbPoint
 10
1460.000025
 20
4312.769193208611
 30
0.0
  0
POINT
  5
F632
330
E48D
100
AcDbEntity
  8
DEFPOINTS
 62
     0
100
AcDbPoint
 10
1372.499955
 20
4312.769193208611
 30
0.0
  0
ENDBLK
  5
E49A
330
E48D
100
AcDbEntity
  8
0
100
AcDbBlockEnd
  0
BLOCK
  5
E4A5
330
E49B
100
AcDbEntity
  8
0
100
AcDbBlockBegin
  2
*D4
 70
     1
 10
0.0
 20
0.0
 30
0.0
  3
*D4
  1

  0
LINE
  5
F616
330
E49B
100
AcDbEntity
  8
D-STR-DIM
370
    -2
100
AcDbLine
 10
1469.99241262842
 20
4632.769226216009
 30
0.0
 11
1277.499955
 21
4632.769226216009
 31
0.0
  0
LINE
  5
F617
330
E49B
100
AcDbEntity
  8
D-STR-DIM
370
    -2
100
AcDbLine
 10
1450.000025
 20
4212.769183208611
 30
0.0
 11
1277.499955
 21
4212.769183208611
 31
0.0
  0
LINE
  5
F618
330
E49B
100
AcDbEntity
  8
D-STR-DIM
370
    -2
100
AcDbLine
 10
1297.499955
 20
4607.769226216009
 30
0.0
 11
1297.499955
 21
4237.769183208611
 31
0.0
  0
INSERT
  5
F619
330
E49B
100
AcDbEntity
  8
D-STR-DIM
370
    -2
100
AcDbBlockReference
  2
_OPEN30
 10
1297.499955
 20
4632.769226216009
 30
0.0
 41
25.0
 42
25.0
 43
25.0
 50
90.0
  0
INSERT
  5
F61A
330
E49B
100
AcDbEntity
  8
D-STR-DIM
370
    -2
100
AcDbBlockReference
  2
_OPEN30
 10
1297.499955
 20
4212.769183208611
 30
0.0
 41
25.0
 42
25.0
 43
25.0
 50
270.0
  0
MTEXT
  5
F61B
330
E49B
100
AcDbEntity
  8
D-STR-DIM
100
AcDbMText
 10
1272.499954999999
 20
4422.769204712309
 30
0.0
 40
30.0
 41
0.0
 71
     5
 72
     1
  1
420
 11
0.0000000000000001
 21
1.0
 31
0.0
 73
     1
 44
1.0
  0
POINT
  5
F61C
330
E49B
100
AcDbEntity
  8
DEFPOINTS
 62
     0
100
AcDbPoint
 10
1479.99241262842
 20
4632.769226216009
 30
0.0
  0
POINT
  5
F61D
330
E49B
100
AcDbEntity
  8
DEFPOINTS
 62
     0
100
AcDbPoint
 10
1460.000025
 20
4212.769183208611
 30
0.0
  0
POINT
  5
F61E
330
E49B
100
AcDbEntity
  8
DEFPOINTS
 62
     0
100
AcDbPoint
 10
1297.499955
 20
4212.769183208611
 30
0.0
  0
ENDBLK
  5
E4A6
330
E49B
100
AcDbEntity
  8
0
100
AcDbBlockEnd
  0
BLOCK
  5
E4B1
330
E4A7
100
AcDbEntity
  8
0
100
AcDbBlockBegin
  2
*D5
 70
     1
 10
0.0
 20
0.0
 30
0.0
  3
*D5
  1

  0
LINE
  5
F61F
330
E4A7
100
AcDbEntity
  8
D-STR-DIM
370
    -2
100
AcDbLine
 10
1450.000025
 20
4312.769193208611
 30
0.0
 11
1352.499955
 21
4312.769193208611
 31
0.0
  0
LINE
  5
F620
330
E4A7
100
AcDbEntity
  8
D-STR-DIM
370
    -2
100
AcDbLine
 10
1450.000025
 20
4212.769183208611
 30
0.0
 11
1352.499955
 21
4212.769183208611
 31
0.0
  0
LINE
  5
F621
330
E4A7
100
AcDbEntity
  8
D-STR-DIM
370
    -2
100
AcDbLine
 10
1372.499955
 20
4287.76919320861
 30
0.0
 11
1372.499955
 21
4237.769183208611
 31
0.0
  0
INSERT
  5
F622
330
E4A7
100
AcDbEntity
  8
D-STR-DIM
370
    -2
100
AcDbBlockReference
  2
_OPEN30
 10
1372.499955
 20
4312.769193208611
 30
0.0
 41
25.0
 42
25.0
 43
25.0
 50
90.0
  0
INSERT
  5
F623
330
E4A7
100
AcDbEntity
  8
D-STR-DIM
370
    -2
100
AcDbBlockReference
  2
_OPEN30
 10
1372.499955
 20
4212.769183208611
 30
0.0
 41
25.0
 42
25.0
 43
25.0
 50
270.0
  0
MTEXT
  5
F624
330
E4A7
100
AcDbEntity
  8
D-STR-DIM
100
AcDbMText
 10
1347.499954999999
 20
4262.76918820861
 30
0.0
 40
30.0
 41
0.0
 71
     5
 72
     1
  1
100
 11
0.0000000000000001
 21
1.0
 31
0.0
 73
     1
 44
1.0
  0
POINT
  5
F625
330
E4A7
100
AcDbEntity
  8
DEFPOINTS
 62
     0
100
AcDbPoint
 10
1460.000025
 20
4312.769193208611
 30
0.0
  0
POINT
  5
F626
330
E4A7
100
AcDbEntity
  8
DEFPOINTS
 62
     0
100
AcDbPoint
 10
1460.000025
 20
4212.769183208611
 30
0.0
  0
POINT
  5
F627
330
E4A7
100
AcDbEntity
  8
DEFPOINTS
 62
     0
100
AcDbPoint
 10
1372.499955
 20
4212.769183208611
 30
0.0
  0
ENDBLK
  5
E4B2
330
E4A7
100
AcDbEntity
  8
0
100
AcDbBlockEnd
  0
BLOCK
  5
E4BD
330
E4B3
100
AcDbEntity
  8
0
100
AcDbBlockBegin
  2
*D6
 70
     1
 10
0.0
 20
0.0
 30
0.0
  3
*D6
  1

  0
LINE
  5
F647
330
E4B3
100
AcDbEntity
  8
D-STR-DIM
370
    -2
100
AcDbLine
 10
1469.99241262842
 20
4632.769226216009
 30
0.0
 11
1352.499955
 21
4632.769226216009
 31
0.0
  0
LINE
  5
F648
330
E4B3
100
AcDbEntity
  8
D-STR-DIM
370
    -2
100
AcDbLine
 10
1509.99996494077
 20
4392.769250959991
 30
0.0
 11
1352.499955
 21
4392.769250959991
 31
0.0
  0
LINE
  5
F649
330
E4B3
100
AcDbEntity
  8
D-STR-DIM
370
    -2
100
AcDbLine
 10
1372.499955
 20
4607.769226216009
 30
0.0
 11
1372.499955
 21
4417.769250959991
 31
0.0
  0
INSERT
  5
F64A
330
E4B3
100
AcDbEntity
  8
D-STR-DIM
370
    -2
100
AcDbBlockReference
  2
_OPEN30
 10
1372.499955
 20
4632.769226216009
 30
0.0
 41
25.0
 42
25.0
 43
25.0
 50
90.0
  0
INSERT
  5
F64B
330
E4B3
100
AcDbEntity
  8
D-STR-DIM
370
    -2
100
AcDbBlockReference
  2
_OPEN30
 10
1372.499955
 20
4392.769250959991
 30
0.0
 41
25.0
 42
25.0
 43
25.0
 50
270.0
  0
MTEXT
  5
F64C
330
E4B3
100
AcDbEntity
  8
D-STR-DIM
100
AcDbMText
 10
1347.499954999999
 20
4512.769238588
 30
0.0
 40
30.0
 41
0.0
 71
     5
 72
     1
  1
240
 11
0.0000000000000001
 21
1.0
 31
0.0
 73
     1
 44
1.0
  0
POINT
  5
F64D
330
E4B3
100
AcDbEntity
  8
DEFPOINTS
 62
     0
100
AcDbPoint
 10
1479.99241262842
 20
4632.769226216009
 30
0.0
  0
POINT
  5
F64E
330
E4B3
100
AcDbEntity
  8
DEFPOINTS
 62
     0
100
AcDbPoint
 10
1519.99996494077
 20
4392.769250959991
 30
0.0
  0
POINT
  5
F64F
330
E4B3
100
AcDbEntity
  8
DEFPOINTS
 62
     0
100
AcDbPoint
 10
1372.499955
 20
4392.769250959991
 30
0.0
  0
ENDBLK
  5
E4BE
330
E4B3
100
AcDbEntity
  8
0
100
AcDbBlockEnd
  0
BLOCK
  5
E4C9
330
E4BF
100
AcDbEntity
  8
0
100
AcDbBlockBegin
  2
*D7
 70
     1
 10
0.0
 20
0.0
 30
0.0
  3
*D7
  1

  0
LINE
  5
F5EE
330
E4BF
100
AcDbEntity
  8
D-STR-DIM
370
    -2
100
AcDbLine
 10
1560.000025
 20
4202.769183208611
 30
0.0
 11
1560.000025
 21
4117.76918320861
 31
0.0
  0
LINE
  5
F5EF
330
E4BF
100
AcDbEntity
  8
D-STR-DIM
370
    -2
100
AcDbLine
 10
1799.999974999999
 20
4202.769183208611
 30
0.0
 11
1799.999974999999
 21
4117.76918320861
 31
0.0
  0
LINE
  5
F5F0
330
E4BF
100
AcDbEntity
  8
D-STR-DIM
370
    -2
100
AcDbLine
 10
1585.000025
 20
4137.769183208611
 30
0.0
 11
1774.999974999999
 21
4137.769183208611
 31
0.0
  0
INSERT
  5
F5F1
330
E4BF
100
AcDbEntity
  8
D-STR-DIM
370
    -2
100
AcDbBlockReference
  2
_OPEN30
 10
1560.000025
 20
4137.769183208611
 30
0.0
 41
25.0
 42
25.0
 43
25.0
 50
180.0
  0
INSERT
  5
F5F2
330
E4BF
100
AcDbEntity
  8
D-STR-DIM
370
    -2
100
AcDbBlockReference
  2
_OPEN30
 10
1799.999974999999
 20
4137.769183208611
 30
0.0
 41
25.0
 42
25.0
 43
25.0
  0
MTEXT
  5
F5F3
330
E4BF
100
AcDbEntity
  8
D-STR-DIM
100
AcDbMText
 10
1680.0
 20
4162.769183208611
 30
0.0
 40
30.0
 41
0.0
 71
     5
 72
     1
  1
240
 73
     1
 44
1.0
  0
POINT
  5
F5F4
330
E4BF
100
AcDbEntity
  8
DEFPOINTS
 62
     0
100
AcDbPoint
 10
1560.000025
 20
4212.769183208611
 30
0.0
  0
POINT
  5
F5F5
330
E4BF
100
AcDbEntity
  8
DEFPOINTS
 62
     0
100
AcDbPoint
 10
1799.999974999999
 20
4212.769183208611
 30
0.0
  0
POINT
  5
F5F6
330
E4BF
100
AcDbEntity
  8
DEFPOINTS
 62
     0
100
AcDbPoint
 10
1799.999974999999
 20
4137.769183208611
 30
0.0
  0
ENDBLK
  5
E4CA
330
E4BF
100
AcDbEntity
  8
0
100
AcDbBlockEnd
  0
BLOCK
  5
E4D5
330
E4CB
100
AcDbEntity
  8
0
100
AcDbBlockBegin
  2
*D8
 70
     1
 10
0.0
 20
0.0
 30
0.0
  3
*D8
  1

  0
LINE
  5
F5F7
330
E4CB
100
AcDbEntity
  8
D-STR-DIM
370
    -2
100
AcDbLine
 10
1460.000025
 20
4202.769183208611
 30
0.0
 11
1460.000025
 21
4042.769183208611
 31
0.0
  0
LINE
  5
F5F8
330
E4CB
100
AcDbEntity
  8
D-STR-DIM
370
    -2
100
AcDbLine
 10
1899.999974999999
 20
4202.769183208611
 30
0.0
 11
1899.999974999999
 21
4042.769183208611
 31
0.0
  0
LINE
  5
F5F9
330
E4CB
100
AcDbEntity
  8
D-STR-DIM
370
    -2
100
AcDbLine
 10
1485.000025
 20
4062.769183208611
 30
0.0
 11
1874.999974999999
 21
4062.769183208611
 31
0.0
  0
INSERT
  5
F5FA
330
E4CB
100
AcDbEntity
  8
D-STR-DIM
370
    -2
100
AcDbBlockReference
  2
_OPEN30
 10
1460.000025
 20
4062.769183208611
 30
0.0
 41
25.0
 42
25.0
 43
25.0
 50
180.0
  0
INSERT
  5
F5FB
330
E4CB
100
AcDbEntity
  8
D-STR-DIM
370
    -2
100
AcDbBlockReference
  2
_OPEN30
 10
1899.999974999999
 20
4062.769183208611
 30
0.0
 41
25.0
 42
25.0
 43
25.0
  0
MTEXT
  5
F5FC
330
E4CB
100
AcDbEntity
  8
D-STR-DIM
100
AcDbMText
 10
1680.0
 20
4087.769183208611
 30
0.0
 40
30.0
 41
0.0
 71
     5
 72
     1
  1
440
 73
     1
 44
1.0
  0
POINT
  5
F5FD
330
E4CB
100
AcDbEntity
  8
DEFPOINTS
 62
     0
100
AcDbPoint
 10
1460.000025
 20
4212.769183208611
 30
0.0
  0
POINT
  5
F5FE
330
E4CB
100
AcDbEntity
  8
DEFPOINTS
 62
     0
100
AcDbPoint
 10
1899.999974999999
 20
4212.769183208611
 30
0.0
  0
POINT
  5
F5FF
330
E4CB
100
AcDbEntity
  8
DEFPOINTS
 62
     0
100
AcDbPoint
 10
1899.999974999999
 20
4062.769183208611
 30
0.0
  0
ENDBLK
  5
E4D6
330
E4CB
100
AcDbEntity
  8
0
100
AcDbBlockEnd
  0
BLOCK
  5
E4E1
330
E4D7
100
AcDbEntity
  8
0
100
AcDbBlockBegin
  2
*D9
 70
     1
 10
0.0
 20
0.0
 30
0.0
  3
*D9
  1

  0
LINE
  5
F633
330
E4D7
100
AcDbEntity
  8
D-STR-DIM
370
    -2
100
AcDbLine
 10
1460.000025
 20
4202.769183208611
 30
0.0
 11
1460.000025
 21
4117.76918320861
 31
0.0
  0
LINE
  5
F634
330
E4D7
100
AcDbEntity
  8
D-STR-DIM
370
    -2
100
AcDbLine
 10
1560.000025
 20
4202.769183208611
 30
0.0
 11
1560.000025
 21
4117.76918320861
 31
0.0
  0
LINE
  5
F635
330
E4D7
100
AcDbEntity
  8
D-STR-DIM
370
    -2
100
AcDbLine
 10
1485.000025
 20
4137.769183208611
 30
0.0
 11
1535.000025
 21
4137.769183208611
 31
0.0
  0
INSERT
  5
F636
330
E4D7
100
AcDbEntity
  8
D-STR-DIM
370
    -2
100
AcDbBlockReference
  2
_OPEN30
 10
1460.000025
 20
4137.769183208611
 30
0.0
 41
25.0
 42
25.0
 43
25.0
 50
180.0
  0
INSERT
  5
F637
330
E4D7
100
AcDbEntity
  8
D-STR-DIM
370
    -2
100
AcDbBlockReference
  2
_OPEN30
 10
1560.000025
 20
4137.769183208611
 30
0.0
 41
25.0
 42
25.0
 43
25.0
  0
MTEXT
  5
F638
330
E4D7
100
AcDbEntity
  8
D-STR-DIM
100
AcDbMText
 10
1510.000025
 20
4162.769183208611
 30
0.0
 40
30.0
 41
0.0
 71
     5
 72
     1
  1
100
 73
     1
 44
1.0
  0
POINT
  5
F639
330
E4D7
100
AcDbEntity
  8
DEFPOINTS
 62
     0
100
AcDbPoint
 10
1460.000025
 20
4212.769183208611
 30
0.0
  0
POINT
  5
F63A
330
E4D7
100
AcDbEntity
  8
DEFPOINTS
 62
     0
100
AcDbPoint
 10
1560.000025
 20
4212.769183208611
 30
0.0
  0
POINT
  5
F63B
330
E4D7
100
AcDbEntity
  8
DEFPOINTS
 62
     0
100
AcDbPoint
 10
1560.000025
 20
4137.769183208611
 30
0.0
  0
ENDBLK
  5
E4E2
330
E4D7
100
AcDbEntity
  8
0
100
AcDbBlockEnd
  0
BLOCK
  5
E4ED
330
E4E3
100
AcDbEntity
  8
0
100
AcDbBlockBegin
  2
*D10
 70
     1
 10
0.0
 20
0.0
 30
0.0
  3
*D10
  1

  0
LINE
  5
F671
330
E4E3
100
AcDbEntity
  8
D-STR-DIM
370
    -2
100
AcDbLine
 10
1799.999974999999
 20
4202.769183208611
 30
0.0
 11
1799.999974999999
 21
4117.76918320861
 31
0.0
  0
LINE
  5
F672
330
E4E3
100
AcDbEntity
  8
D-STR-DIM
370
    -2
100
AcDbLine
 10
1899.999974999999
 20
4202.769183208611
 30
0.0
 11
1899.999974999999
 21
4117.76918320861
 31
0.0
  0
LINE
  5
F673
330
E4E3
100
AcDbEntity
  8
D-STR-DIM
370
    -2
100
AcDbLine
 10
1824.999974999999
 20
4137.769183208611
 30
0.0
 11
1874.999974999999
 21
4137.769183208611
 31
0.0
  0
INSERT
  5
F674
330
E4E3
100
AcDbEntity
  8
D-STR-DIM
370
    -2
100
AcDbBlockReference
  2
_OPEN30
 10
1799.999974999999
 20
4137.769183208611
 30
0.0
 41
25.0
 42
25.0
 43
25.0
 50
180.0
  0
INSERT
  5
F675
330
E4E3
100
AcDbEntity
  8
D-STR-DIM
370
    -2
100
AcDbBlockReference
  2
_OPEN30
 10
1899.999974999999
 20
4137.769183208611
 30
0.0
 41
25.0
 42
25.0
 43
25.0
  0
MTEXT
  5
F676
330
E4E3
100
AcDbEntity
  8
D-STR-DIM
100
AcDbMText
 10
1849.999974999999
 20
4162.769183208611
 30
0.0
 40
30.0
 41
0.0
 71
     5
 72
     1
  1
100
 73
     1
 44
1.0
  0
POINT
  5
F677
330
E4E3
100
AcDbEntity
  8
DEFPOINTS
 62
     0
100
AcDbPoint
 10
1799.999974999999
 20
4212.769183208611
 30
0.0
  0
POINT
  5
F678
330
E4E3
100
AcDbEntity
  8
DEFPOINTS
 62
     0
100
AcDbPoint
 10
1899.999974999999
 20
4212.769183208611
 30
0.0
  0
POINT
  5
F679
330
E4E3
100
AcDbEntity
  8
DEFPOINTS
 62
     0
100
AcDbPoint
 10
1899.999974999999
 20
4137.769183208611
 30
0.0
  0
ENDBLK
  5
E4EE
330
E4E3
100
AcDbEntity
  8
0
100
AcDbBlockEnd
  0
BLOCK
  5
E564
330
E55A
100
AcDbEntity
  8
0
100
AcDbBlockBegin
  2
*D11
 70
     1
 10
0.0
 20
0.0
 30
0.0
  3
*D11
  1

  0
LINE
  5
F5DC
330
E55A
100
AcDbEntity
  8
D-STR-DIM
370
    -2
100
AcDbLine
 10
1560.000037628009
 20
4642.769226216009
 30
0.0
 11
1560.000037628009
 21
4727.769226216008
 31
0.0
  0
LINE
  5
F5DD
330
E55A
100
AcDbEntity
  8
D-STR-DIM
370
    -2
100
AcDbLine
 10
1799.999987628009
 20
4642.769226216009
 30
0.0
 11
1799.999987628009
 21
4727.769226216008
 31
0.0
  0
LINE
  5
F5DE
330
E55A
100
AcDbEntity
  8
D-STR-DIM
370
    -2
100
AcDbLine
 10
1585.000037628009
 20
4707.769226216009
 30
0.0
 11
1774.999987628008
 21
4707.769226216009
 31
0.0
  0
INSERT
  5
F5DF
330
E55A
100
AcDbEntity
  8
D-STR-DIM
370
    -2
100
AcDbBlockReference
  2
_OPEN30
 10
1560.000037628009
 20
4707.769226216009
 30
0.0
 41
25.0
 42
25.0
 43
25.0
 50
180.0
  0
INSERT
  5
F5E0
330
E55A
100
AcDbEntity
  8
D-STR-DIM
370
    -2
100
AcDbBlockReference
  2
_OPEN30
 10
1799.999987628009
 20
4707.769226216009
 30
0.0
 41
25.0
 42
25.0
 43
25.0
  0
MTEXT
  5
F5E1
330
E55A
100
AcDbEntity
  8
D-STR-DIM
100
AcDbMText
 10
1680.000012628009
 20
4732.769226216009
 30
0.0
 40
30.0
 41
0.0
 71
     5
 72
     1
  1
240
 73
     1
 44
1.0
  0
POINT
  5
F5E2
330
E55A
100
AcDbEntity
  8
DEFPOINTS
 62
     0
100
AcDbPoint
 10
1560.000037628009
 20
4632.769226216009
 30
0.0
  0
POINT
  5
F5E3
330
E55A
100
AcDbEntity
  8
DEFPOINTS
 62
     0
100
AcDbPoint
 10
1799.999987628009
 20
4632.769226216009
 30
0.0
  0
POINT
  5
F5E4
330
E55A
100
AcDbEntity
  8
DEFPOINTS
 62
     0
100
AcDbPoint
 10
1799.999987628009
 20
4707.769226216009
 30
0.0
  0
ENDBLK
  5
E565
330
E55A
100
AcDbEntity
  8
0
100
AcDbBlockEnd
  0
BLOCK
  5
E570
330
E566
100
AcDbEntity
  8
0
100
AcDbBlockBegin
  2
*D12
 70
     1
 10
0.0
 20
0.0
 30
0.0
  3
*D12
  1

  0
LINE
  5
F5E5
330
E566
100
AcDbEntity
  8
D-STR-DIM
370
    -2
100
AcDbLine
 10
1515.000067628008
 20
4642.769226216009
 30
0.0
 11
1515.000067628008
 21
4802.769226216009
 31
0.0
  0
LINE
  5
F5E6
330
E566
100
AcDbEntity
  8
D-STR-DIM
370
    -2
100
AcDbLine
 10
1845.000047628009
 20
4642.769226216009
 30
0.0
 11
1845.000047628009
 21
4802.769226216009
 31
0.0
  0
LINE
  5
F5E7
330
E566
100
AcDbEntity
  8
D-STR-DIM
370
    -2
100
AcDbLine
 10
1540.000067628009
 20
4782.769226216009
 30
0.0
 11
1820.000047628009
 21
4782.769226216009
 31
0.0
  0
INSERT
  5
F5E8
330
E566
100
AcDbEntity
  8
D-STR-DIM
370
    -2
100
AcDbBlockReference
  2
_OPEN30
 10
1515.000067628008
 20
4782.769226216009
 30
0.0
 41
25.0
 42
25.0
 43
25.0
 50
180.0
  0
INSERT
  5
F5E9
330
E566
100
AcDbEntity
  8
D-STR-DIM
370
    -2
100
AcDbBlockReference
  2
_OPEN30
 10
1845.000047628009
 20
4782.769226216009
 30
0.0
 41
25.0
 42
25.0
 43
25.0
  0
MTEXT
  5
F5EA
330
E566
100
AcDbEntity
  8
D-STR-DIM
100
AcDbMText
 10
1680.000057628009
 20
4807.769226216009
 30
0.0
 40
30.0
 41
0.0
 71
     5
 72
     1
  1
330
 73
     1
 44
1.0
  0
POINT
  5
F5EB
330
E566
100
AcDbEntity
  8
DEFPOINTS
 62
     0
100
AcDbPoint
 10
1515.000067628008
 20
4632.769226216009
 30
0.0
  0
POINT
  5
F5EC
330
E566
100
AcDbEntity
  8
DEFPOINTS
 62
     0
100
AcDbPoint
 10
1845.000047628009
 20
4632.769226216009
 30
0.0
  0
POINT
  5
F5ED
330
E566
100
AcDbEntity
  8
DEFPOINTS
 62
     0
100
AcDbPoint
 10
1845.000047628009
 20
4782.769226216009
 30
0.0
  0
ENDBLK
  5
E571
330
E566
100
AcDbEntity
  8
0
100
AcDbBlockEnd
  0
BLOCK
  5
E57E
330
E572
100
AcDbEntity
  8
0
100
AcDbBlockBegin
  2
*D13
 70
     1
 10
0.0
 20
0.0
 30
0.0
  3
*D13
  1

  0
LINE
  5
F666
330
E572
100
AcDbEntity
  8
D-STR-DIM
370
    -2
100
AcDbLine
 10
1799.999987628009
 20
4642.769226216009
 30
0.0
 11
1799.999987628009
 21
4727.769226216008
 31
0.0
  0
LINE
  5
F667
330
E572
100
AcDbEntity
  8
D-STR-DIM
370
    -2
100
AcDbLine
 10
1845.000047628009
 20
4642.769226216009
 30
0.0
 11
1845.000047628009
 21
4727.769226216008
 31
0.0
  0
LINE
  5
F668
330
E572
100
AcDbEntity
  8
D-STR-DIM
370
    -2
100
AcDbLine
 10
1774.999987628008
 20
4707.769226216009
 30
0.0
 11
1749.999987628009
 21
4707.769226216009
 31
0.0
  0
LINE
  5
F669
330
E572
100
AcDbEntity
  8
D-STR-DIM
370
    -2
100
AcDbLine
 10
1870.000047628009
 20
4707.769226216009
 30
0.0
 11
1895.000047628009
 21
4707.769226216009
 31
0.0
  0
MTEXT
  5
F66A
330
E572
100
AcDbEntity
  8
D-STR-DIM
100
AcDbMText
 10
1819.796343502638
 20
4732.314057242326
 30
0.0
 40
30.0
 41
0.0
 71
     5
 72
     1
  1
45
 73
     1
 44
1.0
  0
LINE
  5
F66B
330
E572
100
AcDbEntity
  8
D-STR-DIM
370
    -2
100
AcDbLine
 10
1799.999987628009
 20
4707.769226216009
 30
0.0
 11
1845.000047628009
 21
4707.769226216009
 31
0.0
  0
INSERT
  5
F66C
330
E572
100
AcDbEntity
  8
D-STR-DIM
370
    -2
100
AcDbBlockReference
  2
_OPEN30
 10
1799.999987628009
 20
4707.769226216009
 30
0.0
 41
25.0
 42
25.0
 43
25.0
  0
INSERT
  5
F66D
330
E572
100
AcDbEntity
  8
D-STR-DIM
370
    -2
100
AcDbBlockReference
  2
_OPEN30
 10
1845.000047628009
 20
4707.769226216009
 30
0.0
 41
25.0
 42
25.0
 43
25.0
 50
180.0
  0
POINT
  5
F66E
330
E572
100
AcDbEntity
  8
DEFPOINTS
 62
     0
100
AcDbPoint
 10
1799.999987628009
 20
4632.769226216009
 30
0.0
  0
POINT
  5
F66F
330
E572
100
AcDbEntity
  8
DEFPOINTS
 62
     0
100
AcDbPoint
 10
1845.000047628009
 20
4632.769226216009
 30
0.0
  0
POINT
  5
F670
330
E572
100
AcDbEntity
  8
DEFPOINTS
 62
     0
100
AcDbPoint
 10
1845.000047628009
 20
4707.769226216009
 30
0.0
  0
ENDBLK
  5
E57F
330
E572
100
AcDbEntity
  8
0
100
AcDbBlockEnd
  0
BLOCK
  5
E58C
330
E580
100
AcDbEntity
  8
0
100
AcDbBlockBegin
  2
*D14
 70
     1
 10
0.0
 20
0.0
 30
0.0
  3
*D14
  1

  0
LINE
  5
F60B
330
E580
100
AcDbEntity
  8
D-STR-DIM
370
    -2
100
AcDbLine
 10
1515.000067628008
 20
4642.769226216009
 30
0.0
 11
1515.000067628008
 21
4727.769226216008
 31
0.0
  0
LINE
  5
F60C
330
E580
100
AcDbEntity
  8
D-STR-DIM
370
    -2
100
AcDbLine
 10
1560.000037628009
 20
4642.769226216009
 30
0.0
 11
1560.000037628009
 21
4727.769226216008
 31
0.0
  0
LINE
  5
F60D
330
E580
100
AcDbEntity
  8
D-STR-DIM
370
    -2
100
AcDbLine
 10
1490.000067628009
 20
4707.769226216009
 30
0.0
 11
1465.000067628008
 21
4707.769226216009
 31
0.0
  0
LINE
  5
F60E
330
E580
100
AcDbEntity
  8
D-STR-DIM
370
    -2
100
AcDbLine
 10
1585.000037628009
 20
4707.769226216009
 30
0.0
 11
1610.000037628009
 21
4707.769226216009
 31
0.0
  0
MTEXT
  5
F60F
330
E580
100
AcDbEntity
  8
D-STR-DIM
100
AcDbMText
 10
1536.589889496909
 20
4732.980318546793
 30
0.0
 40
30.0
 41
0.0
 71
     5
 72
     1
  1
45
 73
     1
 44
1.0
  0
LINE
  5
F610
330
E580
100
AcDbEntity
  8
D-STR-DIM
370
    -2
100
AcDbLine
 10
1515.000067628008
 20
4707.769226216009
 30
0.0
 11
1560.000037628009
 21
4707.769226216009
 31
0.0
  0
INSERT
  5
F611
330
E580
100
AcDbEntity
  8
D-STR-DIM
370
    -2
100
AcDbBlockReference
  2
_OPEN30
 10
1515.000067628008
 20
4707.769226216009
 30
0.0
 41
25.0
 42
25.0
 43
25.0
  0
INSERT
  5
F612
330
E580
100
AcDbEntity
  8
D-STR-DIM
370
    -2
100
AcDbBlockReference
  2
_OPEN30
 10
1560.000037628009
 20
4707.769226216009
 30
0.0
 41
25.0
 42
25.0
 43
25.0
 50
180.0
  0
POINT
  5
F613
330
E580
100
AcDbEntity
  8
DEFPOINTS
 62
     0
100
AcDbPoint
 10
1515.000067628008
 20
4632.769226216009
 30
0.0
  0
POINT
  5
F614
330
E580
100
AcDbEntity
  8
DEFPOINTS
 62
     0
100
AcDbPoint
 10
1560.000037628009
 20
4632.769226216009
 30
0.0
  0
POINT
  5
F615
330
E580
100
AcDbEntity
  8
DEFPOINTS
 62
     0
100
AcDbPoint
 10
1560.000037628009
 20
4707.769226216009
 30
0.0
  0
ENDBLK
  5
E58D
330
E580
100
AcDbEntity
  8
0
100
AcDbBlockEnd
  0
BLOCK
  5
E5C3
330
E5B7
100
AcDbEntity
  8
0
100
AcDbBlockBegin
  2
*D15
 70
     1
 10
0.0
 20
0.0
 30
0.0
  3
*D15
  1

  0
LINE
  5
F600
330
E5B7
100
AcDbEntity
  8
D-STR-DIM
370
    -2
100
AcDbLine
 10
1480.007602883121
 20
4642.040104127787
 30
0.0
 11
1480.007602883121
 21
4802.769226216009
 31
0.0
  0
LINE
  5
F601
330
E5B7
100
AcDbEntity
  8
D-STR-DIM
370
    -2
100
AcDbLine
 10
1515.0000388834
 20
4642.769226216009
 30
0.0
 11
1515.0000388834
 21
4802.769226216009
 31
0.0
  0
LINE
  5
F602
330
E5B7
100
AcDbEntity
  8
D-STR-DIM
370
    -2
100
AcDbLine
 10
1455.007602883121
 20
4782.769226216009
 30
0.0
 11
1430.007602883121
 21
4782.769226216009
 31
0.0
  0
LINE
  5
F603
330
E5B7
100
AcDbEntity
  8
D-STR-DIM
370
    -2
100
AcDbLine
 10
1540.0000388834
 20
4782.769226216009
 30
0.0
 11
1565.0000388834
 21
4782.769226216009
 31
0.0
  0
MTEXT
  5
F604
330
E5B7
100
AcDbEntity
  8
D-STR-DIM
100
AcDbMText
 10
1497.503820883261
 20
4807.769226216009
 30
0.0
 40
30.0
 41
0.0
 71
     5
 72
     1
  1
35
 73
     1
 44
1.0
  0
LINE
  5
F605
330
E5B7
100
AcDbEntity
  8
D-STR-DIM
370
    -2
100
AcDbLine
 10
1480.007602883121
 20
4782.769226216009
 30
0.0
 11
1515.0000388834
 21
4782.769226216009
 31
0.0
  0
INSERT
  5
F606
330
E5B7
100
AcDbEntity
  8
D-STR-DIM
370
    -2
100
AcDbBlockReference
  2
_OPEN30
 10
1480.007602883121
 20
4782.769226216009
 30
0.0
 41
25.0
 42
25.0
 43
25.0
  0
INSERT
  5
F607
330
E5B7
100
AcDbEntity
  8
D-STR-DIM
370
    -2
100
AcDbBlockReference
  2
_OPEN30
 10
1515.0000388834
 20
4782.769226216009
 30
0.0
 41
25.0
 42
25.0
 43
25.0
 50
180.0
  0
POINT
  5
F608
330
E5B7
100
AcDbEntity
  8
DEFPOINTS
 62
     0
100
AcDbPoint
 10
1480.007602883121
 20
4632.040104127788
 30
0.0
  0
POINT
  5
F609
330
E5B7
100
AcDbEntity
  8
DEFPOINTS
 62
     0
100
AcDbPoint
 10
1515.0000388834
 20
4632.769226216009
 30
0.0
  0
POINT
  5
F60A
330
E5B7
100
AcDbEntity
  8
DEFPOINTS
 62
     0
100
AcDbPoint
 10
1515.0000388834
 20
4782.769226216009
 30
0.0
  0
ENDBLK
  5
E5C4
330
E5B7
100
AcDbEntity
  8
0
100
AcDbBlockEnd
  0
BLOCK
  5
E5DF
330
E5D3
100
AcDbEntity
  8
0
100
AcDbBlockBegin
  2
*D16
 70
     1
 10
0.0
 20
0.0
 30
0.0
  3
*D16
  1

  0
LINE
  5
F65B
330
E5D3
100
AcDbEntity
  8
D-STR-DIM
370
    -2
100
AcDbLine
 10
1844.999961116599
 20
4642.769226216009
 30
0.0
 11
1844.999961116599
 21
4802.769226216017
 31
0.0
  0
LINE
  5
F65C
330
E5D3
100
AcDbEntity
  8
D-STR-DIM
370
    -2
100
AcDbLine
 10
1880.00758737158
 20
4642.769226216014
 30
0.0
 11
1880.00758737158
 21
4802.769226216017
 31
0.0
  0
LINE
  5
F65D
330
E5D3
100
AcDbEntity
  8
D-STR-DIM
370
    -2
100
AcDbLine
 10
1819.999961116598
 20
4782.769226216016
 30
0.0
 11
1794.999961116598
 21
4782.769226216016
 31
0.0
  0
LINE
  5
F65E
330
E5D3
100
AcDbEntity
  8
D-STR-DIM
370
    -2
100
AcDbLine
 10
1905.00758737158
 20
4782.769226216016
 30
0.0
 11
1930.00758737158
 21
4782.769226216016
 31
0.0
  0
MTEXT
  5
F65F
330
E5D3
100
AcDbEntity
  8
D-STR-DIM
100
AcDbMText
 10
1862.503774244089
 20
4807.769226216016
 30
0.0
 40
30.0
 41
0.0
 71
     5
 72
     1
  1
35
 73
     1
 44
1.0
  0
LINE
  5
F660
330
E5D3
100
AcDbEntity
  8
D-STR-DIM
370
    -2
100
AcDbLine
 10
1844.999961116599
 20
4782.769226216016
 30
0.0
 11
1880.00758737158
 21
4782.769226216016
 31
0.0
  0
INSERT
  5
F661
330
E5D3
100
AcDbEntity
  8
D-STR-DIM
370
    -2
100
AcDbBlockReference
  2
_OPEN30
 10
1844.999961116599
 20
4782.769226216016
 30
0.0
 41
25.0
 42
25.0
 43
25.0
  0
INSERT
  5
F662
330
E5D3
100
AcDbEntity
  8
D-STR-DIM
370
    -2
100
AcDbBlockReference
  2
_OPEN30
 10
1880.00758737158
 20
4782.769226216016
 30
0.0
 41
25.0
 42
25.0
 43
25.0
 50
180.0
  0
POINT
  5
F663
330
E5D3
100
AcDbEntity
  8
DEFPOINTS
 62
     0
100
AcDbPoint
 10
1844.999961116599
 20
4632.769226216009
 30
0.0
  0
POINT
  5
F664
330
E5D3
100
AcDbEntity
  8
DEFPOINTS
 62
     0
100
AcDbPoint
 10
1880.00758737158
 20
4632.769226216015
 30
0.0
  0
POINT
  5
F665
330
E5D3
100
AcDbEntity
  8
DEFPOINTS
 62
     0
100
AcDbPoint
 10
1880.00758737158
 20
4782.769226216016
 30
0.0
  0
ENDBLK
  5
E5E0
330
E5D3
100
AcDbEntity
  8
0
100
AcDbBlockEnd
  0
BLOCK
  5
E736
330
E72A
100
AcDbEntity
  8
0
100
AcDbBlockBegin
  2
*D17
 70
     1
 10
0.0
 20
0.0
 30
0.0
  3
*D17
  1

  0
LINE
  5
F63C
330
E72A
100
AcDbEntity
  8
D-STR-DIM
370
    -2
100
AcDbLine
 10
1519.980504723786
 20
4402.769271959991
 30
0.0
 11
1519.980504723786
 21
4483.080334590253
 31
0.0
  0
LINE
  5
F63D
330
E72A
100
AcDbEntity
  8
D-STR-DIM
370
    -2
100
AcDbLine
 10
1570.000068508505
 20
4402.769271959991
 30
0.0
 11
1570.000068508505
 21
4483.080334590253
 31
0.0
  0
LINE
  5
F63E
330
E72A
100
AcDbEntity
  8
D-STR-DIM
370
    -2
100
AcDbLine
 10
1494.980504723786
 20
4463.080334590253
 30
0.0
 11
1469.980504723786
 21
4463.080334590253
 31
0.0
  0
LINE
  5
F63F
330
E72A
100
AcDbEntity
  8
D-STR-DIM
370
    -2
100
AcDbLine
 10
1595.000068508505
 20
4463.080334590253
 30
0.0
 11
1620.000068508505
 21
4463.080334590253
 31
0.0
  0
MTEXT
  5
F640
330
E72A
100
AcDbEntity
  8
D-STR-DIM
100
AcDbMText
 10
1545.261065734562
 20
4487.862185698038
 30
0.0
 40
30.0
 41
0.0
 71
     5
 72
     1
  1
50
 73
     1
 44
1.0
  0
LINE
  5
F641
330
E72A
100
AcDbEntity
  8
D-STR-DIM
370
    -2
100
AcDbLine
 10
1519.980504723786
 20
4463.080334590253
 30
0.0
 11
1570.000068508505
 21
4463.080334590253
 31
0.0
  0
INSERT
  5
F642
330
E72A
100
AcDbEntity
  8
D-STR-DIM
370
    -2
100
AcDbBlockReference
  2
_OPEN30
 10
1519.980504723786
 20
4463.080334590253
 30
0.0
 41
25.0
 42
25.0
 43
25.0
  0
INSERT
  5
F643
330
E72A
100
AcDbEntity
  8
D-STR-DIM
370
    -2
100
AcDbBlockReference
  2
_OPEN30
 10
1570.000068508505
 20
4463.080334590253
 30
0.0
 41
25.0
 42
25.0
 43
25.0
 50
180.0
  0
POINT
  5
F644
330
E72A
100
AcDbEntity
  8
DEFPOINTS
 62
     0
100
AcDbPoint
 10
1519.980504723786
 20
4392.76927195999
 30
0.0
  0
POINT
  5
F645
330
E72A
100
AcDbEntity
  8
DEFPOINTS
 62
     0
100
AcDbPoint
 10
1570.000068508505
 20
4392.76927195999
 30
0.0
  0
POINT
  5
F646
330
E72A
100
AcDbEntity
  8
DEFPOINTS
 62
     0
100
AcDbPoint
 10
1570.000068508505
 20
4463.080334590253
 30
0.0
  0
ENDBLK
  5
E737
330
E72A
100
AcDbEntity
  8
0
100
AcDbBlockEnd
  0
BLOCK
  5
E742
330
E738
100
AcDbEntity
  8
0
100
AcDbBlockBegin
  2
*D18
 70
     1
 10
0.0
 20
0.0
 30
0.0
  3
*D18
  1

  0
LINE
  5
F5D3
330
E738
100
AcDbEntity
  8
D-STR-DIM
370
    -2
100
AcDbLine
 10
1569.999979459923
 20
4402.769141600427
 30
0.0
 11
1569.999979459923
 21
4483.080334590253
 31
0.0
  0
LINE
  5
F5D4
330
E738
100
AcDbEntity
  8
D-STR-DIM
370
    -2
100
AcDbLine
 10
1790.000020540076
 20
4402.769141600427
 30
0.0
 11
1790.000020540076
 21
4483.080334590253
 31
0.0
  0
LINE
  5
F5D5
330
E738
100
AcDbEntity
  8
D-STR-DIM
370
    -2
100
AcDbLine
 10
1594.999979459923
 20
4463.080334590253
 30
0.0
 11
1765.000020540076
 21
4463.080334590253
 31
0.0
  0
INSERT
  5
F5D6
330
E738
100
AcDbEntity
  8
D-STR-DIM
370
    -2
100
AcDbBlockReference
  2
_OPEN30
 10
1569.999979459923
 20
4463.080334590253
 30
0.0
 41
25.0
 42
25.0
 43
25.0
 50
180.0
  0
INSERT
  5
F5D7
330
E738
100
AcDbEntity
  8
D-STR-DIM
370
    -2
100
AcDbBlockReference
  2
_OPEN30
 10
1790.000020540076
 20
4463.080334590253
 30
0.0
 41
25.0
 42
25.0
 43
25.0
  0
MTEXT
  5
F5D8
330
E738
100
AcDbEntity
  8
D-STR-DIM
100
AcDbMText
 10
1679.999999999999
 20
4488.080334590253
 30
0.0
 40
30.0
 41
0.0
 71
     5
 72
     1
  1
220
 73
     1
 44
1.0
  0
POINT
  5
F5D9
330
E738
100
AcDbEntity
  8
DEFPOINTS
 62
     0
100
AcDbPoint
 10
1569.999979459923
 20
4392.769141600427
 30
0.0
  0
POINT
  5
F5DA
330
E738
100
AcDbEntity
  8
DEFPOINTS
 62
     0
100
AcDbPoint
 10
1790.000020540076
 20
4392.769141600427
 30
0.0
  0
POINT
  5
F5DB
330
E738
100
AcDbEntity
  8
DEFPOINTS
 62
     0
100
AcDbPoint
 10
1790.000020540076
 20
4463.080334590253
 30
0.0
  0
ENDBLK
  5
E743
330
E738
100
AcDbEntity
  8
0
100
AcDbBlockEnd
  0
BLOCK
  5
E750
330
E744
100
AcDbEntity
  8
0
100
AcDbBlockBegin
  2
*D19
 70
     1
 10
0.0
 20
0.0
 30
0.0
  3
*D19
  1

  0
LINE
  5
F67A
330
E744
100
AcDbEntity
  8
D-STR-DIM
370
    -2
100
AcDbLine
 10
1790.000020540076
 20
4402.769141600427
 30
0.0
 11
1790.000020540076
 21
4483.080334590253
 31
0.0
  0
LINE
  5
F67B
330
E744
100
AcDbEntity
  8
D-STR-DIM
370
    -2
100
AcDbLine
 10
1839.999995595237
 20
4402.769271959991
 30
0.0
 11
1839.999995595237
 21
4483.080334590253
 31
0.0
  0
LINE
  5
F67C
330
E744
100
AcDbEntity
  8
D-STR-DIM
370
    -2
100
AcDbLine
 10
1765.000020540076
 20
4463.080334590253
 30
0.0
 11
1740.000020540076
 21
4463.080334590253
 31
0.0
  0
LINE
  5
F67D
330
E744
100
AcDbEntity
  8
D-STR-DIM
370
    -2
100
AcDbLine
 10
1864.999995595237
 20
4463.080334590253
 30
0.0
 11
1889.999995595237
 21
4463.080334590253
 31
0.0
  0
MTEXT
  5
F67E
330
E744
100
AcDbEntity
  8
D-STR-DIM
100
AcDbMText
 10
1818.859307556916
 20
4488.722995197393
 30
0.0
 40
30.0
 41
0.0
 71
     5
 72
     1
  1
50
 73
     1
 44
1.0
  0
LINE
  5
F67F
330
E744
100
AcDbEntity
  8
D-STR-DIM
370
    -2
100
AcDbLine
 10
1790.000020540076
 20
4463.080334590253
 30
0.0
 11
1839.999995595237
 21
4463.080334590253
 31
0.0
  0
INSERT
  5
F680
330
E744
100
AcDbEntity
  8
D-STR-DIM
370
    -2
100
AcDbBlockReference
  2
_OPEN30
 10
1790.000020540076
 20
4463.080334590253
 30
0.0
 41
25.0
 42
25.0
 43
25.0
  0
INSERT
  5
F681
330
E744
100
AcDbEntity
  8
D-STR-DIM
370
    -2
100
AcDbBlockReference
  2
_OPEN30
 10
1839.999995595237
 20
4463.080334590253
 30
0.0
 41
25.0
 42
25.0
 43
25.0
 50
180.0
  0
POINT
  5
F682
330
E744
100
AcDbEntity
  8
DEFPOINTS
 62
     0
100
AcDbPoint
 10
1790.000020540076
 20
4392.769141600427
 30
0.0
  0
POINT
  5
F683
330
E744
100
AcDbEntity
  8
DEFPOINTS
 62
     0
100
AcDbPoint
 10
1839.999995595237
 20
4392.76927195999
 30
0.0
  0
POINT
  5
F684
330
E744
100
AcDbEntity
  8
DEFPOINTS
 62
     0
100
AcDbPoint
 10
1839.999995595237
 20
4463.080334590253
 30
0.0
  0
ENDBLK
  5
E751
330
E744
100
AcDbEntity
  8
0
100
AcDbBlockEnd
  0
BLOCK
  5
E7B6
330
E7AC
100
AcDbEntity
  8
0
100
AcDbBlockBegin
  2
*D20
 70
     1
 10
0.0
 20
0.0
 30
0.0
  3
*D20
  1

  0
LINE
  5
F69B
330
E7AC
100
AcDbEntity
  8
D-STR-DIM
370
    -2
100
AcDbLine
 10
3104.974998757525
 20
4702.769146092633
 30
0.0
 11
2927.499924999999
 21
4702.769146092633
 31
0.0
  0
LINE
  5
F69C
330
E7AC
100
AcDbEntity
  8
D-STR-DIM
370
    -2
100
AcDbLine
 10
3099.999994999999
 20
4212.769183208611
 30
0.0
 11
2927.499924999999
 21
4212.769183208611
 31
0.0
  0
LINE
  5
F69D
330
E7AC
100
AcDbEntity
  8
D-STR-DIM
370
    -2
100
AcDbLine
 10
2947.499924999999
 20
4677.769146092632
 30
0.0
 11
2947.499924999999
 21
4237.769183208611
 31
0.0
  0
INSERT
  5
F69E
330
E7AC
100
AcDbEntity
  8
D-STR-DIM
370
    -2
100
AcDbBlockReference
  2
_OPEN30
 10
2947.499924999999
 20
4702.769146092633
 30
0.0
 41
25.0
 42
25.0
 43
25.0
 50
90.0
  0
INSERT
  5
F69F
330
E7AC
100
AcDbEntity
  8
D-STR-DIM
370
    -2
100
AcDbBlockReference
  2
_OPEN30
 10
2947.499924999999
 20
4212.769183208611
 30
0.0
 41
25.0
 42
25.0
 43
25.0
 50
270.0
  0
MTEXT
  5
F6A0
330
E7AC
100
AcDbEntity
  8
D-STR-DIM
100
AcDbMText
 10
2922.499924999998
 20
4457.769164650623
 30
0.0
 40
30.0
 41
0.0
 71
     5
 72
     1
  1
490
 11
0.0000000000000001
 21
1.0
 31
0.0
 73
     1
 44
1.0
  0
POINT
  5
F6A1
330
E7AC
100
AcDbEntity
  8
DEFPOINTS
 62
     0
100
AcDbPoint
 10
3114.974998757525
 20
4702.769146092633
 30
0.0
  0
POINT
  5
F6A2
330
E7AC
100
AcDbEntity
  8
DEFPOINTS
 62
     0
100
AcDbPoint
 10
3109.999994999999
 20
4212.769183208611
 30
0.0
  0
POINT
  5
F6A3
330
E7AC
100
AcDbEntity
  8
DEFPOINTS
 62
     0
100
AcDbPoint
 10
2947.499924999999
 20
4212.769183208611
 30
0.0
  0
ENDBLK
  5
E7B7
330
E7AC
100
AcDbEntity
  8
0
100
AcDbBlockEnd
  0
BLOCK
  5
E7C4
330
E7B8
100
AcDbEntity
  8
0
100
AcDbBlockBegin
  2
*D21
 70
     1
 10
0.0
 20
0.0
 30
0.0
  3
*D21
  1

  0
LINE
  5
F6C1
330
E7B8
100
AcDbEntity
  8
D-STR-DIM
370
    -2
100
AcDbLine
 10
3160.162648906735
 20
4402.769173208613
 30
0.0
 11
3002.499924999999
 21
4402.769173208613
 31
0.0
  0
LINE
  5
F6C2
330
E7B8
100
AcDbEntity
  8
D-STR-DIM
370
    -2
100
AcDbLine
 10
3199.999994999999
 20
4342.769183208611
 30
0.0
 11
3002.499924999999
 21
4342.769183208611
 31
0.0
  0
LINE
  5
F6C3
330
E7B8
100
AcDbEntity
  8
D-STR-DIM
370
    -2
100
AcDbLine
 10
3022.499924999999
 20
4427.769173208613
 30
0.0
 11
3022.499924999999
 21
4452.769173208613
 31
0.0
  0
LINE
  5
F6C4
330
E7B8
100
AcDbEntity
  8
D-STR-DIM
370
    -2
100
AcDbLine
 10
3022.499924999999
 20
4317.769183208611
 30
0.0
 11
3022.499924999999
 21
4292.769183208611
 31
0.0
  0
LINE
  5
F6C5
330
E7B8
100
AcDbEntity
  8
D-STR-DIM
370
    -2
100
AcDbLine
 10
3022.499924999999
 20
4402.769173208613
 30
0.0
 11
3022.499924999999
 21
4342.769183208611
 31
0.0
  0
INSERT
  5
F6C6
330
E7B8
100
AcDbEntity
  8
D-STR-DIM
370
    -2
100
AcDbBlockReference
  2
_OPEN30
 10
3022.499924999999
 20
4402.769173208613
 30
0.0
 41
25.0
 42
25.0
 43
25.0
 50
270.0
  0
INSERT
  5
F6C7
330
E7B8
100
AcDbEntity
  8
D-STR-DIM
370
    -2
100
AcDbBlockReference
  2
_OPEN30
 10
3022.499924999999
 20
4342.769183208611
 30
0.0
 41
25.0
 42
25.0
 43
25.0
 50
90.0
  0
MTEXT
  5
F6C8
330
E7B8
100
AcDbEntity
  8
D-STR-DIM
100
AcDbMText
 10
2997.499924999999
 20
4372.769178208613
 30
0.0
 40
30.0
 41
0.0
 71
     5
 72
     1
  1
60
 11
0.0000000000000001
 21
1.0
 31
0.0
 73
     1
 44
1.0
  0
POINT
  5
F6C9
330
E7B8
100
AcDbEntity
  8
DEFPOINTS
 62
     0
100
AcDbPoint
 10
3170.162648906734
 20
4402.769173208613
 30
0.0
  0
POINT
  5
F6CA
330
E7B8
100
AcDbEntity
  8
DEFPOINTS
 62
     0
100
AcDbPoint
 10
3209.999994999999
 20
4342.769183208611
 30
0.0
  0
POINT
  5
F6CB
330
E7B8
100
AcDbEntity
  8
DEFPOINTS
 62
     0
100
AcDbPoint
 10
3022.499924999999
 20
4342.769183208611
 30
0.0
  0
ENDBLK
  5
E7C5
330
E7B8
100
AcDbEntity
  8
0
100
AcDbBlockEnd
  0
BLOCK
  5
E7D2
330
E7C6
100
AcDbEntity
  8
0
100
AcDbBlockBegin
  2
*D22
 70
     1
 10
0.0
 20
0.0
 30
0.0
  3
*D22
  1

  0
LINE
  5
F6A4
330
E7C6
100
AcDbEntity
  8
D-STR-DIM
370
    -2
100
AcDbLine
 10
3199.999994999999
 20
4342.769183208611
 30
0.0
 11
3002.499924999999
 21
4342.769183208611
 31
0.0
  0
LINE
  5
F6A5
330
E7C6
100
AcDbEntity
  8
D-STR-DIM
370
    -2
100
AcDbLine
 10
3099.999994999999
 20
4312.769193208611
 30
0.0
 11
3002.499924999999
 21
4312.769193208611
 31
0.0
  0
LINE
  5
F6A6
330
E7C6
100
AcDbEntity
  8
D-STR-DIM
370
    -2
100
AcDbLine
 10
3022.499924999999
 20
4367.76918320861
 30
0.0
 11
3022.499924999999
 21
4392.769183208611
 31
0.0
  0
LINE
  5
F6A7
330
E7C6
100
AcDbEntity
  8
D-STR-DIM
370
    -2
100
AcDbLine
 10
3022.499924999999
 20
4287.76919320861
 30
0.0
 11
3022.499924999999
 21
4262.769193208611
 31
0.0
  0
MTEXT
  5
F6A8
330
E7C6
100
AcDbEntity
  8
D-STR-DIM
100
AcDbMText
 10
3059.353953473179
 20
4324.273961029035
 30
0.0
 40
30.0
 41
0.0
 71
     5
 72
     1
  1
30
 11
0.0000000000000001
 21
1.0
 31
0.0
 73
     1
 44
1.0
  0
LINE
  5
F6A9
330
E7C6
100
AcDbEntity
  8
D-STR-DIM
370
    -2
100
AcDbLine
 10
3022.499924999999
 20
4342.769183208611
 30
0.0
 11
3022.499924999999
 21
4312.769193208611
 31
0.0
  0
INSERT
  5
F6AA
330
E7C6
100
AcDbEntity
  8
D-STR-DIM
370
    -2
100
AcDbBlockReference
  2
_OPEN30
 10
3022.499924999999
 20
4342.769183208611
 30
0.0
 41
25.0
 42
25.0
 43
25.0
 50
270.0
  0
INSERT
  5
F6AB
330
E7C6
100
AcDbEntity
  8
D-STR-DIM
370
    -2
100
AcDbBlockReference
  2
_OPEN30
 10
3022.499924999999
 20
4312.769193208611
 30
0.0
 41
25.0
 42
25.0
 43
25.0
 50
90.0
  0
POINT
  5
F6AC
330
E7C6
100
AcDbEntity
  8
DEFPOINTS
 62
     0
100
AcDbPoint
 10
3209.999994999999
 20
4342.769183208611
 30
0.0
  0
POINT
  5
F6AD
330
E7C6
100
AcDbEntity
  8
DEFPOINTS
 62
     0
100
AcDbPoint
 10
3109.999994999999
 20
4312.769193208611
 30
0.0
  0
POINT
  5
F6AE
330
E7C6
100
AcDbEntity
  8
DEFPOINTS
 62
     0
100
AcDbPoint
 10
3022.499924999999
 20
4312.769193208611
 30
0.0
  0
ENDBLK
  5
E7D3
330
E7C6
100
AcDbEntity
  8
0
100
AcDbBlockEnd
  0
BLOCK
  5
E7DE
330
E7D4
100
AcDbEntity
  8
0
100
AcDbBlockBegin
  2
*D23
 70
     1
 10
0.0
 20
0.0
 30
0.0
  3
*D23
  1

  0
LINE
  5
F6AF
330
E7D4
100
AcDbEntity
  8
D-STR-DIM
370
    -2
100
AcDbLine
 10
3099.999994999999
 20
4312.769193208611
 30
0.0
 11
3002.499924999999
 21
4312.769193208611
 31
0.0
  0
LINE
  5
F6B0
330
E7D4
100
AcDbEntity
  8
D-STR-DIM
370
    -2
100
AcDbLine
 10
3099.999994999999
 20
4212.769183208611
 30
0.0
 11
3002.499924999999
 21
4212.769183208611
 31
0.0
  0
LINE
  5
F6B1
330
E7D4
100
AcDbEntity
  8
D-STR-DIM
370
    -2
100
AcDbLine
 10
3022.499924999999
 20
4287.76919320861
 30
0.0
 11
3022.499924999999
 21
4237.769183208611
 31
0.0
  0
INSERT
  5
F6B2
330
E7D4
100
AcDbEntity
  8
D-STR-DIM
370
    -2
100
AcDbBlockReference
  2
_OPEN30
 10
3022.499924999999
 20
4312.769193208611
 30
0.0
 41
25.0
 42
25.0
 43
25.0
 50
90.0
  0
INSERT
  5
F6B3
330
E7D4
100
AcDbEntity
  8
D-STR-DIM
370
    -2
100
AcDbBlockReference
  2
_OPEN30
 10
3022.499924999999
 20
4212.769183208611
 30
0.0
 41
25.0
 42
25.0
 43
25.0
 50
270.0
  0
MTEXT
  5
F6B4
330
E7D4
100
AcDbEntity
  8
D-STR-DIM
100
AcDbMText
 10
2997.499924999999
 20
4262.769188208611
 30
0.0
 40
30.0
 41
0.0
 71
     5
 72
     1
  1
100
 11
0.0000000000000001
 21
1.0
 31
0.0
 73
     1
 44
1.0
  0
POINT
  5
F6B5
330
E7D4
100
AcDbEntity
  8
DEFPOINTS
 62
     0
100
AcDbPoint
 10
3109.999994999999
 20
4312.769193208611
 30
0.0
  0
POINT
  5
F6B6
330
E7D4
100
AcDbEntity
  8
DEFPOINTS
 62
     0
100
AcDbPoint
 10
3109.999994999999
 20
4212.769183208611
 30
0.0
  0
POINT
  5
F6B7
330
E7D4
100
AcDbEntity
  8
DEFPOINTS
 62
     0
100
AcDbPoint
 10
3022.499924999999
 20
4212.769183208611
 30
0.0
  0
ENDBLK
  5
E7DF
330
E7D4
100
AcDbEntity
  8
0
100
AcDbBlockEnd
  0
BLOCK
  5
E7EA
330
E7E0
100
AcDbEntity
  8
0
100
AcDbBlockBegin
  2
*D24
 70
     1
 10
0.0
 20
0.0
 30
0.0
  3
*D24
  1

  0
LINE
  5
F6CC
330
E7E0
100
AcDbEntity
  8
D-STR-DIM
370
    -2
100
AcDbLine
 10
3104.974998757525
 20
4702.769146092633
 30
0.0
 11
3002.499924999999
 21
4702.769146092633
 31
0.0
  0
LINE
  5
F6CD
330
E7E0
100
AcDbEntity
  8
D-STR-DIM
370
    -2
100
AcDbLine
 10
3160.162648906735
 20
4402.769173208613
 30
0.0
 11
3002.499924999999
 21
4402.769173208613
 31
0.0
  0
LINE
  5
F6CE
330
E7E0
100
AcDbEntity
  8
D-STR-DIM
370
    -2
100
AcDbLine
 10
3022.499924999999
 20
4677.769146092632
 30
0.0
 11
3022.499924999999
 21
4427.769173208613
 31
0.0
  0
INSERT
  5
F6CF
330
E7E0
100
AcDbEntity
  8
D-STR-DIM
370
    -2
100
AcDbBlockReference
  2
_OPEN30
 10
3022.499924999999
 20
4702.769146092633
 30
0.0
 41
25.0
 42
25.0
 43
25.0
 50
90.0
  0
INSERT
  5
F6D0
330
E7E0
100
AcDbEntity
  8
D-STR-DIM
370
    -2
100
AcDbBlockReference
  2
_OPEN30
 10
3022.499924999999
 20
4402.769173208613
 30
0.0
 41
25.0
 42
25.0
 43
25.0
 50
270.0
  0
MTEXT
  5
F6D1
330
E7E0
100
AcDbEntity
  8
D-STR-DIM
100
AcDbMText
 10
2997.499924999999
 20
4552.769159650623
 30
0.0
 40
30.0
 41
0.0
 71
     5
 72
     1
  1
300
 11
0.0000000000000001
 21
1.0
 31
0.0
 73
     1
 44
1.0
  0
POINT
  5
F6D2
330
E7E0
100
AcDbEntity
  8
DEFPOINTS
 62
     0
100
AcDbPoint
 10
3114.974998757525
 20
4702.769146092633
 30
0.0
  0
POINT
  5
F6D3
330
E7E0
100
AcDbEntity
  8
DEFPOINTS
 62
     0
100
AcDbPoint
 10
3170.162648906734
 20
4402.769173208613
 30
0.0
  0
POINT
  5
F6D4
330
E7E0
100
AcDbEntity
  8
DEFPOINTS
 62
     0
100
AcDbPoint
 10
3022.499924999999
 20
4402.769173208613
 30
0.0
  0
ENDBLK
  5
E7EB
330
E7E0
100
AcDbEntity
  8
0
100
AcDbBlockEnd
  0
BLOCK
  5
E7F6
330
E7EC
100
AcDbEntity
  8
0
100
AcDbBlockBegin
  2
*D25
 70
     1
 10
0.0
 20
0.0
 30
0.0
  3
*D25
  1

  0
LINE
  5
F538
330
E7EC
100
AcDbEntity
  8
D-STR-DIM
370
    -2
100
AcDbLine
 10
3109.999995
 20
4202.769183208611
 30
0.0
 11
3109.999995
 21
4042.769183208611
 31
0.0
  0
LINE
  5
F539
330
E7EC
100
AcDbEntity
  8
D-STR-DIM
370
    -2
100
AcDbLine
 10
3610.000004999999
 20
4202.769183208611
 30
0.0
 11
3610.000004999999
 21
4042.769183208611
 31
0.0
  0
LINE
  5
F53A
330
E7EC
100
AcDbEntity
  8
D-STR-DIM
370
    -2
100
AcDbLine
 10
3134.999995
 20
4062.769183208611
 30
0.0
 11
3585.000004999999
 21
4062.769183208611
 31
0.0
  0
INSERT
  5
F53B
330
E7EC
100
AcDbEntity
  8
D-STR-DIM
370
    -2
100
AcDbBlockReference
  2
_OPEN30
 10
3109.999995
 20
4062.769183208611
 30
0.0
 41
25.0
 42
25.0
 43
25.0
 50
180.0
  0
INSERT
  5
F53C
330
E7EC
100
AcDbEntity
  8
D-STR-DIM
370
    -2
100
AcDbBlockReference
  2
_OPEN30
 10
3610.000004999999
 20
4062.769183208611
 30
0.0
 41
25.0
 42
25.0
 43
25.0
  0
MTEXT
  5
F53D
330
E7EC
100
AcDbEntity
  8
D-STR-DIM
100
AcDbMText
 10
3360.0
 20
4087.769183208611
 30
0.0
 40
30.0
 41
0.0
 71
     5
 72
     1
  1
500
 73
     1
 44
1.0
  0
POINT
  5
F53E
330
E7EC
100
AcDbEntity
  8
DEFPOINTS
 62
     0
100
AcDbPoint
 10
3109.999995
 20
4212.769183208611
 30
0.0
  0
POINT
  5
F53F
330
E7EC
100
AcDbEntity
  8
DEFPOINTS
 62
     0
100
AcDbPoint
 10
3610.000004999999
 20
4212.769183208611
 30
0.0
  0
POINT
  5
F540
330
E7EC
100
AcDbEntity
  8
DEFPOINTS
 62
     0
100
AcDbPoint
 10
3610.000004999999
 20
4062.769183208611
 30
0.0
  0
ENDBLK
  5
E7F7
330
E7EC
100
AcDbEntity
  8
0
100
AcDbBlockEnd
  0
BLOCK
  5
E802
330
E7F8
100
AcDbEntity
  8
0
100
AcDbBlockBegin
  2
*D26
 70
     1
 10
0.0
 20
0.0
 30
0.0
  3
*D26
  1

  0
LINE
  5
F6B8
330
E7F8
100
AcDbEntity
  8
D-STR-DIM
370
    -2
100
AcDbLine
 10
3109.999995
 20
4202.769183208611
 30
0.0
 11
3109.999995
 21
4117.76918320861
 31
0.0
  0
LINE
  5
F6B9
330
E7F8
100
AcDbEntity
  8
D-STR-DIM
370
    -2
100
AcDbLine
 10
3209.999995
 20
4202.769183208611
 30
0.0
 11
3209.999995
 21
4117.76918320861
 31
0.0
  0
LINE
  5
F6BA
330
E7F8
100
AcDbEntity
  8
D-STR-DIM
370
    -2
100
AcDbLine
 10
3134.999995
 20
4137.769183208611
 30
0.0
 11
3184.999995
 21
4137.769183208611
 31
0.0
  0
INSERT
  5
F6BB
330
E7F8
100
AcDbEntity
  8
D-STR-DIM
370
    -2
100
AcDbBlockReference
  2
_OPEN30
 10
3109.999995
 20
4137.769183208611
 30
0.0
 41
25.0
 42
25.0
 43
25.0
 50
180.0
  0
INSERT
  5
F6BC
330
E7F8
100
AcDbEntity
  8
D-STR-DIM
370
    -2
100
AcDbBlockReference
  2
_OPEN30
 10
3209.999995
 20
4137.769183208611
 30
0.0
 41
25.0
 42
25.0
 43
25.0
  0
MTEXT
  5
F6BD
330
E7F8
100
AcDbEntity
  8
D-STR-DIM
100
AcDbMText
 10
3159.999995
 20
4162.769183208611
 30
0.0
 40
30.0
 41
0.0
 71
     5
 72
     1
  1
100
 73
     1
 44
1.0
  0
POINT
  5
F6BE
330
E7F8
100
AcDbEntity
  8
DEFPOINTS
 62
     0
100
AcDbPoint
 10
3109.999995
 20
4212.769183208611
 30
0.0
  0
POINT
  5
F6BF
330
E7F8
100
AcDbEntity
  8
DEFPOINTS
 62
     0
100
AcDbPoint
 10
3209.999995
 20
4212.769183208611
 30
0.0
  0
POINT
  5
F6C0
330
E7F8
100
AcDbEntity
  8
DEFPOINTS
 62
     0
100
AcDbPoint
 10
3209.999995
 20
4137.769183208611
 30
0.0
  0
ENDBLK
  5
E803
330
E7F8
100
AcDbEntity
  8
0
100
AcDbBlockEnd
  0
BLOCK
  5
E80E
330
E804
100
AcDbEntity
  8
0
100
AcDbBlockBegin
  2
*D27
 70
     1
 10
0.0
 20
0.0
 30
0.0
  3
*D27
  1

  0
LINE
  5
F52F
330
E804
100
AcDbEntity
  8
D-STR-DIM
370
    -2
100
AcDbLine
 10
3209.999995
 20
4202.769183208611
 30
0.0
 11
3209.999995
 21
4117.76918320861
 31
0.0
  0
LINE
  5
F530
330
E804
100
AcDbEntity
  8
D-STR-DIM
370
    -2
100
AcDbLine
 10
3510.000045000001
 20
4202.769183208611
 30
0.0
 11
3510.000045000001
 21
4117.76918320861
 31
0.0
  0
LINE
  5
F531
330
E804
100
AcDbEntity
  8
D-STR-DIM
370
    -2
100
AcDbLine
 10
3234.999995
 20
4137.769183208611
 30
0.0
 11
3485.000045000001
 21
4137.769183208611
 31
0.0
  0
INSERT
  5
F532
330
E804
100
AcDbEntity
  8
D-STR-DIM
370
    -2
100
AcDbBlockReference
  2
_OPEN30
 10
3209.999995
 20
4137.769183208611
 30
0.0
 41
25.0
 42
25.0
 43
25.0
 50
180.0
  0
INSERT
  5
F533
330
E804
100
AcDbEntity
  8
D-STR-DIM
370
    -2
100
AcDbBlockReference
  2
_OPEN30
 10
3510.000045000001
 20
4137.769183208611
 30
0.0
 41
25.0
 42
25.0
 43
25.0
  0
MTEXT
  5
F534
330
E804
100
AcDbEntity
  8
D-STR-DIM
100
AcDbMText
 10
3360.00002
 20
4162.769183208611
 30
0.0
 40
30.0
 41
0.0
 71
     5
 72
     1
  1
300
 73
     1
 44
1.0
  0
POINT
  5
F535
330
E804
100
AcDbEntity
  8
DEFPOINTS
 62
     0
100
AcDbPoint
 10
3209.999995
 20
4212.769183208611
 30
0.0
  0
POINT
  5
F536
330
E804
100
AcDbEntity
  8
DEFPOINTS
 62
     0
100
AcDbPoint
 10
3510.000045000001
 20
4212.769183208611
 30
0.0
  0
POINT
  5
F537
330
E804
100
AcDbEntity
  8
DEFPOINTS
 62
     0
100
AcDbPoint
 10
3510.000045000001
 20
4137.769183208611
 30
0.0
  0
ENDBLK
  5
E80F
330
E804
100
AcDbEntity
  8
0
100
AcDbBlockEnd
  0
BLOCK
  5
E81A
330
E810
100
AcDbEntity
  8
0
100
AcDbBlockBegin
  2
*D28
 70
     1
 10
0.0
 20
0.0
 30
0.0
  3
*D28
  1

  0
LINE
  5
F773
330
E810
100
AcDbEntity
  8
D-STR-DIM
370
    -2
100
AcDbLine
 10
3510.000045000001
 20
4202.769183208611
 30
0.0
 11
3510.000045000001
 21
4117.76918320861
 31
0.0
  0
LINE
  5
F774
330
E810
100
AcDbEntity
  8
D-STR-DIM
370
    -2
100
AcDbLine
 10
3610.000004999999
 20
4202.769183208611
 30
0.0
 11
3610.000004999999
 21
4117.76918320861
 31
0.0
  0
LINE
  5
F775
330
E810
100
AcDbEntity
  8
D-STR-DIM
370
    -2
100
AcDbLine
 10
3535.000045000001
 20
4137.769183208611
 30
0.0
 11
3585.000004999999
 21
4137.769183208611
 31
0.0
  0
INSERT
  5
F776
330
E810
100
AcDbEntity
  8
D-STR-DIM
370
    -2
100
AcDbBlockReference
  2
_OPEN30
 10
3510.000045000001
 20
4137.769183208611
 30
0.0
 41
25.0
 42
25.0
 43
25.0
 50
180.0
  0
INSERT
  5
F777
330
E810
100
AcDbEntity
  8
D-STR-DIM
370
    -2
100
AcDbBlockReference
  2
_OPEN30
 10
3610.000004999999
 20
4137.769183208611
 30
0.0
 41
25.0
 42
25.0
 43
25.0
  0
MTEXT
  5
F778
330
E810
100
AcDbEntity
  8
D-STR-DIM
100
AcDbMText
 10
3560.000025
 20
4162.769183208611
 30
0.0
 40
30.0
 41
0.0
 71
     5
 72
     1
  1
100
 73
     1
 44
1.0
  0
POINT
  5
F779
330
E810
100
AcDbEntity
  8
DEFPOINTS
 62
     0
100
AcDbPoint
 10
3510.000045000001
 20
4212.769183208611
 30
0.0
  0
POINT
  5
F77A
330
E810
100
AcDbEntity
  8
DEFPOINTS
 62
     0
100
AcDbPoint
 10
3610.000004999999
 20
4212.769183208611
 30
0.0
  0
POINT
  5
F77B
330
E810
100
AcDbEntity
  8
DEFPOINTS
 62
     0
100
AcDbPoint
 10
3610.000004999999
 20
4137.769183208611
 30
0.0
  0
ENDBLK
  5
E81B
330
E810
100
AcDbEntity
  8
0
100
AcDbBlockEnd
  0
BLOCK
  5
E8E9
330
E8DF
100
AcDbEntity
  8
0
100
AcDbBlockBegin
  2
*D29
 70
     1
 10
0.0
 20
0.0
 30
0.0
  3
*D29
  1

  0
LINE
  5
F51D
330
E8DF
100
AcDbEntity
  8
D-STR-DIM
370
    -2
100
AcDbLine
 10
3209.999991721165
 20
4712.769146092638
 30
0.0
 11
3209.999991721165
 21
4797.769146092638
 31
0.0
  0
LINE
  5
F51E
330
E8DF
100
AcDbEntity
  8
D-STR-DIM
370
    -2
100
AcDbLine
 10
3510.000041721165
 20
4712.769146092638
 30
0.0
 11
3510.000041721165
 21
4797.769146092638
 31
0.0
  0
LINE
  5
F51F
330
E8DF
100
AcDbEntity
  8
D-STR-DIM
370
    -2
100
AcDbLine
 10
3234.999991721164
 20
4777.769146092638
 30
0.0
 11
3485.000041721165
 21
4777.769146092638
 31
0.0
  0
INSERT
  5
F520
330
E8DF
100
AcDbEntity
  8
D-STR-DIM
370
    -2
100
AcDbBlockReference
  2
_OPEN30
 10
3209.999991721165
 20
4777.769146092638
 30
0.0
 41
25.0
 42
25.0
 43
25.0
 50
180.0
  0
INSERT
  5
F521
330
E8DF
100
AcDbEntity
  8
D-STR-DIM
370
    -2
100
AcDbBlockReference
  2
_OPEN30
 10
3510.000041721165
 20
4777.769146092638
 30
0.0
 41
25.0
 42
25.0
 43
25.0
  0
MTEXT
  5
F522
330
E8DF
100
AcDbEntity
  8
D-STR-DIM
100
AcDbMText
 10
3360.000016721164
 20
4802.769146092638
 30
0.0
 40
30.0
 41
0.0
 71
     5
 72
     1
  1
300
 73
     1
 44
1.0
  0
POINT
  5
F523
330
E8DF
100
AcDbEntity
  8
DEFPOINTS
 62
     0
100
AcDbPoint
 10
3209.999991721165
 20
4702.769146092638
 30
0.0
  0
POINT
  5
F524
330
E8DF
100
AcDbEntity
  8
DEFPOINTS
 62
     0
100
AcDbPoint
 10
3510.000041721165
 20
4702.769146092638
 30
0.0
  0
POINT
  5
F525
330
E8DF
100
AcDbEntity
  8
DEFPOINTS
 62
     0
100
AcDbPoint
 10
3510.000041721165
 20
4777.769146092638
 30
0.0
  0
ENDBLK
  5
E8EA
330
E8DF
100
AcDbEntity
  8
0
100
AcDbBlockEnd
  0
BLOCK
  5
E8F5
330
E8EB
100
AcDbEntity
  8
0
100
AcDbBlockBegin
  2
*D30
 70
     1
 10
0.0
 20
0.0
 30
0.0
  3
*D30
  1

  0
LINE
  5
F526
330
E8EB
100
AcDbEntity
  8
D-STR-DIM
370
    -2
100
AcDbLine
 10
3160.000011721165
 20
4712.769146092638
 30
0.0
 11
3160.000011721165
 21
4872.769146092638
 31
0.0
  0
LINE
  5
F527
330
E8EB
100
AcDbEntity
  8
D-STR-DIM
370
    -2
100
AcDbLine
 10
3560.000021721164
 20
4712.769146092638
 30
0.0
 11
3560.000021721164
 21
4872.769146092638
 31
0.0
  0
LINE
  5
F528
330
E8EB
100
AcDbEntity
  8
D-STR-DIM
370
    -2
100
AcDbLine
 10
3185.000011721164
 20
4852.769146092638
 30
0.0
 11
3535.000021721164
 21
4852.769146092638
 31
0.0
  0
INSERT
  5
F529
330
E8EB
100
AcDbEntity
  8
D-STR-DIM
370
    -2
100
AcDbBlockReference
  2
_OPEN30
 10
3160.000011721165
 20
4852.769146092638
 30
0.0
 41
25.0
 42
25.0
 43
25.0
 50
180.0
  0
INSERT
  5
F52A
330
E8EB
100
AcDbEntity
  8
D-STR-DIM
370
    -2
100
AcDbBlockReference
  2
_OPEN30
 10
3560.000021721164
 20
4852.769146092638
 30
0.0
 41
25.0
 42
25.0
 43
25.0
  0
MTEXT
  5
F52B
330
E8EB
100
AcDbEntity
  8
D-STR-DIM
100
AcDbMText
 10
3360.000016721164
 20
4877.769146092639
 30
0.0
 40
30.0
 41
0.0
 71
     5
 72
     1
  1
400
 73
     1
 44
1.0
  0
POINT
  5
F52C
330
E8EB
100
AcDbEntity
  8
DEFPOINTS
 62
     0
100
AcDbPoint
 10
3160.000011721165
 20
4702.769146092638
 30
0.0
  0
POINT
  5
F52D
330
E8EB
100
AcDbEntity
  8
DEFPOINTS
 62
     0
100
AcDbPoint
 10
3560.000021721164
 20
4702.769146092638
 30
0.0
  0
POINT
  5
F52E
330
E8EB
100
AcDbEntity
  8
DEFPOINTS
 62
     0
100
AcDbPoint
 10
3560.000021721164
 20
4852.769146092638
 30
0.0
  0
ENDBLK
  5
E8F6
330
E8EB
100
AcDbEntity
  8
0
100
AcDbBlockEnd
  0
BLOCK
  5
E903
330
E8F7
100
AcDbEntity
  8
0
100
AcDbBlockBegin
  2
*D31
 70
     1
 10
0.0
 20
0.0
 30
0.0
  3
*D31
  1

  0
LINE
  5
F690
330
E8F7
100
AcDbEntity
  8
D-STR-DIM
370
    -2
100
AcDbLine
 10
3160.000011721165
 20
4712.769146092638
 30
0.0
 11
3160.000011721165
 21
4797.769146092638
 31
0.0
  0
LINE
  5
F691
330
E8F7
100
AcDbEntity
  8
D-STR-DIM
370
    -2
100
AcDbLine
 10
3209.999991721165
 20
4712.769146092638
 30
0.0
 11
3209.999991721165
 21
4797.769146092638
 31
0.0
  0
LINE
  5
F692
330
E8F7
100
AcDbEntity
  8
D-STR-DIM
370
    -2
100
AcDbLine
 10
3135.000011721165
 20
4777.769146092638
 30
0.0
 11
3110.000011721165
 21
4777.769146092638
 31
0.0
  0
LINE
  5
F693
330
E8F7
100
AcDbEntity
  8
D-STR-DIM
370
    -2
100
AcDbLine
 10
3234.999991721164
 20
4777.769146092638
 30
0.0
 11
3259.999991721164
 21
4777.769146092638
 31
0.0
  0
MTEXT
  5
F694
330
E8F7
100
AcDbEntity
  8
D-STR-DIM
100
AcDbMText
 10
3185.415032238765
 20
4802.934388989628
 30
0.0
 40
30.0
 41
0.0
 71
     5
 72
     1
  1
50
 73
     1
 44
1.0
  0
LINE
  5
F695
330
E8F7
100
AcDbEntity
  8
D-STR-DIM
370
    -2
100
AcDbLine
 10
3160.000011721165
 20
4777.769146092638
 30
0.0
 11
3209.999991721165
 21
4777.769146092638
 31
0.0
  0
INSERT
  5
F696
330
E8F7
100
AcDbEntity
  8
D-STR-DIM
370
    -2
100
AcDbBlockReference
  2
_OPEN30
 10
3160.000011721165
 20
4777.769146092638
 30
0.0
 41
25.0
 42
25.0
 43
25.0
  0
INSERT
  5
F697
330
E8F7
100
AcDbEntity
  8
D-STR-DIM
370
    -2
100
AcDbBlockReference
  2
_OPEN30
 10
3209.999991721165
 20
4777.769146092638
 30
0.0
 41
25.0
 42
25.0
 43
25.0
 50
180.0
  0
POINT
  5
F698
330
E8F7
100
AcDbEntity
  8
DEFPOINTS
 62
     0
100
AcDbPoint
 10
3160.000011721165
 20
4702.769146092638
 30
0.0
  0
POINT
  5
F699
330
E8F7
100
AcDbEntity
  8
DEFPOINTS
 62
     0
100
AcDbPoint
 10
3209.999991721165
 20
4702.769146092638
 30
0.0
  0
POINT
  5
F69A
330
E8F7
100
AcDbEntity
  8
DEFPOINTS
 62
     0
100
AcDbPoint
 10
3209.999991721165
 20
4777.769146092638
 30
0.0
  0
ENDBLK
  5
E904
330
E8F7
100
AcDbEntity
  8
0
100
AcDbBlockEnd
  0
BLOCK
  5
E911
330
E905
100
AcDbEntity
  8
0
100
AcDbBlockBegin
  2
*D32
 70
     1
 10
0.0
 20
0.0
 30
0.0
  3
*D32
  1

  0
LINE
  5
F768
330
E905
100
AcDbEntity
  8
D-STR-DIM
370
    -2
100
AcDbLine
 10
3510.000041721165
 20
4712.769146092638
 30
0.0
 11
3510.000041721165
 21
4797.769146092638
 31
0.0
  0
LINE
  5
F769
330
E905
100
AcDbEntity
  8
D-STR-DIM
370
    -2
100
AcDbLine
 10
3560.000021721164
 20
4712.769146092638
 30
0.0
 11
3560.000021721164
 21
4797.769146092638
 31
0.0
  0
LINE
  5
F76A
330
E905
100
AcDbEntity
  8
D-STR-DIM
370
    -2
100
AcDbLine
 10
3485.000041721165
 20
4777.769146092638
 30
0.0
 11
3460.000041721165
 21
4777.769146092638
 31
0.0
  0
LINE
  5
F76B
330
E905
100
AcDbEntity
  8
D-STR-DIM
370
    -2
100
AcDbLine
 10
3585.000021721164
 20
4777.769146092638
 30
0.0
 11
3610.000021721164
 21
4777.769146092638
 31
0.0
  0
MTEXT
  5
F76C
330
E905
100
AcDbEntity
  8
D-STR-DIM
100
AcDbMText
 10
3534.470649998911
 20
4802.628783991397
 30
0.0
 40
30.0
 41
0.0
 71
     5
 72
     1
  1
50
 73
     1
 44
1.0
  0
LINE
  5
F76D
330
E905
100
AcDbEntity
  8
D-STR-DIM
370
    -2
100
AcDbLine
 10
3510.000041721165
 20
4777.769146092638
 30
0.0
 11
3560.000021721164
 21
4777.769146092638
 31
0.0
  0
INSERT
  5
F76E
330
E905
100
AcDbEntity
  8
D-STR-DIM
370
    -2
100
AcDbBlockReference
  2
_OPEN30
 10
3510.000041721165
 20
4777.769146092638
 30
0.0
 41
25.0
 42
25.0
 43
25.0
  0
INSERT
  5
F76F
330
E905
100
AcDbEntity
  8
D-STR-DIM
370
    -2
100
AcDbBlockReference
  2
_OPEN30
 10
3560.000021721164
 20
4777.769146092638
 30
0.0
 41
25.0
 42
25.0
 43
25.0
 50
180.0
  0
POINT
  5
F770
330
E905
100
AcDbEntity
  8
DEFPOINTS
 62
     0
100
AcDbPoint
 10
3510.000041721165
 20
4702.769146092638
 30
0.0
  0
POINT
  5
F771
330
E905
100
AcDbEntity
  8
DEFPOINTS
 62
     0
100
AcDbPoint
 10
3560.000021721164
 20
4702.769146092638
 30
0.0
  0
POINT
  5
F772
330
E905
100
AcDbEntity
  8
DEFPOINTS
 62
     0
100
AcDbPoint
 10
3560.000021721164
 20
4777.769146092638
 30
0.0
  0
ENDBLK
  5
E912
330
E905
100
AcDbEntity
  8
0
100
AcDbBlockEnd
  0
BLOCK
  5
E91F
330
E913
100
AcDbEntity
  8
0
100
AcDbBlockBegin
  2
*D33
 70
     1
 10
0.0
 20
0.0
 30
0.0
  3
*D33
  1

  0
LINE
  5
F77C
330
E913
100
AcDbEntity
  8
D-STR-DIM
370
    -2
100
AcDbLine
 10
3489.803010227144
 20
4412.769186092639
 30
0.0
 11
3489.803010227144
 21
4493.080248722903
 31
0.0
  0
LINE
  5
F77D
330
E913
100
AcDbEntity
  8
D-STR-DIM
370
    -2
100
AcDbLine
 10
3549.837426479685
 20
4412.769186092639
 30
0.0
 11
3549.837426479685
 21
4493.080248722903
 31
0.0
  0
LINE
  5
F77E
330
E913
100
AcDbEntity
  8
D-STR-DIM
370
    -2
100
AcDbLine
 10
3464.803010227144
 20
4473.080248722903
 30
0.0
 11
3439.803010227144
 21
4473.080248722903
 31
0.0
  0
LINE
  5
F77F
330
E913
100
AcDbEntity
  8
D-STR-DIM
370
    -2
100
AcDbLine
 10
3574.837426479685
 20
4473.080248722903
 30
0.0
 11
3599.837426479685
 21
4473.080248722903
 31
0.0
  0
MTEXT
  5
F780
330
E913
100
AcDbEntity
  8
D-STR-DIM
100
AcDbMText
 10
3518.700633657834
 20
4498.432881902839
 30
0.0
 40
30.0
 41
0.0
 71
     5
 72
     1
  1
60
 73
     1
 44
1.0
  0
LINE
  5
F781
330
E913
100
AcDbEntity
  8
D-STR-DIM
370
    -2
100
AcDbLine
 10
3489.803010227144
 20
4473.080248722903
 30
0.0
 11
3549.837426479685
 21
4473.080248722903
 31
0.0
  0
INSERT
  5
F782
330
E913
100
AcDbEntity
  8
D-STR-DIM
370
    -2
100
AcDbBlockReference
  2
_OPEN30
 10
3489.803010227144
 20
4473.080248722903
 30
0.0
 41
25.0
 42
25.0
 43
25.0
  0
INSERT
  5
F783
330
E913
100
AcDbEntity
  8
D-STR-DIM
370
    -2
100
AcDbBlockReference
  2
_OPEN30
 10
3549.837426479685
 20
4473.080248722903
 30
0.0
 41
25.0
 42
25.0
 43
25.0
 50
180.0
  0
POINT
  5
F784
330
E913
100
AcDbEntity
  8
DEFPOINTS
 62
     0
100
AcDbPoint
 10
3489.803010227144
 20
4402.769186092639
 30
0.0
  0
POINT
  5
F785
330
E913
100
AcDbEntity
  8
DEFPOINTS
 62
     0
100
AcDbPoint
 10
3549.837426479685
 20
4402.769186092639
 30
0.0
  0
POINT
  5
F786
330
E913
100
AcDbEntity
  8
DEFPOINTS
 62
     0
100
AcDbPoint
 10
3549.837426479685
 20
4473.080248722903
 30
0.0
  0
ENDBLK
  5
E920
330
E913
100
AcDbEntity
  8
0
100
AcDbBlockEnd
  0
BLOCK
  5
E92B
330
E921
100
AcDbEntity
  8
0
100
AcDbBlockBegin
  2
*D34
 70
     1
 10
0.0
 20
0.0
 30
0.0
  3
*D34
  1

  0
LINE
  5
F514
330
E921
100
AcDbEntity
  8
D-STR-DIM
370
    -2
100
AcDbLine
 10
3230.197062142249
 20
4412.76918609264
 30
0.0
 11
3230.197062142249
 21
4493.080248722903
 31
0.0
  0
LINE
  5
F515
330
E921
100
AcDbEntity
  8
D-STR-DIM
370
    -2
100
AcDbLine
 10
3489.803010227144
 20
4412.769186092639
 30
0.0
 11
3489.803010227144
 21
4493.080248722903
 31
0.0
  0
LINE
  5
F516
330
E921
100
AcDbEntity
  8
D-STR-DIM
370
    -2
100
AcDbLine
 10
3255.197062142249
 20
4473.080248722903
 30
0.0
 11
3464.803010227144
 21
4473.080248722903
 31
0.0
  0
INSERT
  5
F517
330
E921
100
AcDbEntity
  8
D-STR-DIM
370
    -2
100
AcDbBlockReference
  2
_OPEN30
 10
3230.197062142249
 20
4473.080248722903
 30
0.0
 41
25.0
 42
25.0
 43
25.0
 50
180.0
  0
INSERT
  5
F518
330
E921
100
AcDbEntity
  8
D-STR-DIM
370
    -2
100
AcDbBlockReference
  2
_OPEN30
 10
3489.803010227144
 20
4473.080248722903
 30
0.0
 41
25.0
 42
25.0
 43
25.0
  0
MTEXT
  5
F519
330
E921
100
AcDbEntity
  8
D-STR-DIM
100
AcDbMText
 10
3360.000036184696
 20
4498.080248722902
 30
0.0
 40
30.0
 41
0.0
 71
     5
 72
     1
  1
260
 73
     1
 44
1.0
  0
POINT
  5
F51A
330
E921
100
AcDbEntity
  8
DEFPOINTS
 62
     0
100
AcDbPoint
 10
3230.197062142249
 20
4402.769186092641
 30
0.0
  0
POINT
  5
F51B
330
E921
100
AcDbEntity
  8
DEFPOINTS
 62
     0
100
AcDbPoint
 10
3489.803010227144
 20
4402.769186092639
 30
0.0
  0
POINT
  5
F51C
330
E921
100
AcDbEntity
  8
DEFPOINTS
 62
     0
100
AcDbPoint
 10
3489.803010227144
 20
4473.080248722903
 30
0.0
  0
ENDBLK
  5
E92C
330
E921
100
AcDbEntity
  8
0
100
AcDbBlockEnd
  0
BLOCK
  5
E939
330
E92D
100
AcDbEntity
  8
0
100
AcDbBlockBegin
  2
*D35
 70
     1
 10
0.0
 20
0.0
 30
0.0
  3
*D35
  1

  0
LINE
  5
F6D5
330
E92D
100
AcDbEntity
  8
D-STR-DIM
370
    -2
100
AcDbLine
 10
3170.162645627899
 20
4412.76918609264
 30
0.0
 11
3170.162645627899
 21
4493.080248722903
 31
0.0
  0
LINE
  5
F6D6
330
E92D
100
AcDbEntity
  8
D-STR-DIM
370
    -2
100
AcDbLine
 10
3230.197062142249
 20
4412.76918609264
 30
0.0
 11
3230.197062142249
 21
4493.080248722903
 31
0.0
  0
LINE
  5
F6D7
330
E92D
100
AcDbEntity
  8
D-STR-DIM
370
    -2
100
AcDbLine
 10
3145.162645627899
 20
4473.080248722903
 30
0.0
 11
3120.162645627899
 21
4473.080248722903
 31
0.0
  0
LINE
  5
F6D8
330
E92D
100
AcDbEntity
  8
D-STR-DIM
370
    -2
100
AcDbLine
 10
3255.197062142249
 20
4473.080248722903
 30
0.0
 11
3280.197062142249
 21
4473.080248722903
 31
0.0
  0
MTEXT
  5
F6D9
330
E92D
100
AcDbEntity
  8
D-STR-DIM
100
AcDbMText
 10
3198.385389365241
 20
4498.373284952403
 30
0.0
 40
30.0
 41
0.0
 71
     5
 72
     1
  1
60
 73
     1
 44
1.0
  0
LINE
  5
F6DA
330
E92D
100
AcDbEntity
  8
D-STR-DIM
370
    -2
100
AcDbLine
 10
3170.162645627899
 20
4473.080248722903
 30
0.0
 11
3230.197062142249
 21
4473.080248722903
 31
0.0
  0
INSERT
  5
F6DB
330
E92D
100
AcDbEntity
  8
D-STR-DIM
370
    -2
100
AcDbBlockReference
  2
_OPEN30
 10
3170.162645627899
 20
4473.080248722903
 30
0.0
 41
25.0
 42
25.0
 43
25.0
  0
INSERT
  5
F6DC
330
E92D
100
AcDbEntity
  8
D-STR-DIM
370
    -2
100
AcDbBlockReference
  2
_OPEN30
 10
3230.197062142249
 20
4473.080248722903
 30
0.0
 41
25.0
 42
25.0
 43
25.0
 50
180.0
  0
POINT
  5
F6DD
330
E92D
100
AcDbEntity
  8
DEFPOINTS
 62
     0
100
AcDbPoint
 10
3170.162645627899
 20
4402.769186092641
 30
0.0
  0
POINT
  5
F6DE
330
E92D
100
AcDbEntity
  8
DEFPOINTS
 62
     0
100
AcDbPoint
 10
3230.197062142249
 20
4402.769186092641
 30
0.0
  0
POINT
  5
F6DF
330
E92D
100
AcDbEntity
  8
DEFPOINTS
 62
     0
100
AcDbPoint
 10
3230.197062142249
 20
4473.080248722903
 30
0.0
  0
ENDBLK
  5
E93A
330
E92D
100
AcDbEntity
  8
0
100
AcDbBlockEnd
  0
BLOCK
  5
E98F
330
E983
100
AcDbEntity
  8
0
100
AcDbBlockBegin
  2
*D36
 70
     1
 10
0.0
 20
0.0
 30
0.0
  3
*D36
  1

  0
LINE
  5
F685
330
E983
100
AcDbEntity
  8
D-STR-DIM
370
    -2
100
AcDbLine
 10
3114.974998757525
 20
4712.769146092632
 30
0.0
 11
3114.974998757525
 21
4872.769146092638
 31
0.0
  0
LINE
  5
F686
330
E983
100
AcDbEntity
  8
D-STR-DIM
370
    -2
100
AcDbLine
 10
3160.000011457435
 20
4712.769146092639
 30
0.0
 11
3160.000011457435
 21
4872.769146092638
 31
0.0
  0
LINE
  5
F687
330
E983
100
AcDbEntity
  8
D-STR-DIM
370
    -2
100
AcDbLine
 10
3089.974998757525
 20
4852.769146092638
 30
0.0
 11
3064.974998757525
 21
4852.769146092638
 31
0.0
  0
LINE
  5
F688
330
E983
100
AcDbEntity
  8
D-STR-DIM
370
    -2
100
AcDbLine
 10
3185.000011457435
 20
4852.769146092638
 30
0.0
 11
3210.000011457434
 21
4852.769146092638
 31
0.0
  0
LINE
  5
F689
330
E983
100
AcDbEntity
  8
D-STR-DIM
370
    -2
100
AcDbLine
 10
3114.974998757525
 20
4852.769146092638
 30
0.0
 11
3160.000011457435
 21
4852.769146092638
 31
0.0
  0
INSERT
  5
F68A
330
E983
100
AcDbEntity
  8
D-STR-DIM
370
    -2
100
AcDbBlockReference
  2
_OPEN30
 10
3114.974998757525
 20
4852.769146092638
 30
0.0
 41
25.0
 42
25.0
 43
25.0
  0
INSERT
  5
F68B
330
E983
100
AcDbEntity
  8
D-STR-DIM
370
    -2
100
AcDbBlockReference
  2
_OPEN30
 10
3160.000011457435
 20
4852.769146092638
 30
0.0
 41
25.0
 42
25.0
 43
25.0
 50
180.0
  0
MTEXT
  5
F68C
330
E983
100
AcDbEntity
  8
D-STR-DIM
100
AcDbMText
 10
3137.48750510748
 20
4877.769146092639
 30
0.0
 40
30.0
 41
0.0
 71
     5
 72
     1
  1
45
 73
     1
 44
1.0
  0
POINT
  5
F68D
330
E983
100
AcDbEntity
  8
DEFPOINTS
 62
     0
100
AcDbPoint
 10
3114.974998757525
 20
4702.769146092633
 30
0.0
  0
POINT
  5
F68E
330
E983
100
AcDbEntity
  8
DEFPOINTS
 62
     0
100
AcDbPoint
 10
3160.000011457435
 20
4702.76914609264
 30
0.0
  0
POINT
  5
F68F
330
E983
100
AcDbEntity
  8
DEFPOINTS
 62
     0
100
AcDbPoint
 10
3160.000011457435
 20
4852.769146092638
 30
0.0
  0
ENDBLK
  5
E990
330
E983
100
AcDbEntity
  8
0
100
AcDbBlockEnd
  0
BLOCK
  5
E9B6
330
E9AA
100
AcDbEntity
  8
0
100
AcDbBlockBegin
  2
*D37
 70
     1
 10
0.0
 20
0.0
 30
0.0
  3
*D37
  1

  0
LINE
  5
F75D
330
E9AA
100
AcDbEntity
  8
D-STR-DIM
370
    -2
100
AcDbLine
 10
3560.000028542568
 20
4712.769146092638
 30
0.0
 11
3560.000028542568
 21
4872.769146092638
 31
0.0
  0
LINE
  5
F75E
330
E9AA
100
AcDbEntity
  8
D-STR-DIM
370
    -2
100
AcDbLine
 10
3605.025041242476
 20
4712.769146092638
 30
0.0
 11
3605.025041242476
 21
4872.769146092638
 31
0.0
  0
LINE
  5
F75F
330
E9AA
100
AcDbEntity
  8
D-STR-DIM
370
    -2
100
AcDbLine
 10
3535.000028542568
 20
4852.769146092638
 30
0.0
 11
3510.000028542568
 21
4852.769146092638
 31
0.0
  0
LINE
  5
F760
330
E9AA
100
AcDbEntity
  8
D-STR-DIM
370
    -2
100
AcDbLine
 10
3630.025041242476
 20
4852.769146092638
 30
0.0
 11
3655.025041242476
 21
4852.769146092638
 31
0.0
  0
LINE
  5
F761
330
E9AA
100
AcDbEntity
  8
D-STR-DIM
370
    -2
100
AcDbLine
 10
3560.000028542568
 20
4852.769146092638
 30
0.0
 11
3605.025041242476
 21
4852.769146092638
 31
0.0
  0
INSERT
  5
F762
330
E9AA
100
AcDbEntity
  8
D-STR-DIM
370
    -2
100
AcDbBlockReference
  2
_OPEN30
 10
3560.000028542568
 20
4852.769146092638
 30
0.0
 41
25.0
 42
25.0
 43
25.0
  0
INSERT
  5
F763
330
E9AA
100
AcDbEntity
  8
D-STR-DIM
370
    -2
100
AcDbBlockReference
  2
_OPEN30
 10
3605.025041242476
 20
4852.769146092638
 30
0.0
 41
25.0
 42
25.0
 43
25.0
 50
180.0
  0
MTEXT
  5
F764
330
E9AA
100
AcDbEntity
  8
D-STR-DIM
100
AcDbMText
 10
3582.512534892522
 20
4877.769146092639
 30
0.0
 40
30.0
 41
0.0
 71
     5
 72
     1
  1
45
 73
     1
 44
1.0
  0
POINT
  5
F765
330
E9AA
100
AcDbEntity
  8
DEFPOINTS
 62
     0
100
AcDbPoint
 10
3560.000028542568
 20
4702.769146092638
 30
0.0
  0
POINT
  5
F766
330
E9AA
100
AcDbEntity
  8
DEFPOINTS
 62
     0
100
AcDbPoint
 10
3605.025041242476
 20
4702.769146092638
 30
0.0
  0
POINT
  5
F767
330
E9AA
100
AcDbEntity
  8
DEFPOINTS
 62
     0
100
AcDbPoint
 10
3605.025041242476
 20
4852.769146092638
 30
0.0
  0
ENDBLK
  5
E9B7
330
E9AA
100
AcDbEntity
  8
0
100
AcDbBlockEnd
  0
BLOCK
  5
EB75
330
EB6B
100
AcDbEntity
  8
0
100
AcDbBlockBegin
  2
*D38
 70
     1
 10
0.0
 20
0.0
 30
0.0
  3
*D38
  1

  0
LINE
  5
F7AD
330
EB6B
100
AcDbEntity
  8
D-STR-DIM
370
    -2
100
AcDbLine
 10
4724.999995000006
 20
4202.769183208611
 30
0.0
 11
4724.999995000006
 21
4117.76918320861
 31
0.0
  0
LINE
  5
F7AE
330
EB6B
100
AcDbEntity
  8
D-STR-DIM
370
    -2
100
AcDbLine
 10
4824.999995000005
 20
4202.769183208611
 30
0.0
 11
4824.999995000005
 21
4117.76918320861
 31
0.0
  0
LINE
  5
F7AF
330
EB6B
100
AcDbEntity
  8
D-STR-DIM
370
    -2
100
AcDbLine
 10
4749.999995000005
 20
4137.769183208611
 30
0.0
 11
4799.999995000006
 21
4137.769183208611
 31
0.0
  0
INSERT
  5
F7B0
330
EB6B
100
AcDbEntity
  8
D-STR-DIM
370
    -2
100
AcDbBlockReference
  2
_OPEN30
 10
4724.999995000006
 20
4137.769183208611
 30
0.0
 41
25.0
 42
25.0
 43
25.0
 50
180.0
  0
INSERT
  5
F7B1
330
EB6B
100
AcDbEntity
  8
D-STR-DIM
370
    -2
100
AcDbBlockReference
  2
_OPEN30
 10
4824.999995000005
 20
4137.769183208611
 30
0.0
 41
25.0
 42
25.0
 43
25.0
  0
MTEXT
  5
F7B2
330
EB6B
100
AcDbEntity
  8
D-STR-DIM
100
AcDbMText
 10
4774.999995000006
 20
4162.769183208611
 30
0.0
 40
30.0
 41
0.0
 71
     5
 72
     1
  1
100
 73
     1
 44
1.0
  0
POINT
  5
F7B3
330
EB6B
100
AcDbEntity
  8
DEFPOINTS
 62
     0
100
AcDbPoint
 10
4724.999995000006
 20
4212.769183208611
 30
0.0
  0
POINT
  5
F7B4
330
EB6B
100
AcDbEntity
  8
DEFPOINTS
 62
     0
100
AcDbPoint
 10
4824.999995000005
 20
4212.769183208611
 30
0.0
  0
POINT
  5
F7B5
330
EB6B
100
AcDbEntity
  8
DEFPOINTS
 62
     0
100
AcDbPoint
 10
4824.999995000005
 20
4137.769183208611
 30
0.0
  0
ENDBLK
  5
EB76
330
EB6B
100
AcDbEntity
  8
0
100
AcDbBlockEnd
  0
BLOCK
  5
EB81
330
EB77
100
AcDbEntity
  8
0
100
AcDbBlockBegin
  2
*D39
 70
     1
 10
0.0
 20
0.0
 30
0.0
  3
*D39
  1

  0
LINE
  5
F754
330
EB77
100
AcDbEntity
  8
D-STR-DIM
370
    -2
100
AcDbLine
 10
4724.999995000006
 20
4202.769183208611
 30
0.0
 11
4724.999995000006
 21
4042.769183208611
 31
0.0
  0
LINE
  5
F755
330
EB77
100
AcDbEntity
  8
D-STR-DIM
370
    -2
100
AcDbLine
 10
5355.000005000001
 20
4202.769183208611
 30
0.0
 11
5355.000005000001
 21
4042.769183208611
 31
0.0
  0
LINE
  5
F756
330
EB77
100
AcDbEntity
  8
D-STR-DIM
370
    -2
100
AcDbLine
 10
4749.999995000005
 20
4062.769183208611
 30
0.0
 11
5330.000005000002
 21
4062.769183208611
 31
0.0
  0
INSERT
  5
F757
330
EB77
100
AcDbEntity
  8
D-STR-DIM
370
    -2
100
AcDbBlockReference
  2
_OPEN30
 10
4724.999995000006
 20
4062.769183208611
 30
0.0
 41
25.0
 42
25.0
 43
25.0
 50
180.0
  0
INSERT
  5
F758
330
EB77
100
AcDbEntity
  8
D-STR-DIM
370
    -2
100
AcDbBlockReference
  2
_OPEN30
 10
5355.000005000001
 20
4062.769183208611
 30
0.0
 41
25.0
 42
25.0
 43
25.0
  0
MTEXT
  5
F759
330
EB77
100
AcDbEntity
  8
D-STR-DIM
100
AcDbMText
 10
5040.000000000003
 20
4087.769183208611
 30
0.0
 40
30.0
 41
0.0
 71
     5
 72
     1
  1
630
 73
     1
 44
1.0
  0
POINT
  5
F75A
330
EB77
100
AcDbEntity
  8
DEFPOINTS
 62
     0
100
AcDbPoint
 10
4724.999995000006
 20
4212.769183208611
 30
0.0
  0
POINT
  5
F75B
330
EB77
100
AcDbEntity
  8
DEFPOINTS
 62
     0
100
AcDbPoint
 10
5355.000005000001
 20
4212.769183208611
 30
0.0
  0
POINT
  5
F75C
330
EB77
100
AcDbEntity
  8
DEFPOINTS
 62
     0
100
AcDbPoint
 10
5355.000005000001
 20
4062.769183208611
 30
0.0
  0
ENDBLK
  5
EB82
330
EB77
100
AcDbEntity
  8
0
100
AcDbBlockEnd
  0
BLOCK
  5
EB8D
330
EB83
100
AcDbEntity
  8
0
100
AcDbBlockBegin
  2
*D40
 70
     1
 10
0.0
 20
0.0
 30
0.0
  3
*D40
  1

  0
LINE
  5
F74B
330
EB83
100
AcDbEntity
  8
D-STR-DIM
370
    -2
100
AcDbLine
 10
4824.999995000005
 20
4202.769183208611
 30
0.0
 11
4824.999995000005
 21
4117.76918320861
 31
0.0
  0
LINE
  5
F74C
330
EB83
100
AcDbEntity
  8
D-STR-DIM
370
    -2
100
AcDbLine
 10
5255.000045000004
 20
4202.769183208611
 30
0.0
 11
5255.000045000004
 21
4117.76918320861
 31
0.0
  0
LINE
  5
F74D
330
EB83
100
AcDbEntity
  8
D-STR-DIM
370
    -2
100
AcDbLine
 10
4849.999995000006
 20
4137.769183208611
 30
0.0
 11
5230.000045000004
 21
4137.769183208611
 31
0.0
  0
INSERT
  5
F74E
330
EB83
100
AcDbEntity
  8
D-STR-DIM
370
    -2
100
AcDbBlockReference
  2
_OPEN30
 10
4824.999995000005
 20
4137.769183208611
 30
0.0
 41
25.0
 42
25.0
 43
25.0
 50
180.0
  0
INSERT
  5
F74F
330
EB83
100
AcDbEntity
  8
D-STR-DIM
370
    -2
100
AcDbBlockReference
  2
_OPEN30
 10
5255.000045000004
 20
4137.769183208611
 30
0.0
 41
25.0
 42
25.0
 43
25.0
  0
MTEXT
  5
F750
330
EB83
100
AcDbEntity
  8
D-STR-DIM
100
AcDbMText
 10
5040.000020000005
 20
4162.769183208611
 30
0.0
 40
30.0
 41
0.0
 71
     5
 72
     1
  1
430
 73
     1
 44
1.0
  0
POINT
  5
F751
330
EB83
100
AcDbEntity
  8
DEFPOINTS
 62
     0
100
AcDbPoint
 10
4824.999995000005
 20
4212.769183208611
 30
0.0
  0
POINT
  5
F752
330
EB83
100
AcDbEntity
  8
DEFPOINTS
 62
     0
100
AcDbPoint
 10
5255.000045000004
 20
4212.769183208611
 30
0.0
  0
POINT
  5
F753
330
EB83
100
AcDbEntity
  8
DEFPOINTS
 62
     0
100
AcDbPoint
 10
5255.000045000004
 20
4137.769183208611
 30
0.0
  0
ENDBLK
  5
EB8E
330
EB83
100
AcDbEntity
  8
0
100
AcDbBlockEnd
  0
BLOCK
  5
EB99
330
EB8F
100
AcDbEntity
  8
0
100
AcDbBlockBegin
  2
*D41
 70
     1
 10
0.0
 20
0.0
 30
0.0
  3
*D41
  1

  0
LINE
  5
F7E9
330
EB8F
100
AcDbEntity
  8
D-STR-DIM
370
    -2
100
AcDbLine
 10
5255.000045000004
 20
4202.769183208611
 30
0.0
 11
5255.000045000004
 21
4117.76918320861
 31
0.0
  0
LINE
  5
F7EA
330
EB8F
100
AcDbEntity
  8
D-STR-DIM
370
    -2
100
AcDbLine
 10
5355.000005000001
 20
4202.769183208611
 30
0.0
 11
5355.000005000001
 21
4117.76918320861
 31
0.0
  0
LINE
  5
F7EB
330
EB8F
100
AcDbEntity
  8
D-STR-DIM
370
    -2
100
AcDbLine
 10
5280.000045000004
 20
4137.769183208611
 30
0.0
 11
5330.000005000002
 21
4137.769183208611
 31
0.0
  0
INSERT
  5
F7EC
330
EB8F
100
AcDbEntity
  8
D-STR-DIM
370
    -2
100
AcDbBlockReference
  2
_OPEN30
 10
5255.000045000004
 20
4137.769183208611
 30
0.0
 41
25.0
 42
25.0
 43
25.0
 50
180.0
  0
INSERT
  5
F7ED
330
EB8F
100
AcDbEntity
  8
D-STR-DIM
370
    -2
100
AcDbBlockReference
  2
_OPEN30
 10
5355.000005000001
 20
4137.769183208611
 30
0.0
 41
25.0
 42
25.0
 43
25.0
  0
MTEXT
  5
F7EE
330
EB8F
100
AcDbEntity
  8
D-STR-DIM
100
AcDbMText
 10
5305.000025000003
 20
4162.769183208611
 30
0.0
 40
30.0
 41
0.0
 71
     5
 72
     1
  1
100
 73
     1
 44
1.0
  0
POINT
  5
F7EF
330
EB8F
100
AcDbEntity
  8
DEFPOINTS
 62
     0
100
AcDbPoint
 10
5255.000045000004
 20
4212.769183208611
 30
0.0
  0
POINT
  5
F7F0
330
EB8F
100
AcDbEntity
  8
DEFPOINTS
 62
     0
100
AcDbPoint
 10
5355.000005000001
 20
4212.769183208611
 30
0.0
  0
POINT
  5
F7F1
330
EB8F
100
AcDbEntity
  8
DEFPOINTS
 62
     0
100
AcDbPoint
 10
5355.000005000001
 20
4137.769183208611
 30
0.0
  0
ENDBLK
  5
EB9A
330
EB8F
100
AcDbEntity
  8
0
100
AcDbBlockEnd
  0
BLOCK
  5
EBA5
330
EB9B
100
AcDbEntity
  8
0
100
AcDbBlockBegin
  2
*D42
 70
     1
 10
0.0
 20
0.0
 30
0.0
  3
*D42
  1

  0
LINE
  5
F787
330
EB9B
100
AcDbEntity
  8
D-STR-DIM
370
    -2
100
AcDbLine
 10
4689.985123828114
 20
4862.769187921751
 30
0.0
 11
4617.499925000003
 21
4862.769187921751
 31
0.0
  0
LINE
  5
F788
330
EB9B
100
AcDbEntity
  8
D-STR-DIM
370
    -2
100
AcDbLine
 10
4759.999893070817
 20
4412.769083208611
 30
0.0
 11
4617.499925000003
 21
4412.769083208611
 31
0.0
  0
LINE
  5
F789
330
EB9B
100
AcDbEntity
  8
D-STR-DIM
370
    -2
100
AcDbLine
 10
4637.499925000003
 20
4837.76918792175
 30
0.0
 11
4637.499925000003
 21
4437.769083208611
 31
0.0
  0
INSERT
  5
F78A
330
EB9B
100
AcDbEntity
  8
D-STR-DIM
370
    -2
100
AcDbBlockReference
  2
_OPEN30
 10
4637.499925000003
 20
4862.769187921751
 30
0.0
 41
25.0
 42
25.0
 43
25.0
 50
90.0
  0
INSERT
  5
F78B
330
EB9B
100
AcDbEntity
  8
D-STR-DIM
370
    -2
100
AcDbBlockReference
  2
_OPEN30
 10
4637.499925000003
 20
4412.769083208611
 30
0.0
 41
25.0
 42
25.0
 43
25.0
 50
270.0
  0
MTEXT
  5
F78C
330
EB9B
100
AcDbEntity
  8
D-STR-DIM
100
AcDbMText
 10
4612.499925000003
 20
4637.769135565182
 30
0.0
 40
30.0
 41
0.0
 71
     5
 72
     1
  1
450
 11
0.0000000000000001
 21
1.0
 31
0.0
 73
     1
 44
1.0
  0
POINT
  5
F78D
330
EB9B
100
AcDbEntity
  8
DEFPOINTS
 62
     0
100
AcDbPoint
 10
4699.985123828113
 20
4862.769187921751
 30
0.0
  0
POINT
  5
F78E
330
EB9B
100
AcDbEntity
  8
DEFPOINTS
 62
     0
100
AcDbPoint
 10
4769.999893070816
 20
4412.769083208611
 30
0.0
  0
POINT
  5
F78F
330
EB9B
100
AcDbEntity
  8
DEFPOINTS
 62
     0
100
AcDbPoint
 10
4637.499925000003
 20
4412.769083208611
 30
0.0
  0
ENDBLK
  5
EBA6
330
EB9B
100
AcDbEntity
  8
0
100
AcDbBlockEnd
  0
BLOCK
  5
EBB1
330
EBA7
100
AcDbEntity
  8
0
100
AcDbBlockBegin
  2
*D43
 70
     1
 10
0.0
 20
0.0
 30
0.0
  3
*D43
  1

  0
LINE
  5
F790
330
EBA7
100
AcDbEntity
  8
D-STR-DIM
370
    -2
100
AcDbLine
 10
4689.985123828114
 20
4862.769187921751
 30
0.0
 11
4542.499925000003
 21
4862.769187921751
 31
0.0
  0
LINE
  5
F791
330
EBA7
100
AcDbEntity
  8
D-STR-DIM
370
    -2
100
AcDbLine
 10
4714.999995000005
 20
4212.769183208611
 30
0.0
 11
4542.499925000003
 21
4212.769183208611
 31
0.0
  0
LINE
  5
F792
330
EBA7
100
AcDbEntity
  8
D-STR-DIM
370
    -2
100
AcDbLine
 10
4562.499925000003
 20
4837.76918792175
 30
0.0
 11
4562.499925000003
 21
4237.769183208611
 31
0.0
  0
INSERT
  5
F793
330
EBA7
100
AcDbEntity
  8
D-STR-DIM
370
    -2
100
AcDbBlockReference
  2
_OPEN30
 10
4562.499925000003
 20
4862.769187921751
 30
0.0
 41
25.0
 42
25.0
 43
25.0
 50
90.0
  0
INSERT
  5
F794
330
EBA7
100
AcDbEntity
  8
D-STR-DIM
370
    -2
100
AcDbBlockReference
  2
_OPEN30
 10
4562.499925000003
 20
4212.769183208611
 30
0.0
 41
25.0
 42
25.0
 43
25.0
 50
270.0
  0
MTEXT
  5
F795
330
EBA7
100
AcDbEntity
  8
D-STR-DIM
100
AcDbMText
 10
4537.499925000003
 20
4537.769185565181
 30
0.0
 40
30.0
 41
0.0
 71
     5
 72
     1
  1
650
 11
0.0000000000000001
 21
1.0
 31
0.0
 73
     1
 44
1.0
  0
POINT
  5
F796
330
EBA7
100
AcDbEntity
  8
DEFPOINTS
 62
     0
100
AcDbPoint
 10
4699.985123828113
 20
4862.769187921751
 30
0.0
  0
POINT
  5
F797
330
EBA7
100
AcDbEntity
  8
DEFPOINTS
 62
     0
100
AcDbPoint
 10
4724.999995000006
 20
4212.769183208611
 30
0.0
  0
POINT
  5
F798
330
EBA7
100
AcDbEntity
  8
DEFPOINTS
 62
     0
100
AcDbPoint
 10
4562.499925000003
 20
4212.769183208611
 30
0.0
  0
ENDBLK
  5
EBB2
330
EBA7
100
AcDbEntity
  8
0
100
AcDbBlockEnd
  0
BLOCK
  5
EBBF
330
EBB3
100
AcDbEntity
  8
0
100
AcDbBlockBegin
  2
*D44
 70
     1
 10
0.0
 20
0.0
 30
0.0
  3
*D44
  1

  0
LINE
  5
F7B6
330
EBB3
100
AcDbEntity
  8
D-STR-DIM
370
    -2
100
AcDbLine
 10
4759.999893070817
 20
4412.769083208611
 30
0.0
 11
4617.499925000005
 21
4412.769083208611
 31
0.0
  0
LINE
  5
F7B7
330
EBB3
100
AcDbEntity
  8
D-STR-DIM
370
    -2
100
AcDbLine
 10
4814.999995000006
 20
4342.769183208611
 30
0.0
 11
4617.499925000005
 21
4342.769183208611
 31
0.0
  0
LINE
  5
F7B8
330
EBB3
100
AcDbEntity
  8
D-STR-DIM
370
    -2
100
AcDbLine
 10
4637.499925000004
 20
4437.769083208611
 30
0.0
 11
4637.499925000004
 21
4462.769083208612
 31
0.0
  0
LINE
  5
F7B9
330
EBB3
100
AcDbEntity
  8
D-STR-DIM
370
    -2
100
AcDbLine
 10
4637.499925000004
 20
4317.769183208611
 30
0.0
 11
4637.499925000004
 21
4292.769183208611
 31
0.0
  0
LINE
  5
F7BA
330
EBB3
100
AcDbEntity
  8
D-STR-DIM
370
    -2
100
AcDbLine
 10
4637.499925000004
 20
4412.769083208611
 30
0.0
 11
4637.499925000004
 21
4342.769183208611
 31
0.0
  0
INSERT
  5
F7BB
330
EBB3
100
AcDbEntity
  8
D-STR-DIM
370
    -2
100
AcDbBlockReference
  2
_OPEN30
 10
4637.499925000004
 20
4412.769083208611
 30
0.0
 41
25.0
 42
25.0
 43
25.0
 50
270.0
  0
INSERT
  5
F7BC
330
EBB3
100
AcDbEntity
  8
D-STR-DIM
370
    -2
100
AcDbBlockReference
  2
_OPEN30
 10
4637.499925000004
 20
4342.769183208611
 30
0.0
 41
25.0
 42
25.0
 43
25.0
 50
90.0
  0
MTEXT
  5
F7BD
330
EBB3
100
AcDbEntity
  8
D-STR-DIM
100
AcDbMText
 10
4612.499925000004
 20
4377.769133208612
 30
0.0
 40
30.0
 41
0.0
 71
     5
 72
     1
  1
70
 11
0.0000000000000001
 21
1.0
 31
0.0
 73
     1
 44
1.0
  0
POINT
  5
F7BE
330
EBB3
100
AcDbEntity
  8
DEFPOINTS
 62
     0
100
AcDbPoint
 10
4769.999893070816
 20
4412.769083208611
 30
0.0
  0
POINT
  5
F7BF
330
EBB3
100
AcDbEntity
  8
DEFPOINTS
 62
     0
100
AcDbPoint
 10
4824.999995000005
 20
4342.769183208611
 30
0.0
  0
POINT
  5
F7C0
330
EBB3
100
AcDbEntity
  8
DEFPOINTS
 62
     0
100
AcDbPoint
 10
4637.499925000004
 20
4342.769183208611
 30
0.0
  0
ENDBLK
  5
EBC0
330
EBB3
100
AcDbEntity
  8
0
100
AcDbBlockEnd
  0
BLOCK
  5
EBCD
330
EBC1
100
AcDbEntity
  8
0
100
AcDbBlockBegin
  2
*D45
 70
     1
 10
0.0
 20
0.0
 30
0.0
  3
*D45
  1

  0
LINE
  5
F799
330
EBC1
100
AcDbEntity
  8
D-STR-DIM
370
    -2
100
AcDbLine
 10
4814.999995000006
 20
4342.769183208611
 30
0.0
 11
4617.499925000003
 21
4342.769183208611
 31
0.0
  0
LINE
  5
F79A
330
EBC1
100
AcDbEntity
  8
D-STR-DIM
370
    -2
100
AcDbLine
 10
4714.999995000005
 20
4312.769193208611
 30
0.0
 11
4617.499925000003
 21
4312.769193208611
 31
0.0
  0
LINE
  5
F79B
330
EBC1
100
AcDbEntity
  8
D-STR-DIM
370
    -2
100
AcDbLine
 10
4637.499925000003
 20
4367.76918320861
 30
0.0
 11
4637.499925000003
 21
4392.769183208611
 31
0.0
  0
LINE
  5
F79C
330
EBC1
100
AcDbEntity
  8
D-STR-DIM
370
    -2
100
AcDbLine
 10
4637.499925000003
 20
4287.76919320861
 30
0.0
 11
4637.499925000003
 21
4262.769193208611
 31
0.0
  0
MTEXT
  5
F79D
330
EBC1
100
AcDbEntity
  8
D-STR-DIM
100
AcDbMText
 10
4674.353953473183
 20
4324.273961029035
 30
0.0
 40
30.0
 41
0.0
 71
     5
 72
     1
  1
30
 11
0.0000000000000001
 21
1.0
 31
0.0
 73
     1
 44
1.0
  0
LINE
  5
F79E
330
EBC1
100
AcDbEntity
  8
D-STR-DIM
370
    -2
100
AcDbLine
 10
4637.499925000003
 20
4342.769183208611
 30
0.0
 11
4637.499925000003
 21
4312.769193208611
 31
0.0
  0
INSERT
  5
F79F
330
EBC1
100
AcDbEntity
  8
D-STR-DIM
370
    -2
100
AcDbBlockReference
  2
_OPEN30
 10
4637.499925000003
 20
4342.769183208611
 30
0.0
 41
25.0
 42
25.0
 43
25.0
 50
270.0
  0
INSERT
  5
F7A0
330
EBC1
100
AcDbEntity
  8
D-STR-DIM
370
    -2
100
AcDbBlockReference
  2
_OPEN30
 10
4637.499925000003
 20
4312.769193208611
 30
0.0
 41
25.0
 42
25.0
 43
25.0
 50
90.0
  0
POINT
  5
F7A1
330
EBC1
100
AcDbEntity
  8
DEFPOINTS
 62
     0
100
AcDbPoint
 10
4824.999995000005
 20
4342.769183208611
 30
0.0
  0
POINT
  5
F7A2
330
EBC1
100
AcDbEntity
  8
DEFPOINTS
 62
     0
100
AcDbPoint
 10
4724.999995000006
 20
4312.769193208611
 30
0.0
  0
POINT
  5
F7A3
330
EBC1
100
AcDbEntity
  8
DEFPOINTS
 62
     0
100
AcDbPoint
 10
4637.499925000003
 20
4312.769193208611
 30
0.0
  0
ENDBLK
  5
EBCE
330
EBC1
100
AcDbEntity
  8
0
100
AcDbBlockEnd
  0
BLOCK
  5
EBD9
330
EBCF
100
AcDbEntity
  8
0
100
AcDbBlockBegin
  2
*D46
 70
     1
 10
0.0
 20
0.0
 30
0.0
  3
*D46
  1

  0
LINE
  5
F7A4
330
EBCF
100
AcDbEntity
  8
D-STR-DIM
370
    -2
100
AcDbLine
 10
4714.999995000005
 20
4312.769193208611
 30
0.0
 11
4617.499925000003
 21
4312.769193208611
 31
0.0
  0
LINE
  5
F7A5
330
EBCF
100
AcDbEntity
  8
D-STR-DIM
370
    -2
100
AcDbLine
 10
4714.999995000005
 20
4212.769183208611
 30
0.0
 11
4617.499925000003
 21
4212.769183208611
 31
0.0
  0
LINE
  5
F7A6
330
EBCF
100
AcDbEntity
  8
D-STR-DIM
370
    -2
100
AcDbLine
 10
4637.499925000003
 20
4287.76919320861
 30
0.0
 11
4637.499925000003
 21
4237.769183208611
 31
0.0
  0
INSERT
  5
F7A7
330
EBCF
100
AcDbEntity
  8
D-STR-DIM
370
    -2
100
AcDbBlockReference
  2
_OPEN30
 10
4637.499925000003
 20
4312.769193208611
 30
0.0
 41
25.0
 42
25.0
 43
25.0
 50
90.0
  0
INSERT
  5
F7A8
330
EBCF
100
AcDbEntity
  8
D-STR-DIM
370
    -2
100
AcDbBlockReference
  2
_OPEN30
 10
4637.499925000003
 20
4212.769183208611
 30
0.0
 41
25.0
 42
25.0
 43
25.0
 50
270.0
  0
MTEXT
  5
F7A9
330
EBCF
100
AcDbEntity
  8
D-STR-DIM
100
AcDbMText
 10
4612.499925000003
 20
4262.769188208611
 30
0.0
 40
30.0
 41
0.0
 71
     5
 72
     1
  1
100
 11
0.0000000000000001
 21
1.0
 31
0.0
 73
     1
 44
1.0
  0
POINT
  5
F7AA
330
EBCF
100
AcDbEntity
  8
DEFPOINTS
 62
     0
100
AcDbPoint
 10
4724.999995000006
 20
4312.769193208611
 30
0.0
  0
POINT
  5
F7AB
330
EBCF
100
AcDbEntity
  8
DEFPOINTS
 62
     0
100
AcDbPoint
 10
4724.999995000006
 20
4212.769183208611
 30
0.0
  0
POINT
  5
F7AC
330
EBCF
100
AcDbEntity
  8
DEFPOINTS
 62
     0
100
AcDbPoint
 10
4637.499925000003
 20
4212.769183208611
 30
0.0
  0
ENDBLK
  5
EBDA
330
EBCF
100
AcDbEntity
  8
0
100
AcDbBlockEnd
  0
BLOCK
  5
EBE5
330
EBDB
100
AcDbEntity
  8
0
100
AcDbBlockBegin
  2
*D47
 70
     1
 10
0.0
 20
0.0
 30
0.0
  3
*D47
  1

  0
LINE
  5
F730
330
EBDB
100
AcDbEntity
  8
D-STR-DIM
370
    -2
100
AcDbLine
 10
4760.000095000003
 20
4872.769183208611
 30
0.0
 11
4760.000095000003
 21
5032.76918320861
 31
0.0
  0
LINE
  5
F731
330
EBDB
100
AcDbEntity
  8
D-STR-DIM
370
    -2
100
AcDbLine
 10
5320.000195000001
 20
4872.769183208611
 30
0.0
 11
5320.000195000001
 21
5032.76918320861
 31
0.0
  0
LINE
  5
F732
330
EBDB
100
AcDbEntity
  8
D-STR-DIM
370
    -2
100
AcDbLine
 10
4785.000095000003
 20
5012.769183208611
 30
0.0
 11
5295.000195
 21
5012.769183208611
 31
0.0
  0
INSERT
  5
F733
330
EBDB
100
AcDbEntity
  8
D-STR-DIM
370
    -2
100
AcDbBlockReference
  2
_OPEN30
 10
4760.000095000003
 20
5012.769183208611
 30
0.0
 41
25.0
 42
25.0
 43
25.0
 50
180.0
  0
INSERT
  5
F734
330
EBDB
100
AcDbEntity
  8
D-STR-DIM
370
    -2
100
AcDbBlockReference
  2
_OPEN30
 10
5320.000195000001
 20
5012.769183208611
 30
0.0
 41
25.0
 42
25.0
 43
25.0
  0
MTEXT
  5
F735
330
EBDB
100
AcDbEntity
  8
D-STR-DIM
100
AcDbMText
 10
5040.000145000002
 20
5037.769183208611
 30
0.0
 40
30.0
 41
0.0
 71
     5
 72
     1
  1
560
 73
     1
 44
1.0
  0
POINT
  5
F736
330
EBDB
100
AcDbEntity
  8
DEFPOINTS
 62
     0
100
AcDbPoint
 10
4760.000095000003
 20
4862.769183208611
 30
0.0
  0
POINT
  5
F737
330
EBDB
100
AcDbEntity
  8
DEFPOINTS
 62
     0
100
AcDbPoint
 10
5320.000195000001
 20
4862.769183208611
 30
0.0
  0
POINT
  5
F738
330
EBDB
100
AcDbEntity
  8
DEFPOINTS
 62
     0
100
AcDbPoint
 10
5320.000195000001
 20
5012.769183208611
 30
0.0
  0
ENDBLK
  5
EBE6
330
EBDB
100
AcDbEntity
  8
0
100
AcDbBlockEnd
  0
BLOCK
  5
EBF1
330
EBE7
100
AcDbEntity
  8
0
100
AcDbBlockBegin
  2
*D48
 70
     1
 10
0.0
 20
0.0
 30
0.0
  3
*D48
  1

  0
LINE
  5
F739
330
EBE7
100
AcDbEntity
  8
D-STR-DIM
370
    -2
100
AcDbLine
 10
4814.999995000006
 20
4872.769183208611
 30
0.0
 11
4814.999995000006
 21
4957.769183208611
 31
0.0
  0
LINE
  5
F73A
330
EBE7
100
AcDbEntity
  8
D-STR-DIM
370
    -2
100
AcDbLine
 10
5264.999995000006
 20
4872.769183208611
 30
0.0
 11
5264.999995000006
 21
4957.769183208611
 31
0.0
  0
LINE
  5
F73B
330
EBE7
100
AcDbEntity
  8
D-STR-DIM
370
    -2
100
AcDbLine
 10
4839.999995000006
 20
4937.769183208612
 30
0.0
 11
5239.999995000006
 21
4937.769183208612
 31
0.0
  0
INSERT
  5
F73C
330
EBE7
100
AcDbEntity
  8
D-STR-DIM
370
    -2
100
AcDbBlockReference
  2
_OPEN30
 10
4814.999995000006
 20
4937.769183208612
 30
0.0
 41
25.0
 42
25.0
 43
25.0
 50
180.0
  0
INSERT
  5
F73D
330
EBE7
100
AcDbEntity
  8
D-STR-DIM
370
    -2
100
AcDbBlockReference
  2
_OPEN30
 10
5264.999995000006
 20
4937.769183208612
 30
0.0
 41
25.0
 42
25.0
 43
25.0
  0
MTEXT
  5
F73E
330
EBE7
100
AcDbEntity
  8
D-STR-DIM
100
AcDbMText
 10
5039.999995000005
 20
4962.769183208611
 30
0.0
 40
30.0
 41
0.0
 71
     5
 72
     1
  1
450
 73
     1
 44
1.0
  0
POINT
  5
F73F
330
EBE7
100
AcDbEntity
  8
DEFPOINTS
 62
     0
100
AcDbPoint
 10
4814.999995000006
 20
4862.769183208611
 30
0.0
  0
POINT
  5
F740
330
EBE7
100
AcDbEntity
  8
DEFPOINTS
 62
     0
100
AcDbPoint
 10
5264.999995000006
 20
4862.769183208611
 30
0.0
  0
POINT
  5
F741
330
EBE7
100
AcDbEntity
  8
DEFPOINTS
 62
     0
100
AcDbPoint
 10
5264.999995000006
 20
4937.769183208612
 30
0.0
  0
ENDBLK
  5
EBF2
330
EBE7
100
AcDbEntity
  8
0
100
AcDbBlockEnd
  0
BLOCK
  5
EBFF
330
EBF3
100
AcDbEntity
  8
0
100
AcDbBlockBegin
  2
*D49
 70
     1
 10
0.0
 20
0.0
 30
0.0
  3
*D49
  1

  0
LINE
  5
F7D5
330
EBF3
100
AcDbEntity
  8
D-STR-DIM
370
    -2
100
AcDbLine
 10
4760.000095000003
 20
4872.769183208611
 30
0.0
 11
4760.000095000003
 21
4957.769183208611
 31
0.0
  0
LINE
  5
F7D6
330
EBF3
100
AcDbEntity
  8
D-STR-DIM
370
    -2
100
AcDbLine
 10
4814.999995000006
 20
4872.769183208611
 30
0.0
 11
4814.999995000006
 21
4957.769183208611
 31
0.0
  0
LINE
  5
F7D7
330
EBF3
100
AcDbEntity
  8
D-STR-DIM
370
    -2
100
AcDbLine
 10
4735.000095000002
 20
4937.769183208612
 30
0.0
 11
4710.000095000003
 21
4937.769183208612
 31
0.0
  0
LINE
  5
F7D8
330
EBF3
100
AcDbEntity
  8
D-STR-DIM
370
    -2
100
AcDbLine
 10
4839.999995000006
 20
4937.769183208612
 30
0.0
 11
4864.999995000006
 21
4937.769183208612
 31
0.0
  0
MTEXT
  5
F7D9
330
EBF3
100
AcDbEntity
  8
D-STR-DIM
100
AcDbMText
 10
4788.763139895353
 20
4962.743557238837
 30
0.0
 40
30.0
 41
0.0
 71
     5
 72
     1
  1
55
 73
     1
 44
1.0
  0
LINE
  5
F7DA
330
EBF3
100
AcDbEntity
  8
D-STR-DIM
370
    -2
100
AcDbLine
 10
4760.000095000003
 20
4937.769183208612
 30
0.0
 11
4814.999995000006
 21
4937.769183208612
 31
0.0
  0
INSERT
  5
F7DB
330
EBF3
100
AcDbEntity
  8
D-STR-DIM
370
    -2
100
AcDbBlockReference
  2
_OPEN30
 10
4760.000095000003
 20
4937.769183208612
 30
0.0
 41
25.0
 42
25.0
 43
25.0
  0
INSERT
  5
F7DC
330
EBF3
100
AcDbEntity
  8
D-STR-DIM
370
    -2
100
AcDbBlockReference
  2
_OPEN30
 10
4814.999995000006
 20
4937.769183208612
 30
0.0
 41
25.0
 42
25.0
 43
25.0
 50
180.0
  0
POINT
  5
F7DD
330
EBF3
100
AcDbEntity
  8
DEFPOINTS
 62
     0
100
AcDbPoint
 10
4760.000095000003
 20
4862.769183208611
 30
0.0
  0
POINT
  5
F7DE
330
EBF3
100
AcDbEntity
  8
DEFPOINTS
 62
     0
100
AcDbPoint
 10
4814.999995000006
 20
4862.769183208611
 30
0.0
  0
POINT
  5
F7DF
330
EBF3
100
AcDbEntity
  8
DEFPOINTS
 62
     0
100
AcDbPoint
 10
4814.999995000006
 20
4937.769183208612
 30
0.0
  0
ENDBLK
  5
EC00
330
EBF3
100
AcDbEntity
  8
0
100
AcDbBlockEnd
  0
BLOCK
  5
EC0D
330
EC01
100
AcDbEntity
  8
0
100
AcDbBlockBegin
  2
*D50
 70
     1
 10
0.0
 20
0.0
 30
0.0
  3
*D50
  1

  0
LINE
  5
F7FD
330
EC01
100
AcDbEntity
  8
D-STR-DIM
370
    -2
100
AcDbLine
 10
5264.999995000006
 20
4872.769183208611
 30
0.0
 11
5264.999995000006
 21
4957.769183208611
 31
0.0
  0
LINE
  5
F7FE
330
EC01
100
AcDbEntity
  8
D-STR-DIM
370
    -2
100
AcDbLine
 10
5320.000195000001
 20
4872.769183208611
 30
0.0
 11
5320.000195000001
 21
4957.769183208611
 31
0.0
  0
LINE
  5
F7FF
330
EC01
100
AcDbEntity
  8
D-STR-DIM
370
    -2
100
AcDbLine
 10
5239.999995000006
 20
4937.769183208612
 30
0.0
 11
5214.999995000006
 21
4937.769183208612
 31
0.0
  0
LINE
  5
F800
330
EC01
100
AcDbEntity
  8
D-STR-DIM
370
    -2
100
AcDbLine
 10
5345.000195
 20
4937.769183208612
 30
0.0
 11
5370.000195000001
 21
4937.769183208612
 31
0.0
  0
MTEXT
  5
F801
330
EC01
100
AcDbEntity
  8
D-STR-DIM
100
AcDbMText
 10
5291.094204286896
 20
4962.50454142098
 30
0.0
 40
30.0
 41
0.0
 71
     5
 72
     1
  1
55
 73
     1
 44
1.0
  0
LINE
  5
F802
330
EC01
100
AcDbEntity
  8
D-STR-DIM
370
    -2
100
AcDbLine
 10
5264.999995000006
 20
4937.769183208612
 30
0.0
 11
5320.000195000001
 21
4937.769183208612
 31
0.0
  0
INSERT
  5
F803
330
EC01
100
AcDbEntity
  8
D-STR-DIM
370
    -2
100
AcDbBlockReference
  2
_OPEN30
 10
5264.999995000006
 20
4937.769183208612
 30
0.0
 41
25.0
 42
25.0
 43
25.0
  0
INSERT
  5
F804
330
EC01
100
AcDbEntity
  8
D-STR-DIM
370
    -2
100
AcDbBlockReference
  2
_OPEN30
 10
5320.000195000001
 20
4937.769183208612
 30
0.0
 41
25.0
 42
25.0
 43
25.0
 50
180.0
  0
POINT
  5
F805
330
EC01
100
AcDbEntity
  8
DEFPOINTS
 62
     0
100
AcDbPoint
 10
5264.999995000006
 20
4862.769183208611
 30
0.0
  0
POINT
  5
F806
330
EC01
100
AcDbEntity
  8
DEFPOINTS
 62
     0
100
AcDbPoint
 10
5320.000195000001
 20
4862.769183208611
 30
0.0
  0
POINT
  5
F807
330
EC01
100
AcDbEntity
  8
DEFPOINTS
 62
     0
100
AcDbPoint
 10
5320.000195000001
 20
4937.769183208612
 30
0.0
  0
ENDBLK
  5
EC0E
330
EC01
100
AcDbEntity
  8
0
100
AcDbBlockEnd
  0
BLOCK
  5
EC19
330
EC0F
100
AcDbEntity
  8
0
100
AcDbBlockBegin
  2
*D51
 70
     1
 10
0.0
 20
0.0
 30
0.0
  3
*D51
  1

  0
LINE
  5
F742
330
EC0F
100
AcDbEntity
  8
D-STR-DIM
370
    -2
100
AcDbLine
 10
4839.999967993539
 20
4422.769083208612
 30
0.0
 11
4839.999967993539
 21
4564.58781599759
 31
0.0
  0
LINE
  5
F743
330
EC0F
100
AcDbEntity
  8
D-STR-DIM
370
    -2
100
AcDbLine
 10
5240.000022006468
 20
4422.76908320861
 30
0.0
 11
5240.000022006468
 21
4564.58781599759
 31
0.0
  0
LINE
  5
F744
330
EC0F
100
AcDbEntity
  8
D-STR-DIM
370
    -2
100
AcDbLine
 10
4864.999967993539
 20
4544.587815997591
 30
0.0
 11
5215.000022006468
 21
4544.587815997591
 31
0.0
  0
INSERT
  5
F745
330
EC0F
100
AcDbEntity
  8
D-STR-DIM
370
    -2
100
AcDbBlockReference
  2
_OPEN30
 10
4839.999967993539
 20
4544.587815997591
 30
0.0
 41
25.0
 42
25.0
 43
25.0
 50
180.0
  0
INSERT
  5
F746
330
EC0F
100
AcDbEntity
  8
D-STR-DIM
370
    -2
100
AcDbBlockReference
  2
_OPEN30
 10
5240.000022006468
 20
4544.587815997591
 30
0.0
 41
25.0
 42
25.0
 43
25.0
  0
MTEXT
  5
F747
330
EC0F
100
AcDbEntity
  8
D-STR-DIM
100
AcDbMText
 10
5039.999995000004
 20
4569.587815997591
 30
0.0
 40
30.0
 41
0.0
 71
     5
 72
     1
  1
400
 73
     1
 44
1.0
  0
POINT
  5
F748
330
EC0F
100
AcDbEntity
  8
DEFPOINTS
 62
     0
100
AcDbPoint
 10
4839.999967993539
 20
4412.769083208611
 30
0.0
  0
POINT
  5
F749
330
EC0F
100
AcDbEntity
  8
DEFPOINTS
 62
     0
100
AcDbPoint
 10
5240.000022006468
 20
4412.76908320861
 30
0.0
  0
POINT
  5
F74A
330
EC0F
100
AcDbEntity
  8
DEFPOINTS
 62
     0
100
AcDbPoint
 10
5240.000022006468
 20
4544.587815997591
 30
0.0
  0
ENDBLK
  5
EC1A
330
EC0F
100
AcDbEntity
  8
0
100
AcDbBlockEnd
  0
BLOCK
  5
EC25
330
EC1B
100
AcDbEntity
  8
0
100
AcDbBlockBegin
  2
*D52
 70
     1
 10
0.0
 20
0.0
 30
0.0
  3
*D52
  1

  0
LINE
  5
F7C1
330
EC1B
100
AcDbEntity
  8
D-STR-DIM
370
    -2
100
AcDbLine
 10
4769.999893070816
 20
4422.769083208612
 30
0.0
 11
4769.999893070816
 21
4564.58781599759
 31
0.0
  0
LINE
  5
F7C2
330
EC1B
100
AcDbEntity
  8
D-STR-DIM
370
    -2
100
AcDbLine
 10
4839.999967993539
 20
4422.769083208612
 30
0.0
 11
4839.999967993539
 21
4564.58781599759
 31
0.0
  0
LINE
  5
F7C3
330
EC1B
100
AcDbEntity
  8
D-STR-DIM
370
    -2
100
AcDbLine
 10
4794.999893070817
 20
4544.587815997591
 30
0.0
 11
4814.999967993539
 21
4544.587815997591
 31
0.0
  0
INSERT
  5
F7C4
330
EC1B
100
AcDbEntity
  8
D-STR-DIM
370
    -2
100
AcDbBlockReference
  2
_OPEN30
 10
4769.999893070816
 20
4544.587815997591
 30
0.0
 41
25.0
 42
25.0
 43
25.0
 50
180.0
  0
INSERT
  5
F7C5
330
EC1B
100
AcDbEntity
  8
D-STR-DIM
370
    -2
100
AcDbBlockReference
  2
_OPEN30
 10
4839.999967993539
 20
4544.587815997591
 30
0.0
 41
25.0
 42
25.0
 43
25.0
  0
MTEXT
  5
F7C6
330
EC1B
100
AcDbEntity
  8
D-STR-DIM
100
AcDbMText
 10
4804.999930532178
 20
4569.587815997591
 30
0.0
 40
30.0
 41
0.0
 71
     5
 72
     1
  1
70
 73
     1
 44
1.0
  0
POINT
  5
F7C7
330
EC1B
100
AcDbEntity
  8
DEFPOINTS
 62
     0
100
AcDbPoint
 10
4769.999893070816
 20
4412.769083208611
 30
0.0
  0
POINT
  5
F7C8
330
EC1B
100
AcDbEntity
  8
DEFPOINTS
 62
     0
100
AcDbPoint
 10
4839.999967993539
 20
4412.769083208611
 30
0.0
  0
POINT
  5
F7C9
330
EC1B
100
AcDbEntity
  8
DEFPOINTS
 62
     0
100
AcDbPoint
 10
4839.999967993539
 20
4544.587815997591
 30
0.0
  0
ENDBLK
  5
EC26
330
EC1B
100
AcDbEntity
  8
0
100
AcDbBlockEnd
  0
BLOCK
  5
EC31
330
EC27
100
AcDbEntity
  8
0
100
AcDbBlockBegin
  2
*D53
 70
     1
 10
0.0
 20
0.0
 30
0.0
  3
*D53
  1

  0
LINE
  5
F7E0
330
EC27
100
AcDbEntity
  8
D-STR-DIM
370
    -2
100
AcDbLine
 10
5240.000022006468
 20
4422.76908320861
 30
0.0
 11
5240.000022006468
 21
4564.58781599759
 31
0.0
  0
LINE
  5
F7E1
330
EC27
100
AcDbEntity
  8
D-STR-DIM
370
    -2
100
AcDbLine
 10
5310.000106819295
 20
4422.769083208612
 30
0.0
 11
5310.000106819295
 21
4564.58781599759
 31
0.0
  0
LINE
  5
F7E2
330
EC27
100
AcDbEntity
  8
D-STR-DIM
370
    -2
100
AcDbLine
 10
5265.000022006468
 20
4544.587815997591
 30
0.0
 11
5285.000106819294
 21
4544.587815997591
 31
0.0
  0
INSERT
  5
F7E3
330
EC27
100
AcDbEntity
  8
D-STR-DIM
370
    -2
100
AcDbBlockReference
  2
_OPEN30
 10
5240.000022006468
 20
4544.587815997591
 30
0.0
 41
25.0
 42
25.0
 43
25.0
 50
180.0
  0
INSERT
  5
F7E4
330
EC27
100
AcDbEntity
  8
D-STR-DIM
370
    -2
100
AcDbBlockReference
  2
_OPEN30
 10
5310.000106819295
 20
4544.587815997591
 30
0.0
 41
25.0
 42
25.0
 43
25.0
  0
MTEXT
  5
F7E5
330
EC27
100
AcDbEntity
  8
D-STR-DIM
100
AcDbMText
 10
5275.000064412882
 20
4569.587815997591
 30
0.0
 40
30.0
 41
0.0
 71
     5
 72
     1
  1
70
 73
     1
 44
1.0
  0
POINT
  5
F7E6
330
EC27
100
AcDbEntity
  8
DEFPOINTS
 62
     0
100
AcDbPoint
 10
5240.000022006468
 20
4412.76908320861
 30
0.0
  0
POINT
  5
F7E7
330
EC27
100
AcDbEntity
  8
DEFPOINTS
 62
     0
100
AcDbPoint
 10
5310.000106819295
 20
4412.769083208611
 30
0.0
  0
POINT
  5
F7E8
330
EC27
100
AcDbEntity
  8
DEFPOINTS
 62
     0
100
AcDbPoint
 10
5310.000106819295
 20
4544.587815997591
 30
0.0
  0
ENDBLK
  5
EC32
330
EC27
100
AcDbEntity
  8
0
100
AcDbBlockEnd
  0
BLOCK
  5
ECEA
330
ECDE
100
AcDbEntity
  8
0
100
AcDbBlockBegin
  2
*D54
 70
     1
 10
0.0
 20
0.0
 30
0.0
  3
*D54
  1

  0
LINE
  5
F7CA
330
ECDE
100
AcDbEntity
  8
D-STR-DIM
370
    -2
100
AcDbLine
 10
4699.985123828113
 20
4872.76918792175
 30
0.0
 11
4699.985123828113
 21
5032.76918320861
 31
0.0
  0
LINE
  5
F7CB
330
ECDE
100
AcDbEntity
  8
D-STR-DIM
370
    -2
100
AcDbLine
 10
4759.999903055235
 20
4872.76918792175
 30
0.0
 11
4759.999903055235
 21
5032.76918320861
 31
0.0
  0
LINE
  5
F7CC
330
ECDE
100
AcDbEntity
  8
D-STR-DIM
370
    -2
100
AcDbLine
 10
4674.985123828114
 20
5012.769183208611
 30
0.0
 11
4649.985123828114
 21
5012.769183208611
 31
0.0
  0
LINE
  5
F7CD
330
ECDE
100
AcDbEntity
  8
D-STR-DIM
370
    -2
100
AcDbLine
 10
4784.999903055235
 20
5012.769183208611
 30
0.0
 11
4809.999903055235
 21
5012.769183208611
 31
0.0
  0
LINE
  5
F7CE
330
ECDE
100
AcDbEntity
  8
D-STR-DIM
370
    -2
100
AcDbLine
 10
4699.985123828113
 20
5012.769183208611
 30
0.0
 11
4759.999903055235
 21
5012.769183208611
 31
0.0
  0
INSERT
  5
F7CF
330
ECDE
100
AcDbEntity
  8
D-STR-DIM
370
    -2
100
AcDbBlockReference
  2
_OPEN30
 10
4699.985123828113
 20
5012.769183208611
 30
0.0
 41
25.0
 42
25.0
 43
25.0
  0
INSERT
  5
F7D0
330
ECDE
100
AcDbEntity
  8
D-STR-DIM
370
    -2
100
AcDbBlockReference
  2
_OPEN30
 10
4759.999903055235
 20
5012.769183208611
 30
0.0
 41
25.0
 42
25.0
 43
25.0
 50
180.0
  0
MTEXT
  5
F7D1
330
ECDE
100
AcDbEntity
  8
D-STR-DIM
100
AcDbMText
 10
4729.992513441675
 20
5037.769183208611
 30
0.0
 40
30.0
 41
0.0
 71
     5
 72
     1
  1
60
 73
     1
 44
1.0
  0
POINT
  5
F7D2
330
ECDE
100
AcDbEntity
  8
DEFPOINTS
 62
     0
100
AcDbPoint
 10
4699.985123828113
 20
4862.769187921751
 30
0.0
  0
POINT
  5
F7D3
330
ECDE
100
AcDbEntity
  8
DEFPOINTS
 62
     0
100
AcDbPoint
 10
4759.999903055235
 20
4862.769187921749
 30
0.0
  0
POINT
  5
F7D4
330
ECDE
100
AcDbEntity
  8
DEFPOINTS
 62
     0
100
AcDbPoint
 10
4759.999903055235
 20
5012.769183208611
 30
0.0
  0
ENDBLK
  5
ECEB
330
ECDE
100
AcDbEntity
  8
0
100
AcDbBlockEnd
  0
BLOCK
  5
ED06
330
ECFA
100
AcDbEntity
  8
0
100
AcDbBlockBegin
  2
*D55
 70
     1
 10
0.0
 20
0.0
 30
0.0
  3
*D55
  1

  0
LINE
  5
F7F2
330
ECFA
100
AcDbEntity
  8
D-STR-DIM
370
    -2
100
AcDbLine
 10
5320.00004945713
 20
4872.76918792175
 30
0.0
 11
5320.00004945713
 21
5032.76918320861
 31
0.0
  0
LINE
  5
F7F3
330
ECFA
100
AcDbEntity
  8
D-STR-DIM
370
    -2
100
AcDbLine
 10
5380.014916171901
 20
4872.76918792175
 30
0.0
 11
5380.014916171901
 21
5032.76918320861
 31
0.0
  0
LINE
  5
F7F4
330
ECFA
100
AcDbEntity
  8
D-STR-DIM
370
    -2
100
AcDbLine
 10
5295.000049457129
 20
5012.769183208611
 30
0.0
 11
5270.00004945713
 21
5012.769183208611
 31
0.0
  0
LINE
  5
F7F5
330
ECFA
100
AcDbEntity
  8
D-STR-DIM
370
    -2
100
AcDbLine
 10
5405.014916171902
 20
5012.769183208611
 30
0.0
 11
5430.014916171902
 21
5012.769183208611
 31
0.0
  0
LINE
  5
F7F6
330
ECFA
100
AcDbEntity
  8
D-STR-DIM
370
    -2
100
AcDbLine
 10
5320.00004945713
 20
5012.769183208611
 30
0.0
 11
5380.014916171901
 21
5012.769183208611
 31
0.0
  0
INSERT
  5
F7F7
330
ECFA
100
AcDbEntity
  8
D-STR-DIM
370
    -2
100
AcDbBlockReference
  2
_OPEN30
 10
5320.00004945713
 20
5012.769183208611
 30
0.0
 41
25.0
 42
25.0
 43
25.0
  0
INSERT
  5
F7F8
330
ECFA
100
AcDbEntity
  8
D-STR-DIM
370
    -2
100
AcDbBlockReference
  2
_OPEN30
 10
5380.014916171901
 20
5012.769183208611
 30
0.0
 41
25.0
 42
25.0
 43
25.0
 50
180.0
  0
MTEXT
  5
F7F9
330
ECFA
100
AcDbEntity
  8
D-STR-DIM
100
AcDbMText
 10
5350.007482814515
 20
5037.769183208611
 30
0.0
 40
30.0
 41
0.0
 71
     5
 72
     1
  1
60
 73
     1
 44
1.0
  0
POINT
  5
F7FA
330
ECFA
100
AcDbEntity
  8
DEFPOINTS
 62
     0
100
AcDbPoint
 10
5320.00004945713
 20
4862.769187921749
 30
0.0
  0
POINT
  5
F7FB
330
ECFA
100
AcDbEntity
  8
DEFPOINTS
 62
     0
100
AcDbPoint
 10
5380.014916171901
 20
4862.769187921751
 30
0.0
  0
POINT
  5
F7FC
330
ECFA
100
AcDbEntity
  8
DEFPOINTS
 62
     0
100
AcDbPoint
 10
5380.014916171901
 20
5012.769183208611
 30
0.0
  0
ENDBLK
  5
ED07
330
ECFA
100
AcDbEntity
  8
0
100
AcDbBlockEnd
  0
BLOCK
  5
F131
330
F125
100
AcDbEntity
  8
0
100
AcDbBlockBegin
  2
*D56
 70
     1
 10
0.0
 20
0.0
 30
0.0
  3
*D56
  1

  0
LINE
  5
F588
330
F125
100
AcDbEntity
  8
D-STR-DIM
370
    -2
100
AcDbLine
 10
1354.999997054287
 20
2571.626454731598
 30
0.0
 11
1354.999997054287
 21
2714.395668399105
 31
0.0
  0
LINE
  5
F589
330
F125
100
AcDbEntity
  8
D-STR-DIM
370
    -2
100
AcDbLine
 10
1404.999889830364
 20
2571.626454731598
 30
0.0
 11
1404.999889830364
 21
2714.395668399105
 31
0.0
  0
LINE
  5
F58A
330
F125
100
AcDbEntity
  8
D-STR-DIM
370
    -2
100
AcDbLine
 10
1329.999997054287
 20
2694.395668399105
 30
0.0
 11
1304.999997054287
 21
2694.395668399105
 31
0.0
  0
LINE
  5
F58B
330
F125
100
AcDbEntity
  8
D-STR-DIM
370
    -2
100
AcDbLine
 10
1429.999889830364
 20
2694.395668399105
 30
0.0
 11
1454.999889830364
 21
2694.395668399105
 31
0.0
  0
LINE
  5
F58C
330
F125
100
AcDbEntity
  8
D-STR-DIM
370
    -2
100
AcDbLine
 10
1354.999997054287
 20
2694.395668399105
 30
0.0
 11
1404.999889830364
 21
2694.395668399105
 31
0.0
  0
INSERT
  5
F58D
330
F125
100
AcDbEntity
  8
D-STR-DIM
370
    -2
100
AcDbBlockReference
  2
_OPEN30
 10
1354.999997054287
 20
2694.395668399105
 30
0.0
 41
25.0
 42
25.0
 43
25.0
  0
INSERT
  5
F58E
330
F125
100
AcDbEntity
  8
D-STR-DIM
370
    -2
100
AcDbBlockReference
  2
_OPEN30
 10
1404.999889830364
 20
2694.395668399105
 30
0.0
 41
25.0
 42
25.0
 43
25.0
 50
180.0
  0
MTEXT
  5
F58F
330
F125
100
AcDbEntity
  8
D-STR-DIM
100
AcDbMText
 10
1379.999943442326
 20
2719.395668399105
 30
0.0
 40
30.0
 41
0.0
 71
     5
 72
     1
  1
50
 73
     1
 44
1.0
  0
POINT
  5
F590
330
F125
100
AcDbEntity
  8
DEFPOINTS
 62
     0
100
AcDbPoint
 10
1354.999997054287
 20
2561.626454731598
 30
0.0
  0
POINT
  5
F591
330
F125
100
AcDbEntity
  8
DEFPOINTS
 62
     0
100
AcDbPoint
 10
1404.999889830364
 20
2561.626454731598
 30
0.0
  0
POINT
  5
F592
330
F125
100
AcDbEntity
  8
DEFPOINTS
 62
     0
100
AcDbPoint
 10
1404.999889830364
 20
2694.395668399105
 30
0.0
  0
ENDBLK
  5
F132
330
F125
100
AcDbEntity
  8
0
100
AcDbBlockEnd
  0
BLOCK
  5
F14B
330
F141
100
AcDbEntity
  8
0
100
AcDbBlockBegin
  2
*D57
 70
     1
 10
0.0
 20
0.0
 30
0.0
  3
*D57
  1

  0
LINE
  5
F54A
330
F141
100
AcDbEntity
  8
D-STR-DIM
370
    -2
100
AcDbLine
 10
1404.999889830364
 20
2571.626454731598
 30
0.0
 11
1404.999889830364
 21
2714.395668399105
 31
0.0
  0
LINE
  5
F54B
330
F141
100
AcDbEntity
  8
D-STR-DIM
370
    -2
100
AcDbLine
 10
2005.000002945712
 20
2571.626454731598
 30
0.0
 11
2005.000002945712
 21
2714.395668399105
 31
0.0
  0
LINE
  5
F54C
330
F141
100
AcDbEntity
  8
D-STR-DIM
370
    -2
100
AcDbLine
 10
1429.999889830364
 20
2694.395668399105
 30
0.0
 11
1980.000002945712
 21
2694.395668399105
 31
0.0
  0
INSERT
  5
F54D
330
F141
100
AcDbEntity
  8
D-STR-DIM
370
    -2
100
AcDbBlockReference
  2
_OPEN30
 10
1404.999889830364
 20
2694.395668399105
 30
0.0
 41
25.0
 42
25.0
 43
25.0
 50
180.0
  0
INSERT
  5
F54E
330
F141
100
AcDbEntity
  8
D-STR-DIM
370
    -2
100
AcDbBlockReference
  2
_OPEN30
 10
2005.000002945712
 20
2694.395668399105
 30
0.0
 41
25.0
 42
25.0
 43
25.0
  0
MTEXT
  5
F54F
330
F141
100
AcDbEntity
  8
D-STR-DIM
100
AcDbMText
 10
1704.999946388038
 20
2719.395668399105
 30
0.0
 40
30.0
 41
0.0
 71
     5
 72
     1
  1
600
 73
     1
 44
1.0
  0
POINT
  5
F550
330
F141
100
AcDbEntity
  8
DEFPOINTS
 62
     0
100
AcDbPoint
 10
1404.999889830364
 20
2561.626454731598
 30
0.0
  0
POINT
  5
F551
330
F141
100
AcDbEntity
  8
DEFPOINTS
 62
     0
100
AcDbPoint
 10
2005.000002945712
 20
2561.626454731598
 30
0.0
  0
POINT
  5
F552
330
F141
100
AcDbEntity
  8
DEFPOINTS
 62
     0
100
AcDbPoint
 10
2005.000002945712
 20
2694.395668399105
 30
0.0
  0
ENDBLK
  5
F14C
330
F141
100
AcDbEntity
  8
0
100
AcDbBlockEnd
  0
BLOCK
  5
F163
330
F159
100
AcDbEntity
  8
0
100
AcDbBlockBegin
  2
*D58
 70
     1
 10
0.0
 20
0.0
 30
0.0
  3
*D58
  1

  0
LINE
  5
F57F
330
F159
100
AcDbEntity
  8
D-STR-DIM
370
    -2
100
AcDbLine
 10
1344.999997054287
 20
2561.626454731598
 30
0.0
 11
1177.963895144337
 21
2561.626454731598
 31
0.0
  0
LINE
  5
F580
330
F159
100
AcDbEntity
  8
D-STR-DIM
370
    -2
100
AcDbLine
 10
1344.999997054287
 20
2261.626485661576
 30
0.0
 11
1177.963895144337
 21
2261.626485661576
 31
0.0
  0
LINE
  5
F581
330
F159
100
AcDbEntity
  8
D-STR-DIM
370
    -2
100
AcDbLine
 10
1197.963895144337
 20
2536.626454731598
 30
0.0
 11
1197.963895144337
 21
2286.626485661576
 31
0.0
  0
INSERT
  5
F582
330
F159
100
AcDbEntity
  8
D-STR-DIM
370
    -2
100
AcDbBlockReference
  2
_OPEN30
 10
1197.963895144337
 20
2561.626454731598
 30
0.0
 41
25.0
 42
25.0
 43
25.0
 50
90.0
  0
INSERT
  5
F583
330
F159
100
AcDbEntity
  8
D-STR-DIM
370
    -2
100
AcDbBlockReference
  2
_OPEN30
 10
1197.963895144337
 20
2261.626485661576
 30
0.0
 41
25.0
 42
25.0
 43
25.0
 50
270.0
  0
MTEXT
  5
F584
330
F159
100
AcDbEntity
  8
D-STR-DIM
100
AcDbMText
 10
1172.963895144337
 20
2411.626470196587
 30
0.0
 40
30.0
 41
0.0
 71
     5
 72
     1
  1
300
 11
0.0000000000000001
 21
1.0
 31
0.0
 73
     1
 44
1.0
  0
POINT
  5
F585
330
F159
100
AcDbEntity
  8
DEFPOINTS
 62
     0
100
AcDbPoint
 10
1354.999997054287
 20
2561.626454731598
 30
0.0
  0
POINT
  5
F586
330
F159
100
AcDbEntity
  8
DEFPOINTS
 62
     0
100
AcDbPoint
 10
1354.999997054287
 20
2261.626485661576
 30
0.0
  0
POINT
  5
F587
330
F159
100
AcDbEntity
  8
DEFPOINTS
 62
     0
100
AcDbPoint
 10
1197.963895144337
 20
2261.626485661576
 30
0.0
  0
ENDBLK
  5
F164
330
F159
100
AcDbEntity
  8
0
100
AcDbBlockEnd
  0
BLOCK
  5
F180
330
F171
100
AcDbEntity
  8
0
100
AcDbBlockBegin
  2
*D59
 70
     1
 10
0.0
 20
0.0
 30
0.0
  3
*D59
  1

  0
LINE
  5
F574
330
F171
100
AcDbEntity
  8
D-STR-DIM
370
    -2
100
AcDbLine
 10
1344.999997054287
 20
2261.626485661576
 30
0.0
 11
1177.963895144337
 21
2261.626485661576
 31
0.0
  0
LINE
  5
F575
330
F171
100
AcDbEntity
  8
D-STR-DIM
370
    -2
100
AcDbLine
 10
1344.999997054287
 20
2236.626451785887
 30
0.0
 11
1177.963895144337
 21
2236.626451785887
 31
0.0
  0
LINE
  5
F576
330
F171
100
AcDbEntity
  8
D-STR-DIM
370
    -2
100
AcDbLine
 10
1197.963895144337
 20
2286.626485661576
 30
0.0
 11
1197.963895144337
 21
2311.626485661576
 31
0.0
  0
LINE
  5
F577
330
F171
100
AcDbEntity
  8
D-STR-DIM
370
    -2
100
AcDbLine
 10
1197.963895144337
 20
2211.626451785887
 30
0.0
 11
1197.963895144337
 21
2186.626451785887
 31
0.0
  0
MTEXT
  5
F578
330
F171
100
AcDbEntity
  8
D-STR-DIM
100
AcDbMText
 10
1172.963895144337
 20
2249.126468723731
 30
0.0
 40
30.0
 41
0.0
 71
     5
 72
     1
  1
25
 11
0.0000000000000001
 21
1.0
 31
0.0
 73
     1
 44
1.0
  0
LINE
  5
F579
330
F171
100
AcDbEntity
  8
D-STR-DIM
370
    -2
100
AcDbLine
 10
1197.963895144337
 20
2261.626485661576
 30
0.0
 11
1197.963895144337
 21
2236.626451785887
 31
0.0
  0
INSERT
  5
F57A
330
F171
100
AcDbEntity
  8
D-STR-DIM
370
    -2
100
AcDbBlockReference
  2
_OPEN30
 10
1197.963895144337
 20
2261.626485661576
 30
0.0
 41
25.0
 42
25.0
 43
25.0
 50
270.0
  0
INSERT
  5
F57B
330
F171
100
AcDbEntity
  8
D-STR-DIM
370
    -2
100
AcDbBlockReference
  2
_OPEN30
 10
1197.963895144337
 20
2236.626451785887
 30
0.0
 41
25.0
 42
25.0
 43
25.0
 50
90.0
  0
POINT
  5
F57C
330
F171
100
AcDbEntity
  8
DEFPOINTS
 62
     0
100
AcDbPoint
 10
1354.999997054287
 20
2261.626485661576
 30
0.0
  0
POINT
  5
F57D
330
F171
100
AcDbEntity
  8
DEFPOINTS
 62
     0
100
AcDbPoint
 10
1354.999997054287
 20
2236.626451785887
 30
0.0
  0
POINT
  5
F57E
330
F171
100
AcDbEntity
  8
DEFPOINTS
 62
     0
100
AcDbPoint
 10
1197.963895144337
 20
2236.626451785887
 30
0.0
  0
ENDBLK
  5
F181
330
F171
100
AcDbEntity
  8
0
100
AcDbBlockEnd
  0
BLOCK
  5
F1AA
330
F19E
100
AcDbEntity
  8
0
100
AcDbBlockBegin
  2
*D60
 70
     1
 10
0.0
 20
0.0
 30
0.0
  3
*D60
  1

  0
LINE
  5
F569
330
F19E
100
AcDbEntity
  8
D-STR-DIM
370
    -2
100
AcDbLine
 10
1344.999997054287
 20
2261.626485661576
 30
0.0
 11
1253.135178292305
 21
2261.626485661576
 31
0.0
  0
LINE
  5
F56A
330
F19E
100
AcDbEntity
  8
D-STR-DIM
370
    -2
100
AcDbLine
 10
1344.999997054287
 20
2271.6264117242
 30
0.0
 11
1253.135178292305
 21
2271.6264117242
 31
0.0
  0
LINE
  5
F56B
330
F19E
100
AcDbEntity
  8
D-STR-DIM
370
    -2
100
AcDbLine
 10
1273.135178292305
 20
2236.626485661576
 30
0.0
 11
1273.135178292305
 21
2211.626485661576
 31
0.0
  0
LINE
  5
F56C
330
F19E
100
AcDbEntity
  8
D-STR-DIM
370
    -2
100
AcDbLine
 10
1273.135178292305
 20
2296.6264117242
 30
0.0
 11
1273.135178292305
 21
2321.626411724201
 31
0.0
  0
LINE
  5
F56D
330
F19E
100
AcDbEntity
  8
D-STR-DIM
370
    -2
100
AcDbLine
 10
1273.135178292305
 20
2261.626485661576
 30
0.0
 11
1273.135178292305
 21
2271.6264117242
 31
0.0
  0
INSERT
  5
F56E
330
F19E
100
AcDbEntity
  8
D-STR-DIM
370
    -2
100
AcDbBlockReference
  2
_OPEN30
 10
1273.135178292305
 20
2261.626485661576
 30
0.0
 41
25.0
 42
25.0
 43
25.0
 50
90.0
  0
INSERT
  5
F56F
330
F19E
100
AcDbEntity
  8
D-STR-DIM
370
    -2
100
AcDbBlockReference
  2
_OPEN30
 10
1273.135178292305
 20
2271.6264117242
 30
0.0
 41
25.0
 42
25.0
 43
25.0
 50
270.0
  0
MTEXT
  5
F570
330
F19E
100
AcDbEntity
  8
D-STR-DIM
100
AcDbMText
 10
1248.135178292304
 20
2266.626448692889
 30
0.0
 40
30.0
 41
0.0
 71
     5
 72
     1
  1
10
 11
0.0000000000000001
 21
1.0
 31
0.0
 73
     1
 44
1.0
  0
POINT
  5
F571
330
F19E
100
AcDbEntity
  8
DEFPOINTS
 62
     0
100
AcDbPoint
 10
1354.999997054287
 20
2261.626485661576
 30
0.0
  0
POINT
  5
F572
330
F19E
100
AcDbEntity
  8
DEFPOINTS
 62
     0
100
AcDbPoint
 10
1354.999997054287
 20
2271.6264117242
 30
0.0
  0
POINT
  5
F573
330
F19E
100
AcDbEntity
  8
DEFPOINTS
 62
     0
100
AcDbPoint
 10
1273.135178292305
 20
2271.6264117242
 30
0.0
  0
ENDBLK
  5
F1AB
330
F19E
100
AcDbEntity
  8
0
100
AcDbBlockEnd
  0
BLOCK
  5
F1E7
330
F1DB
100
AcDbEntity
  8
0
100
AcDbBlockBegin
  2
*D61
 70
     1
 10
0.0
 20
0.0
 30
0.0
  3
*D61
  1

  0
LINE
  5
F55E
330
F1DB
100
AcDbEntity
  8
D-STR-DIM
370
    -2
100
AcDbLine
 10
1354.999997054287
 20
2226.626451785887
 30
0.0
 11
1354.999997054287
 21
2084.610734115882
 31
0.0
  0
LINE
  5
F55F
330
F1DB
100
AcDbEntity
  8
D-STR-DIM
370
    -2
100
AcDbLine
 10
1415.000078355943
 20
2226.626451785887
 30
0.0
 11
1415.000078355943
 21
2084.610734115882
 31
0.0
  0
LINE
  5
F560
330
F1DB
100
AcDbEntity
  8
D-STR-DIM
370
    -2
100
AcDbLine
 10
1329.999997054287
 20
2104.610734115882
 30
0.0
 11
1304.999997054287
 21
2104.610734115882
 31
0.0
  0
LINE
  5
F561
330
F1DB
100
AcDbEntity
  8
D-STR-DIM
370
    -2
100
AcDbLine
 10
1440.000078355943
 20
2104.610734115882
 30
0.0
 11
1465.000078355943
 21
2104.610734115882
 31
0.0
  0
LINE
  5
F562
330
F1DB
100
AcDbEntity
  8
D-STR-DIM
370
    -2
100
AcDbLine
 10
1354.999997054287
 20
2104.610734115882
 30
0.0
 11
1415.000078355943
 21
2104.610734115882
 31
0.0
  0
INSERT
  5
F563
330
F1DB
100
AcDbEntity
  8
D-STR-DIM
370
    -2
100
AcDbBlockReference
  2
_OPEN30
 10
1354.999997054287
 20
2104.610734115882
 30
0.0
 41
25.0
 42
25.0
 43
25.0
  0
INSERT
  5
F564
330
F1DB
100
AcDbEntity
  8
D-STR-DIM
370
    -2
100
AcDbBlockReference
  2
_OPEN30
 10
1415.000078355943
 20
2104.610734115882
 30
0.0
 41
25.0
 42
25.0
 43
25.0
 50
180.0
  0
MTEXT
  5
F565
330
F1DB
100
AcDbEntity
  8
D-STR-DIM
100
AcDbMText
 10
1385.000037705115
 20
2129.610734115882
 30
0.0
 40
30.0
 41
0.0
 71
     5
 72
     1
  1
60
 73
     1
 44
1.0
  0
POINT
  5
F566
330
F1DB
100
AcDbEntity
  8
DEFPOINTS
 62
     0
100
AcDbPoint
 10
1354.999997054287
 20
2236.626451785887
 30
0.0
  0
POINT
  5
F567
330
F1DB
100
AcDbEntity
  8
DEFPOINTS
 62
     0
100
AcDbPoint
 10
1415.000078355943
 20
2236.626451785887
 30
0.0
  0
POINT
  5
F568
330
F1DB
100
AcDbEntity
  8
DEFPOINTS
 62
     0
100
AcDbPoint
 10
1415.000078355943
 20
2104.610734115882
 30
0.0
  0
ENDBLK
  5
F1E8
330
F1DB
100
AcDbEntity
  8
0
100
AcDbBlockEnd
  0
BLOCK
  5
F206
330
F1F7
100
AcDbEntity
  8
0
100
AcDbBlockBegin
  2
*D62
 70
     1
 10
0.0
 20
0.0
 30
0.0
  3
*D62
  1

  0
LINE
  5
F553
330
F1F7
100
AcDbEntity
  8
D-STR-DIM
370
    -2
100
AcDbLine
 10
1415.000078355943
 20
2226.626451785887
 30
0.0
 11
1415.000078355943
 21
2084.610734115882
 31
0.0
  0
LINE
  5
F554
330
F1F7
100
AcDbEntity
  8
D-STR-DIM
370
    -2
100
AcDbLine
 10
1444.999944031468
 20
2261.626499211852
 30
0.0
 11
1444.999944031468
 21
2084.610734115882
 31
0.0
  0
LINE
  5
F555
330
F1F7
100
AcDbEntity
  8
D-STR-DIM
370
    -2
100
AcDbLine
 10
1390.000078355943
 20
2104.610734115882
 30
0.0
 11
1365.000078355943
 21
2104.610734115882
 31
0.0
  0
LINE
  5
F556
330
F1F7
100
AcDbEntity
  8
D-STR-DIM
370
    -2
100
AcDbLine
 10
1469.999944031468
 20
2104.610734115882
 30
0.0
 11
1494.999944031468
 21
2104.610734115882
 31
0.0
  0
MTEXT
  5
F557
330
F1F7
100
AcDbEntity
  8
D-STR-DIM
100
AcDbMText
 10
1430.000011193706
 20
2129.610734115882
 30
0.0
 40
30.0
 41
0.0
 71
     5
 72
     1
  1
30
 73
     1
 44
1.0
  0
LINE
  5
F558
330
F1F7
100
AcDbEntity
  8
D-STR-DIM
370
    -2
100
AcDbLine
 10
1415.000078355943
 20
2104.610734115882
 30
0.0
 11
1444.999944031468
 21
2104.610734115882
 31
0.0
  0
INSERT
  5
F559
330
F1F7
100
AcDbEntity
  8
D-STR-DIM
370
    -2
100
AcDbBlockReference
  2
_OPEN30
 10
1415.000078355943
 20
2104.610734115882
 30
0.0
 41
25.0
 42
25.0
 43
25.0
  0
INSERT
  5
F55A
330
F1F7
100
AcDbEntity
  8
D-STR-DIM
370
    -2
100
AcDbBlockReference
  2
_OPEN30
 10
1444.999944031468
 20
2104.610734115882
 30
0.0
 41
25.0
 42
25.0
 43
25.0
 50
180.0
  0
POINT
  5
F55B
330
F1F7
100
AcDbEntity
  8
DEFPOINTS
 62
     0
100
AcDbPoint
 10
1415.000078355943
 20
2236.626451785887
 30
0.0
  0
POINT
  5
F55C
330
F1F7
100
AcDbEntity
  8
DEFPOINTS
 62
     0
100
AcDbPoint
 10
1444.999944031468
 20
2271.626499211852
 30
0.0
  0
POINT
  5
F55D
330
F1F7
100
AcDbEntity
  8
DEFPOINTS
 62
     0
100
AcDbPoint
 10
1444.999944031468
 20
2104.610734115882
 30
0.0
  0
ENDBLK
  5
F207
330
F1F7
100
AcDbEntity
  8
0
100
AcDbBlockEnd
  0
BLOCK
  5
F223
330
F219
100
AcDbEntity
  8
0
100
AcDbBlockBegin
  2
*D63
 70
     1
 10
0.0
 20
0.0
 30
0.0
  3
*D63
  1

  0
LINE
  5
F541
330
F219
100
AcDbEntity
  8
D-STR-DIM
370
    -2
100
AcDbLine
 10
1444.999944031468
 20
2261.626499211852
 30
0.0
 11
1444.999944031468
 21
2084.610734115882
 31
0.0
  0
LINE
  5
F542
330
F219
100
AcDbEntity
  8
D-STR-DIM
370
    -2
100
AcDbLine
 10
2005.000002945712
 20
2261.626499211852
 30
0.0
 11
2005.000002945712
 21
2084.610734115882
 31
0.0
  0
LINE
  5
F543
330
F219
100
AcDbEntity
  8
D-STR-DIM
370
    -2
100
AcDbLine
 10
1469.999944031468
 20
2104.610734115882
 30
0.0
 11
1980.000002945712
 21
2104.610734115882
 31
0.0
  0
INSERT
  5
F544
330
F219
100
AcDbEntity
  8
D-STR-DIM
370
    -2
100
AcDbBlockReference
  2
_OPEN30
 10
1444.999944031468
 20
2104.610734115882
 30
0.0
 41
25.0
 42
25.0
 43
25.0
 50
180.0
  0
INSERT
  5
F545
330
F219
100
AcDbEntity
  8
D-STR-DIM
370
    -2
100
AcDbBlockReference
  2
_OPEN30
 10
2005.000002945712
 20
2104.610734115882
 30
0.0
 41
25.0
 42
25.0
 43
25.0
  0
MTEXT
  5
F546
330
F219
100
AcDbEntity
  8
D-STR-DIM
100
AcDbMText
 10
1724.99997348859
 20
2129.610734115882
 30
0.0
 40
30.0
 41
0.0
 71
     5
 72
     1
  1
560
 73
     1
 44
1.0
  0
POINT
  5
F547
330
F219
100
AcDbEntity
  8
DEFPOINTS
 62
     0
100
AcDbPoint
 10
1444.999944031468
 20
2271.626499211852
 30
0.0
  0
POINT
  5
F548
330
F219
100
AcDbEntity
  8
DEFPOINTS
 62
     0
100
AcDbPoint
 10
2005.000002945712
 20
2271.626499211852
 30
0.0
  0
POINT
  5
F549
330
F219
100
AcDbEntity
  8
DEFPOINTS
 62
     0
100
AcDbPoint
 10
2005.000002945712
 20
2104.610734115882
 30
0.0
  0
ENDBLK
  5
F224
330
F219
100
AcDbEntity
  8
0
100
AcDbBlockEnd
  0
BLOCK
  5
F24D
330
F241
100
AcDbEntity
  8
0
100
AcDbBlockBegin
  2
*D64
 70
     1
 10
0.0
 20
0.0
 30
0.0
  3
*D64
  1

  0
LINE
  5
F5C8
330
F241
100
AcDbEntity
  8
D-STR-DIM
370
    -2
100
AcDbLine
 10
3035.000084541939
 20
2571.626454731598
 30
0.0
 11
3035.000084541939
 21
2714.395668399105
 31
0.0
  0
LINE
  5
F5C9
330
F241
100
AcDbEntity
  8
D-STR-DIM
370
    -2
100
AcDbLine
 10
3084.999977318016
 20
2571.626454731598
 30
0.0
 11
3084.999977318016
 21
2714.395668399105
 31
0.0
  0
LINE
  5
F5CA
330
F241
100
AcDbEntity
  8
D-STR-DIM
370
    -2
100
AcDbLine
 10
3010.000084541939
 20
2694.395668399105
 30
0.0
 11
2985.000084541939
 21
2694.395668399105
 31
0.0
  0
LINE
  5
F5CB
330
F241
100
AcDbEntity
  8
D-STR-DIM
370
    -2
100
AcDbLine
 10
3109.999977318016
 20
2694.395668399105
 30
0.0
 11
3134.999977318016
 21
2694.395668399105
 31
0.0
  0
LINE
  5
F5CC
330
F241
100
AcDbEntity
  8
D-STR-DIM
370
    -2
100
AcDbLine
 10
3035.000084541939
 20
2694.395668399105
 30
0.0
 11
3084.999977318016
 21
2694.395668399105
 31
0.0
  0
INSERT
  5
F5CD
330
F241
100
AcDbEntity
  8
D-STR-DIM
370
    -2
100
AcDbBlockReference
  2
_OPEN30
 10
3035.000084541939
 20
2694.395668399105
 30
0.0
 41
25.0
 42
25.0
 43
25.0
  0
INSERT
  5
F5CE
330
F241
100
AcDbEntity
  8
D-STR-DIM
370
    -2
100
AcDbBlockReference
  2
_OPEN30
 10
3084.999977318016
 20
2694.395668399105
 30
0.0
 41
25.0
 42
25.0
 43
25.0
 50
180.0
  0
MTEXT
  5
F5CF
330
F241
100
AcDbEntity
  8
D-STR-DIM
100
AcDbMText
 10
3060.000030929977
 20
2719.395668399105
 30
0.0
 40
30.0
 41
0.0
 71
     5
 72
     1
  1
50
 73
     1
 44
1.0
  0
POINT
  5
F5D0
330
F241
100
AcDbEntity
  8
DEFPOINTS
 62
     0
100
AcDbPoint
 10
3035.000084541939
 20
2561.626454731598
 30
0.0
  0
POINT
  5
F5D1
330
F241
100
AcDbEntity
  8
DEFPOINTS
 62
     0
100
AcDbPoint
 10
3084.999977318016
 20
2561.626454731598
 30
0.0
  0
POINT
  5
F5D2
330
F241
100
AcDbEntity
  8
DEFPOINTS
 62
     0
100
AcDbPoint
 10
3084.999977318016
 20
2694.395668399105
 30
0.0
  0
ENDBLK
  5
F24E
330
F241
100
AcDbEntity
  8
0
100
AcDbBlockEnd
  0
BLOCK
  5
F259
330
F24F
100
AcDbEntity
  8
0
100
AcDbBlockBegin
  2
*D65
 70
     1
 10
0.0
 20
0.0
 30
0.0
  3
*D65
  1

  0
LINE
  5
F50B
330
F24F
100
AcDbEntity
  8
D-STR-DIM
370
    -2
100
AcDbLine
 10
3084.999977318016
 20
2571.626454731598
 30
0.0
 11
3084.999977318016
 21
2714.395668399105
 31
0.0
  0
LINE
  5
F50C
330
F24F
100
AcDbEntity
  8
D-STR-DIM
370
    -2
100
AcDbLine
 10
3685.000090433364
 20
2571.626454731598
 30
0.0
 11
3685.000090433364
 21
2714.395668399105
 31
0.0
  0
LINE
  5
F50D
330
F24F
100
AcDbEntity
  8
D-STR-DIM
370
    -2
100
AcDbLine
 10
3109.999977318016
 20
2694.395668399105
 30
0.0
 11
3660.000090433364
 21
2694.395668399105
 31
0.0
  0
INSERT
  5
F50E
330
F24F
100
AcDbEntity
  8
D-STR-DIM
370
    -2
100
AcDbBlockReference
  2
_OPEN30
 10
3084.999977318016
 20
2694.395668399105
 30
0.0
 41
25.0
 42
25.0
 43
25.0
 50
180.0
  0
INSERT
  5
F50F
330
F24F
100
AcDbEntity
  8
D-STR-DIM
370
    -2
100
AcDbBlockReference
  2
_OPEN30
 10
3685.000090433364
 20
2694.395668399105
 30
0.0
 41
25.0
 42
25.0
 43
25.0
  0
MTEXT
  5
F510
330
F24F
100
AcDbEntity
  8
D-STR-DIM
100
AcDbMText
 10
3385.00003387569
 20
2719.395668399105
 30
0.0
 40
30.0
 41
0.0
 71
     5
 72
     1
  1
600
 73
     1
 44
1.0
  0
POINT
  5
F511
330
F24F
100
AcDbEntity
  8
DEFPOINTS
 62
     0
100
AcDbPoint
 10
3084.999977318016
 20
2561.626454731598
 30
0.0
  0
POINT
  5
F512
330
F24F
100
AcDbEntity
  8
DEFPOINTS
 62
     0
100
AcDbPoint
 10
3685.000090433364
 20
2561.626454731598
 30
0.0
  0
POINT
  5
F513
330
F24F
100
AcDbEntity
  8
DEFPOINTS
 62
     0
100
AcDbPoint
 10
3685.000090433364
 20
2694.395668399105
 30
0.0
  0
ENDBLK
  5
F25A
330
F24F
100
AcDbEntity
  8
0
100
AcDbBlockEnd
  0
BLOCK
  5
F28B
330
F27F
100
AcDbEntity
  8
0
100
AcDbBlockBegin
  2
*D66
 70
     1
 10
0.0
 20
0.0
 30
0.0
  3
*D66
  1

  0
LINE
  5
F5BD
330
F27F
100
AcDbEntity
  8
D-STR-DIM
370
    -2
100
AcDbLine
 10
3024.999909566636
 20
2186.626471522156
 30
0.0
 11
2933.135090804654
 21
2186.626471522156
 31
0.0
  0
LINE
  5
F5BE
330
F27F
100
AcDbEntity
  8
D-STR-DIM
370
    -2
100
AcDbLine
 10
3024.999909566636
 20
2201.626491847571
 30
0.0
 11
2933.135090804654
 21
2201.626491847571
 31
0.0
  0
LINE
  5
F5BF
330
F27F
100
AcDbEntity
  8
D-STR-DIM
370
    -2
100
AcDbLine
 10
2953.135090804654
 20
2161.626471522156
 30
0.0
 11
2953.135090804654
 21
2136.626471522157
 31
0.0
  0
LINE
  5
F5C0
330
F27F
100
AcDbEntity
  8
D-STR-DIM
370
    -2
100
AcDbLine
 10
2953.135090804654
 20
2226.626491847571
 30
0.0
 11
2953.135090804654
 21
2251.626491847571
 31
0.0
  0
LINE
  5
F5C1
330
F27F
100
AcDbEntity
  8
D-STR-DIM
370
    -2
100
AcDbLine
 10
2953.135090804654
 20
2186.626471522156
 30
0.0
 11
2953.135090804654
 21
2201.626491847571
 31
0.0
  0
INSERT
  5
F5C2
330
F27F
100
AcDbEntity
  8
D-STR-DIM
370
    -2
100
AcDbBlockReference
  2
_OPEN30
 10
2953.135090804654
 20
2186.626471522156
 30
0.0
 41
25.0
 42
25.0
 43
25.0
 50
90.0
  0
INSERT
  5
F5C3
330
F27F
100
AcDbEntity
  8
D-STR-DIM
370
    -2
100
AcDbBlockReference
  2
_OPEN30
 10
2953.135090804654
 20
2201.626491847571
 30
0.0
 41
25.0
 42
25.0
 43
25.0
 50
270.0
  0
MTEXT
  5
F5C4
330
F27F
100
AcDbEntity
  8
D-STR-DIM
100
AcDbMText
 10
2928.135090804653
 20
2194.126481684864
 30
0.0
 40
30.0
 41
0.0
 71
     5
 72
     1
  1
15
 11
0.0000000000000001
 21
1.0
 31
0.0
 73
     1
 44
1.0
  0
POINT
  5
F5C5
330
F27F
100
AcDbEntity
  8
DEFPOINTS
 62
     0
100
AcDbPoint
 10
3034.999909566636
 20
2186.626471522156
 30
0.0
  0
POINT
  5
F5C6
330
F27F
100
AcDbEntity
  8
DEFPOINTS
 62
     0
100
AcDbPoint
 10
3034.999909566636
 20
2201.626491847571
 30
0.0
  0
POINT
  5
F5C7
330
F27F
100
AcDbEntity
  8
DEFPOINTS
 62
     0
100
AcDbPoint
 10
2953.135090804654
 20
2201.626491847571
 30
0.0
  0
ENDBLK
  5
F28C
330
F27F
100
AcDbEntity
  8
0
100
AcDbBlockEnd
  0
BLOCK
  5
F297
330
F28D
100
AcDbEntity
  8
0
100
AcDbBlockBegin
  2
*D67
 70
     1
 10
0.0
 20
0.0
 30
0.0
  3
*D67
  1

  0
LINE
  5
F5A9
330
F28D
100
AcDbEntity
  8
D-STR-DIM
370
    -2
100
AcDbLine
 10
3024.999909566636
 20
2561.626454731598
 30
0.0
 11
2857.963807656686
 21
2561.626454731598
 31
0.0
  0
LINE
  5
F5AA
330
F28D
100
AcDbEntity
  8
D-STR-DIM
370
    -2
100
AcDbLine
 10
3024.999909566636
 20
2186.626471522156
 30
0.0
 11
2857.963807656686
 21
2186.626471522156
 31
0.0
  0
LINE
  5
F5AB
330
F28D
100
AcDbEntity
  8
D-STR-DIM
370
    -2
100
AcDbLine
 10
2877.963807656686
 20
2536.626454731598
 30
0.0
 11
2877.963807656686
 21
2211.626471522156
 31
0.0
  0
INSERT
  5
F5AC
330
F28D
100
AcDbEntity
  8
D-STR-DIM
370
    -2
100
AcDbBlockReference
  2
_OPEN30
 10
2877.963807656686
 20
2561.626454731598
 30
0.0
 41
25.0
 42
25.0
 43
25.0
 50
90.0
  0
INSERT
  5
F5AD
330
F28D
100
AcDbEntity
  8
D-STR-DIM
370
    -2
100
AcDbBlockReference
  2
_OPEN30
 10
2877.963807656686
 20
2186.626471522156
 30
0.0
 41
25.0
 42
25.0
 43
25.0
 50
270.0
  0
MTEXT
  5
F5AE
330
F28D
100
AcDbEntity
  8
D-STR-DIM
100
AcDbMText
 10
2852.963807656685
 20
2374.126463126878
 30
0.0
 40
30.0
 41
0.0
 71
     5
 72
     1
  1
375
 11
0.0000000000000001
 21
1.0
 31
0.0
 73
     1
 44
1.0
  0
POINT
  5
F5AF
330
F28D
100
AcDbEntity
  8
DEFPOINTS
 62
     0
100
AcDbPoint
 10
3034.999909566636
 20
2561.626454731598
 30
0.0
  0
POINT
  5
F5B0
330
F28D
100
AcDbEntity
  8
DEFPOINTS
 62
     0
100
AcDbPoint
 10
3034.999909566636
 20
2186.626471522156
 30
0.0
  0
POINT
  5
F5B1
330
F28D
100
AcDbEntity
  8
DEFPOINTS
 62
     0
100
AcDbPoint
 10
2877.963807656686
 20
2186.626471522156
 30
0.0
  0
ENDBLK
  5
F298
330
F28D
100
AcDbEntity
  8
0
100
AcDbBlockEnd
  0
BLOCK
  5
F2A5
330
F299
100
AcDbEntity
  8
0
100
AcDbBlockBegin
  2
*D68
 70
     1
 10
0.0
 20
0.0
 30
0.0
  3
*D68
  1

  0
LINE
  5
F5B2
330
F299
100
AcDbEntity
  8
D-STR-DIM
370
    -2
100
AcDbLine
 10
3024.999909566636
 20
2186.626471522156
 30
0.0
 11
2857.963807656686
 21
2186.626471522156
 31
0.0
  0
LINE
  5
F5B3
330
F299
100
AcDbEntity
  8
D-STR-DIM
370
    -2
100
AcDbLine
 10
3024.999909566636
 20
2156.626430871328
 30
0.0
 11
2857.963807656686
 21
2156.626430871328
 31
0.0
  0
LINE
  5
F5B4
330
F299
100
AcDbEntity
  8
D-STR-DIM
370
    -2
100
AcDbLine
 10
2877.963807656686
 20
2211.626471522156
 30
0.0
 11
2877.963807656686
 21
2236.626471522157
 31
0.0
  0
LINE
  5
F5B5
330
F299
100
AcDbEntity
  8
D-STR-DIM
370
    -2
100
AcDbLine
 10
2877.963807656686
 20
2131.626430871329
 30
0.0
 11
2877.963807656686
 21
2106.626430871329
 31
0.0
  0
MTEXT
  5
F5B6
330
F299
100
AcDbEntity
  8
D-STR-DIM
100
AcDbMText
 10
2852.963807656686
 20
2171.626451196743
 30
0.0
 40
30.0
 41
0.0
 71
     5
 72
     1
  1
30
 11
0.0000000000000001
 21
1.0
 31
0.0
 73
     1
 44
1.0
  0
LINE
  5
F5B7
330
F299
100
AcDbEntity
  8
D-STR-DIM
370
    -2
100
AcDbLine
 10
2877.963807656686
 20
2186.626471522156
 30
0.0
 11
2877.963807656686
 21
2156.626430871328
 31
0.0
  0
INSERT
  5
F5B8
330
F299
100
AcDbEntity
  8
D-STR-DIM
370
    -2
100
AcDbBlockReference
  2
_OPEN30
 10
2877.963807656686
 20
2186.626471522156
 30
0.0
 41
25.0
 42
25.0
 43
25.0
 50
270.0
  0
INSERT
  5
F5B9
330
F299
100
AcDbEntity
  8
D-STR-DIM
370
    -2
100
AcDbBlockReference
  2
_OPEN30
 10
2877.963807656686
 20
2156.626430871328
 30
0.0
 41
25.0
 42
25.0
 43
25.0
 50
90.0
  0
POINT
  5
F5BA
330
F299
100
AcDbEntity
  8
DEFPOINTS
 62
     0
100
AcDbPoint
 10
3034.999909566636
 20
2186.626471522156
 30
0.0
  0
POINT
  5
F5BB
330
F299
100
AcDbEntity
  8
DEFPOINTS
 62
     0
100
AcDbPoint
 10
3034.999909566636
 20
2156.626430871328
 30
0.0
  0
POINT
  5
F5BC
330
F299
100
AcDbEntity
  8
DEFPOINTS
 62
     0
100
AcDbPoint
 10
2877.963807656686
 20
2156.626430871328
 30
0.0
  0
ENDBLK
  5
F2A6
330
F299
100
AcDbEntity
  8
0
100
AcDbBlockEnd
  0
BLOCK
  5
F2BE
330
F2B2
100
AcDbEntity
  8
0
100
AcDbBlockBegin
  2
*D69
 70
     1
 10
0.0
 20
0.0
 30
0.0
  3
*D69
  1

  0
LINE
  5
F593
330
F2B2
100
AcDbEntity
  8
D-STR-DIM
370
    -2
100
AcDbLine
 10
3034.999909566636
 20
2146.626430871328
 30
0.0
 11
3034.999909566636
 21
2004.610713201324
 31
0.0
  0
LINE
  5
F594
330
F2B2
100
AcDbEntity
  8
D-STR-DIM
370
    -2
100
AcDbLine
 10
3094.999990868292
 20
2146.626430871328
 30
0.0
 11
3094.999990868292
 21
2004.610713201324
 31
0.0
  0
LINE
  5
F595
330
F2B2
100
AcDbEntity
  8
D-STR-DIM
370
    -2
100
AcDbLine
 10
3009.999909566636
 20
2024.610713201324
 30
0.0
 11
2984.999909566636
 21
2024.610713201324
 31
0.0
  0
LINE
  5
F596
330
F2B2
100
AcDbEntity
  8
D-STR-DIM
370
    -2
100
AcDbLine
 10
3119.999990868292
 20
2024.610713201324
 30
0.0
 11
3144.999990868292
 21
2024.610713201324
 31
0.0
  0
LINE
  5
F597
330
F2B2
100
AcDbEntity
  8
D-STR-DIM
370
    -2
100
AcDbLine
 10
3034.999909566636
 20
2024.610713201324
 30
0.0
 11
3094.999990868292
 21
2024.610713201324
 31
0.0
  0
INSERT
  5
F598
330
F2B2
100
AcDbEntity
  8
D-STR-DIM
370
    -2
100
AcDbBlockReference
  2
_OPEN30
 10
3034.999909566636
 20
2024.610713201324
 30
0.0
 41
25.0
 42
25.0
 43
25.0
  0
INSERT
  5
F599
330
F2B2
100
AcDbEntity
  8
D-STR-DIM
370
    -2
100
AcDbBlockReference
  2
_OPEN30
 10
3094.999990868292
 20
2024.610713201324
 30
0.0
 41
25.0
 42
25.0
 43
25.0
 50
180.0
  0
MTEXT
  5
F59A
330
F2B2
100
AcDbEntity
  8
D-STR-DIM
100
AcDbMText
 10
3064.999950217464
 20
2049.610713201324
 30
0.0
 40
30.0
 41
0.0
 71
     5
 72
     1
  1
60
 73
     1
 44
1.0
  0
POINT
  5
F59B
330
F2B2
100
AcDbEntity
  8
DEFPOINTS
 62
     0
100
AcDbPoint
 10
3034.999909566636
 20
2156.626430871328
 30
0.0
  0
POINT
  5
F59C
330
F2B2
100
AcDbEntity
  8
DEFPOINTS
 62
     0
100
AcDbPoint
 10
3094.999990868292
 20
2156.626430871328
 30
0.0
  0
POINT
  5
F59D
330
F2B2
100
AcDbEntity
  8
DEFPOINTS
 62
     0
100
AcDbPoint
 10
3094.999990868292
 20
2024.610713201324
 30
0.0
  0
ENDBLK
  5
F2BF
330
F2B2
100
AcDbEntity
  8
0
100
AcDbBlockEnd
  0
BLOCK
  5
F2CC
330
F2C0
100
AcDbEntity
  8
0
100
AcDbBlockBegin
  2
*D70
 70
     1
 10
0.0
 20
0.0
 30
0.0
  3
*D70
  1

  0
LINE
  5
F59E
330
F2C0
100
AcDbEntity
  8
D-STR-DIM
370
    -2
100
AcDbLine
 10
3094.999990868292
 20
2146.626430871328
 30
0.0
 11
3094.999990868292
 21
2004.610713201324
 31
0.0
  0
LINE
  5
F59F
330
F2C0
100
AcDbEntity
  8
D-STR-DIM
370
    -2
100
AcDbLine
 10
3125.00003151912
 20
2191.626491847571
 30
0.0
 11
3125.00003151912
 21
2004.610713201324
 31
0.0
  0
LINE
  5
F5A0
330
F2C0
100
AcDbEntity
  8
D-STR-DIM
370
    -2
100
AcDbLine
 10
3069.999990868292
 20
2024.610713201324
 30
0.0
 11
3044.999990868292
 21
2024.610713201324
 31
0.0
  0
LINE
  5
F5A1
330
F2C0
100
AcDbEntity
  8
D-STR-DIM
370
    -2
100
AcDbLine
 10
3150.00003151912
 20
2024.610713201324
 30
0.0
 11
3175.00003151912
 21
2024.610713201324
 31
0.0
  0
MTEXT
  5
F5A2
330
F2C0
100
AcDbEntity
  8
D-STR-DIM
100
AcDbMText
 10
3109.999923706054
 20
2049.610713201324
 30
0.0
 40
30.0
 41
0.0
 71
     5
 72
     1
  1
30
 73
     1
 44
1.0
  0
LINE
  5
F5A3
330
F2C0
100
AcDbEntity
  8
D-STR-DIM
370
    -2
100
AcDbLine
 10
3094.999990868292
 20
2024.610713201324
 30
0.0
 11
3125.00003151912
 21
2024.610713201324
 31
0.0
  0
INSERT
  5
F5A4
330
F2C0
100
AcDbEntity
  8
D-STR-DIM
370
    -2
100
AcDbBlockReference
  2
_OPEN30
 10
3094.999990868292
 20
2024.610713201324
 30
0.0
 41
25.0
 42
25.0
 43
25.0
  0
INSERT
  5
F5A5
330
F2C0
100
AcDbEntity
  8
D-STR-DIM
370
    -2
100
AcDbBlockReference
  2
_OPEN30
 10
3125.00003151912
 20
2024.610713201324
 30
0.0
 41
25.0
 42
25.0
 43
25.0
 50
180.0
  0
POINT
  5
F5A6
330
F2C0
100
AcDbEntity
  8
DEFPOINTS
 62
     0
100
AcDbPoint
 10
3094.999990868292
 20
2156.626430871328
 30
0.0
  0
POINT
  5
F5A7
330
F2C0
100
AcDbEntity
  8
DEFPOINTS
 62
     0
100
AcDbPoint
 10
3125.00003151912
 20
2201.626491847571
 30
0.0
  0
POINT
  5
F5A8
330
F2C0
100
AcDbEntity
  8
DEFPOINTS
 62
     0
100
AcDbPoint
 10
3125.00003151912
 20
2024.610713201324
 30
0.0
  0
ENDBLK
  5
F2CD
330
F2C0
100
AcDbEntity
  8
0
100
AcDbBlockEnd
  0
BLOCK
  5
F2D8
330
F2CE
100
AcDbEntity
  8
0
100
AcDbBlockBegin
  2
*D71
 70
     1
 10
0.0
 20
0.0
 30
0.0
  3
*D71
  1

  0
LINE
  5
F502
330
F2CE
100
AcDbEntity
  8
D-STR-DIM
370
    -2
100
AcDbLine
 10
3125.00003151912
 20
2191.626491847571
 30
0.0
 11
3125.00003151912
 21
2004.610713201324
 31
0.0
  0
LINE
  5
F503
330
F2CE
100
AcDbEntity
  8
D-STR-DIM
370
    -2
100
AcDbLine
 10
3685.000090433364
 20
2191.626491847571
 30
0.0
 11
3685.000090433364
 21
2004.610713201324
 31
0.0
  0
LINE
  5
F504
330
F2CE
100
AcDbEntity
  8
D-STR-DIM
370
    -2
100
AcDbLine
 10
3150.00003151912
 20
2024.610713201324
 30
0.0
 11
3660.000090433364
 21
2024.610713201324
 31
0.0
  0
INSERT
  5
F505
330
F2CE
100
AcDbEntity
  8
D-STR-DIM
370
    -2
100
AcDbBlockReference
  2
_OPEN30
 10
3125.00003151912
 20
2024.610713201324
 30
0.0
 41
25.0
 42
25.0
 43
25.0
 50
180.0
  0
INSERT
  5
F506
330
F2CE
100
AcDbEntity
  8
D-STR-DIM
370
    -2
100
AcDbBlockReference
  2
_OPEN30
 10
3685.000090433364
 20
2024.610713201324
 30
0.0
 41
25.0
 42
25.0
 43
25.0
  0
MTEXT
  5
F507
330
F2CE
100
AcDbEntity
  8
D-STR-DIM
100
AcDbMText
 10
3405.000060976242
 20
2049.610713201324
 30
0.0
 40
30.0
 41
0.0
 71
     5
 72
     1
  1
560
 73
     1
 44
1.0
  0
POINT
  5
F508
330
F2CE
100
AcDbEntity
  8
DEFPOINTS
 62
     0
100
AcDbPoint
 10
3125.00003151912
 20
2201.626491847571
 30
0.0
  0
POINT
  5
F509
330
F2CE
100
AcDbEntity
  8
DEFPOINTS
 62
     0
100
AcDbPoint
 10
3685.000090433364
 20
2201.626491847571
 30
0.0
  0
POINT
  5
F50A
330
F2CE
100
AcDbEntity
  8
DEFPOINTS
 62
     0
100
AcDbPoint
 10
3685.000090433364
 20
2024.610713201324
 30
0.0
  0
ENDBLK
  5
F2D9
330
F2CE
100
AcDbEntity
  8
0
100
AcDbBlockEnd
  0
BLOCK
  5
F37F
330
F375
100
AcDbEntity
  8
0
100
AcDbBlockBegin
  2
*D72
 70
     1
 10
0.0
 20
0.0
 30
0.0
  3
*D72
  1

  0
LINE
  5
F6E9
330
F375
100
AcDbEntity
  8
D-STR-DIM
370
    -2
100
AcDbLine
 10
4769.999984093153
 20
2571.626454731598
 30
0.0
 11
4769.999984093153
 21
2714.395668399105
 31
0.0
  0
LINE
  5
F6EA
330
F375
100
AcDbEntity
  8
D-STR-DIM
370
    -2
100
AcDbLine
 10
5370.000097208502
 20
2571.626454731598
 30
0.0
 11
5370.000097208502
 21
2714.395668399105
 31
0.0
  0
LINE
  5
F6EB
330
F375
100
AcDbEntity
  8
D-STR-DIM
370
    -2
100
AcDbLine
 10
4794.999984093154
 20
2694.395668399105
 30
0.0
 11
5345.000097208502
 21
2694.395668399105
 31
0.0
  0
INSERT
  5
F6EC
330
F375
100
AcDbEntity
  8
D-STR-DIM
370
    -2
100
AcDbBlockReference
  2
_OPEN30
 10
4769.999984093153
 20
2694.395668399105
 30
0.0
 41
25.0
 42
25.0
 43
25.0
 50
180.0
  0
INSERT
  5
F6ED
330
F375
100
AcDbEntity
  8
D-STR-DIM
370
    -2
100
AcDbBlockReference
  2
_OPEN30
 10
5370.000097208502
 20
2694.395668399105
 30
0.0
 41
25.0
 42
25.0
 43
25.0
  0
MTEXT
  5
F6EE
330
F375
100
AcDbEntity
  8
D-STR-DIM
100
AcDbMText
 10
5070.000040650828
 20
2719.395668399105
 30
0.0
 40
30.0
 41
0.0
 71
     5
 72
     1
  1
600
 73
     1
 44
1.0
  0
POINT
  5
F6EF
330
F375
100
AcDbEntity
  8
DEFPOINTS
 62
     0
100
AcDbPoint
 10
4769.999984093153
 20
2561.626454731598
 30
0.0
  0
POINT
  5
F6F0
330
F375
100
AcDbEntity
  8
DEFPOINTS
 62
     0
100
AcDbPoint
 10
5370.000097208502
 20
2561.626454731598
 30
0.0
  0
POINT
  5
F6F1
330
F375
100
AcDbEntity
  8
DEFPOINTS
 62
     0
100
AcDbPoint
 10
5370.000097208502
 20
2694.395668399105
 30
0.0
  0
ENDBLK
  5
F380
330
F375
100
AcDbEntity
  8
0
100
AcDbBlockEnd
  0
BLOCK
  5
F38D
330
F381
100
AcDbEntity
  8
0
100
AcDbBlockBegin
  2
*D73
 70
     1
 10
0.0
 20
0.0
 30
0.0
  3
*D73
  1

  0
LINE
  5
F725
330
F381
100
AcDbEntity
  8
D-STR-DIM
370
    -2
100
AcDbLine
 10
4710.0000777668
 20
2571.626454731598
 30
0.0
 11
4710.0000777668
 21
2714.395668399105
 31
0.0
  0
LINE
  5
F726
330
F381
100
AcDbEntity
  8
D-STR-DIM
370
    -2
100
AcDbLine
 10
4769.999984093153
 20
2571.626454731598
 30
0.0
 11
4769.999984093153
 21
2714.395668399105
 31
0.0
  0
LINE
  5
F727
330
F381
100
AcDbEntity
  8
D-STR-DIM
370
    -2
100
AcDbLine
 10
4685.0000777668
 20
2694.395668399105
 30
0.0
 11
4660.000077766801
 21
2694.395668399105
 31
0.0
  0
LINE
  5
F728
330
F381
100
AcDbEntity
  8
D-STR-DIM
370
    -2
100
AcDbLine
 10
4794.999984093154
 20
2694.395668399105
 30
0.0
 11
4819.999984093154
 21
2694.395668399105
 31
0.0
  0
LINE
  5
F729
330
F381
100
AcDbEntity
  8
D-STR-DIM
370
    -2
100
AcDbLine
 10
4710.0000777668
 20
2694.395668399105
 30
0.0
 11
4769.999984093153
 21
2694.395668399105
 31
0.0
  0
INSERT
  5
F72A
330
F381
100
AcDbEntity
  8
D-STR-DIM
370
    -2
100
AcDbBlockReference
  2
_OPEN30
 10
4710.0000777668
 20
2694.395668399105
 30
0.0
 41
25.0
 42
25.0
 43
25.0
  0
INSERT
  5
F72B
330
F381
100
AcDbEntity
  8
D-STR-DIM
370
    -2
100
AcDbBlockReference
  2
_OPEN30
 10
4769.999984093153
 20
2694.395668399105
 30
0.0
 41
25.0
 42
25.0
 43
25.0
 50
180.0
  0
MTEXT
  5
F72C
330
F381
100
AcDbEntity
  8
D-STR-DIM
100
AcDbMText
 10
4740.000030929977
 20
2719.395668399105
 30
0.0
 40
30.0
 41
0.0
 71
     5
 72
     1
  1
60
 73
     1
 44
1.0
  0
POINT
  5
F72D
330
F381
100
AcDbEntity
  8
DEFPOINTS
 62
     0
100
AcDbPoint
 10
4710.0000777668
 20
2561.626454731598
 30
0.0
  0
POINT
  5
F72E
330
F381
100
AcDbEntity
  8
DEFPOINTS
 62
     0
100
AcDbPoint
 10
4769.999984093153
 20
2561.626454731598
 30
0.0
  0
POINT
  5
F72F
330
F381
100
AcDbEntity
  8
DEFPOINTS
 62
     0
100
AcDbPoint
 10
4769.999984093153
 20
2694.395668399105
 30
0.0
  0
ENDBLK
  5
F38E
330
F381
100
AcDbEntity
  8
0
100
AcDbBlockEnd
  0
BLOCK
  5
F3D2
330
F3C6
100
AcDbEntity
  8
0
100
AcDbBlockBegin
  2
*D74
 70
     1
 10
0.0
 20
0.0
 30
0.0
  3
*D74
  1

  0
LINE
  5
F6FB
330
F3C6
100
AcDbEntity
  8
D-STR-DIM
370
    -2
100
AcDbLine
 10
4699.999902791498
 20
2021.626422917907
 30
0.0
 11
4608.135084029515
 21
2021.626422917907
 31
0.0
  0
LINE
  5
F6FC
330
F3C6
100
AcDbEntity
  8
D-STR-DIM
370
    -2
100
AcDbLine
 10
4699.999902791498
 20
2041.626450018458
 30
0.0
 11
4608.135084029515
 21
2041.626450018458
 31
0.0
  0
LINE
  5
F6FD
330
F3C6
100
AcDbEntity
  8
D-STR-DIM
370
    -2
100
AcDbLine
 10
4628.135084029515
 20
1996.626422917907
 30
0.0
 11
4628.135084029515
 21
1971.626422917907
 31
0.0
  0
LINE
  5
F6FE
330
F3C6
100
AcDbEntity
  8
D-STR-DIM
370
    -2
100
AcDbLine
 10
4628.135084029516
 20
2066.626450018458
 30
0.0
 11
4628.135084029516
 21
2091.626450018459
 31
0.0
  0
LINE
  5
F6FF
330
F3C6
100
AcDbEntity
  8
D-STR-DIM
370
    -2
100
AcDbLine
 10
4628.135084029515
 20
2021.626422917907
 30
0.0
 11
4628.135084029515
 21
2041.626450018458
 31
0.0
  0
INSERT
  5
F700
330
F3C6
100
AcDbEntity
  8
D-STR-DIM
370
    -2
100
AcDbBlockReference
  2
_OPEN30
 10
4628.135084029515
 20
2021.626422917907
 30
0.0
 41
25.0
 42
25.0
 43
25.0
 50
90.0
  0
INSERT
  5
F701
330
F3C6
100
AcDbEntity
  8
D-STR-DIM
370
    -2
100
AcDbBlockReference
  2
_OPEN30
 10
4628.135084029515
 20
2041.626450018458
 30
0.0
 41
25.0
 42
25.0
 43
25.0
 50
270.0
  0
MTEXT
  5
F702
330
F3C6
100
AcDbEntity
  8
D-STR-DIM
100
AcDbMText
 10
4603.135084029515
 20
2031.626436468183
 30
0.0
 40
30.0
 41
0.0
 71
     5
 72
     1
  1
20
 11
0.0000000000000001
 21
1.0
 31
0.0
 73
     1
 44
1.0
  0
POINT
  5
F703
330
F3C6
100
AcDbEntity
  8
DEFPOINTS
 62
     0
100
AcDbPoint
 10
4709.999902791498
 20
2021.626422917907
 30
0.0
  0
POINT
  5
F704
330
F3C6
100
AcDbEntity
  8
DEFPOINTS
 62
     0
100
AcDbPoint
 10
4709.999902791498
 20
2041.626450018458
 30
0.0
  0
POINT
  5
F705
330
F3C6
100
AcDbEntity
  8
DEFPOINTS
 62
     0
100
AcDbPoint
 10
4628.135084029515
 20
2041.626450018458
 30
0.0
  0
ENDBLK
  5
F3D3
330
F3C6
100
AcDbEntity
  8
0
100
AcDbBlockEnd
  0
BLOCK
  5
F3E0
330
F3D4
100
AcDbEntity
  8
0
100
AcDbBlockBegin
  2
*D75
 70
     1
 10
0.0
 20
0.0
 30
0.0
  3
*D75
  1

  0
LINE
  5
F706
330
F3D4
100
AcDbEntity
  8
D-STR-DIM
370
    -2
100
AcDbLine
 10
4699.999902791498
 20
2021.626422917907
 30
0.0
 11
4532.963800881549
 21
2021.626422917907
 31
0.0
  0
LINE
  5
F707
330
F3D4
100
AcDbEntity
  8
D-STR-DIM
370
    -2
100
AcDbLine
 10
4699.999902791498
 20
1981.626456204452
 30
0.0
 11
4532.963800881549
 21
1981.626456204452
 31
0.0
  0
LINE
  5
F708
330
F3D4
100
AcDbEntity
  8
D-STR-DIM
370
    -2
100
AcDbLine
 10
4552.963800881548
 20
2046.626422917907
 30
0.0
 11
4552.963800881548
 21
2071.626422917907
 31
0.0
  0
LINE
  5
F709
330
F3D4
100
AcDbEntity
  8
D-STR-DIM
370
    -2
100
AcDbLine
 10
4552.963800881548
 20
1956.626456204452
 30
0.0
 11
4552.963800881548
 21
1931.626456204452
 31
0.0
  0
MTEXT
  5
F70A
330
F3D4
100
AcDbEntity
  8
D-STR-DIM
100
AcDbMText
 10
4527.963800881548
 20
2001.626439561179
 30
0.0
 40
30.0
 41
0.0
 71
     5
 72
     1
  1
40
 11
0.0000000000000001
 21
1.0
 31
0.0
 73
     1
 44
1.0
  0
LINE
  5
F70B
330
F3D4
100
AcDbEntity
  8
D-STR-DIM
370
    -2
100
AcDbLine
 10
4552.963800881548
 20
2021.626422917907
 30
0.0
 11
4552.963800881548
 21
1981.626456204452
 31
0.0
  0
INSERT
  5
F70C
330
F3D4
100
AcDbEntity
  8
D-STR-DIM
370
    -2
100
AcDbBlockReference
  2
_OPEN30
 10
4552.963800881548
 20
2021.626422917907
 30
0.0
 41
25.0
 42
25.0
 43
25.0
 50
270.0
  0
INSERT
  5
F70D
330
F3D4
100
AcDbEntity
  8
D-STR-DIM
370
    -2
100
AcDbBlockReference
  2
_OPEN30
 10
4552.963800881548
 20
1981.626456204452
 30
0.0
 41
25.0
 42
25.0
 43
25.0
 50
90.0
  0
POINT
  5
F70E
330
F3D4
100
AcDbEntity
  8
DEFPOINTS
 62
     0
100
AcDbPoint
 10
4709.999902791498
 20
2021.626422917907
 30
0.0
  0
POINT
  5
F70F
330
F3D4
100
AcDbEntity
  8
DEFPOINTS
 62
     0
100
AcDbPoint
 10
4709.999902791498
 20
1981.626456204452
 30
0.0
  0
POINT
  5
F710
330
F3D4
100
AcDbEntity
  8
DEFPOINTS
 62
     0
100
AcDbPoint
 10
4552.963800881548
 20
1981.626456204452
 30
0.0
  0
ENDBLK
  5
F3E1
330
F3D4
100
AcDbEntity
  8
0
100
AcDbBlockEnd
  0
BLOCK
  5
F3EC
330
F3E2
100
AcDbEntity
  8
0
100
AcDbBlockBegin
  2
*D76
 70
     1
 10
0.0
 20
0.0
 30
0.0
  3
*D76
  1

  0
LINE
  5
F6F2
330
F3E2
100
AcDbEntity
  8
D-STR-DIM
370
    -2
100
AcDbLine
 10
4699.999902791498
 20
2561.626454731598
 30
0.0
 11
4532.963800881549
 21
2561.626454731598
 31
0.0
  0
LINE
  5
F6F3
330
F3E2
100
AcDbEntity
  8
D-STR-DIM
370
    -2
100
AcDbLine
 10
4699.999902791498
 20
2021.626422917907
 30
0.0
 11
4532.963800881549
 21
2021.626422917907
 31
0.0
  0
LINE
  5
F6F4
330
F3E2
100
AcDbEntity
  8
D-STR-DIM
370
    -2
100
AcDbLine
 10
4552.963800881548
 20
2536.626454731598
 30
0.0
 11
4552.963800881548
 21
2046.626422917907
 31
0.0
  0
INSERT
  5
F6F5
330
F3E2
100
AcDbEntity
  8
D-STR-DIM
370
    -2
100
AcDbBlockReference
  2
_OPEN30
 10
4552.963800881548
 20
2561.626454731598
 30
0.0
 41
25.0
 42
25.0
 43
25.0
 50
90.0
  0
INSERT
  5
F6F6
330
F3E2
100
AcDbEntity
  8
D-STR-DIM
370
    -2
100
AcDbBlockReference
  2
_OPEN30
 10
4552.963800881548
 20
2021.626422917907
 30
0.0
 41
25.0
 42
25.0
 43
25.0
 50
270.0
  0
MTEXT
  5
F6F7
330
F3E2
100
AcDbEntity
  8
D-STR-DIM
100
AcDbMText
 10
4527.963800881548
 20
2291.626438824753
 30
0.0
 40
30.0
 41
0.0
 71
     5
 72
     1
  1
540
 11
0.0000000000000001
 21
1.0
 31
0.0
 73
     1
 44
1.0
  0
POINT
  5
F6F8
330
F3E2
100
AcDbEntity
  8
DEFPOINTS
 62
     0
100
AcDbPoint
 10
4709.999902791498
 20
2561.626454731598
 30
0.0
  0
POINT
  5
F6F9
330
F3E2
100
AcDbEntity
  8
DEFPOINTS
 62
     0
100
AcDbPoint
 10
4709.999902791498
 20
2021.626422917907
 30
0.0
  0
POINT
  5
F6FA
330
F3E2
100
AcDbEntity
  8
DEFPOINTS
 62
     0
100
AcDbPoint
 10
4552.963800881548
 20
2021.626422917907
 30
0.0
  0
ENDBLK
  5
F3ED
330
F3E2
100
AcDbEntity
  8
0
100
AcDbBlockEnd
  0
BLOCK
  5
F3F8
330
F3EE
100
AcDbEntity
  8
0
100
AcDbBlockBegin
  2
*D77
 70
     1
 10
0.0
 20
0.0
 30
0.0
  3
*D77
  1

  0
LINE
  5
F6E0
330
F3EE
100
AcDbEntity
  8
D-STR-DIM
370
    -2
100
AcDbLine
 10
4810.000038294258
 20
2031.626450018458
 30
0.0
 11
4810.000038294258
 21
1829.610738534447
 31
0.0
  0
LINE
  5
F6E1
330
F3EE
100
AcDbEntity
  8
D-STR-DIM
370
    -2
100
AcDbLine
 10
5370.000097208502
 20
2031.626450018458
 30
0.0
 11
5370.000097208502
 21
1829.610738534447
 31
0.0
  0
LINE
  5
F6E2
330
F3EE
100
AcDbEntity
  8
D-STR-DIM
370
    -2
100
AcDbLine
 10
4835.000038294258
 20
1849.610738534447
 30
0.0
 11
5345.000097208502
 21
1849.610738534447
 31
0.0
  0
INSERT
  5
F6E3
330
F3EE
100
AcDbEntity
  8
D-STR-DIM
370
    -2
100
AcDbBlockReference
  2
_OPEN30
 10
4810.000038294258
 20
1849.610738534447
 30
0.0
 41
25.0
 42
25.0
 43
25.0
 50
180.0
  0
INSERT
  5
F6E4
330
F3EE
100
AcDbEntity
  8
D-STR-DIM
370
    -2
100
AcDbBlockReference
  2
_OPEN30
 10
5370.000097208502
 20
1849.610738534447
 30
0.0
 41
25.0
 42
25.0
 43
25.0
  0
MTEXT
  5
F6E5
330
F3EE
100
AcDbEntity
  8
D-STR-DIM
100
AcDbMText
 10
5090.00006775138
 20
1874.610738534447
 30
0.0
 40
30.0
 41
0.0
 71
     5
 72
     1
  1
560
 73
     1
 44
1.0
  0
POINT
  5
F6E6
330
F3EE
100
AcDbEntity
  8
DEFPOINTS
 62
     0
100
AcDbPoint
 10
4810.000038294258
 20
2041.626450018458
 30
0.0
  0
POINT
  5
F6E7
330
F3EE
100
AcDbEntity
  8
DEFPOINTS
 62
     0
100
AcDbPoint
 10
5370.000097208502
 20
2041.626450018458
 30
0.0
  0
POINT
  5
F6E8
330
F3EE
100
AcDbEntity
  8
DEFPOINTS
 62
     0
100
AcDbPoint
 10
5370.000097208502
 20
1849.610738534447
 30
0.0
  0
ENDBLK
  5
F3F9
330
F3EE
100
AcDbEntity
  8
0
100
AcDbBlockEnd
  0
BLOCK
  5
F406
330
F3FA
100
AcDbEntity
  8
0
100
AcDbBlockBegin
  2
*D78
 70
     1
 10
0.0
 20
0.0
 30
0.0
  3
*D78
  1

  0
LINE
  5
F71A
330
F3FA
100
AcDbEntity
  8
D-STR-DIM
370
    -2
100
AcDbLine
 10
4779.999997643428
 20
1971.626456204452
 30
0.0
 11
4779.999997643428
 21
1829.610738534447
 31
0.0
  0
LINE
  5
F71B
330
F3FA
100
AcDbEntity
  8
D-STR-DIM
370
    -2
100
AcDbLine
 10
4810.000038294258
 20
2031.626450018458
 30
0.0
 11
4810.000038294258
 21
1829.610738534447
 31
0.0
  0
LINE
  5
F71C
330
F3FA
100
AcDbEntity
  8
D-STR-DIM
370
    -2
100
AcDbLine
 10
4754.999997643428
 20
1849.610738534447
 30
0.0
 11
4729.999997643428
 21
1849.610738534447
 31
0.0
  0
LINE
  5
F71D
330
F3FA
100
AcDbEntity
  8
D-STR-DIM
370
    -2
100
AcDbLine
 10
4835.000038294258
 20
1849.610738534447
 30
0.0
 11
4860.000038294258
 21
1849.610738534447
 31
0.0
  0
MTEXT
  5
F71E
330
F3FA
100
AcDbEntity
  8
D-STR-DIM
100
AcDbMText
 10
4795.000017968843
 20
1874.610738534447
 30
0.0
 40
30.0
 41
0.0
 71
     5
 72
     1
  1
30
 73
     1
 44
1.0
  0
LINE
  5
F71F
330
F3FA
100
AcDbEntity
  8
D-STR-DIM
370
    -2
100
AcDbLine
 10
4779.999997643428
 20
1849.610738534447
 30
0.0
 11
4810.000038294258
 21
1849.610738534447
 31
0.0
  0
INSERT
  5
F720
330
F3FA
100
AcDbEntity
  8
D-STR-DIM
370
    -2
100
AcDbBlockReference
  2
_OPEN30
 10
4779.999997643428
 20
1849.610738534447
 30
0.0
 41
25.0
 42
25.0
 43
25.0
  0
INSERT
  5
F721
330
F3FA
100
AcDbEntity
  8
D-STR-DIM
370
    -2
100
AcDbBlockReference
  2
_OPEN30
 10
4810.000038294258
 20
1849.610738534447
 30
0.0
 41
25.0
 42
25.0
 43
25.0
 50
180.0
  0
POINT
  5
F722
330
F3FA
100
AcDbEntity
  8
DEFPOINTS
 62
     0
100
AcDbPoint
 10
4779.999997643428
 20
1981.626456204452
 30
0.0
  0
POINT
  5
F723
330
F3FA
100
AcDbEntity
  8
DEFPOINTS
 62
     0
100
AcDbPoint
 10
4810.000038294258
 20
2041.626450018458
 30
0.0
  0
POINT
  5
F724
330
F3FA
100
AcDbEntity
  8
DEFPOINTS
 62
     0
100
AcDbPoint
 10
4810.000038294258
 20
1849.610738534447
 30
0.0
  0
ENDBLK
  5
F407
330
F3FA
100
AcDbEntity
  8
0
100
AcDbBlockEnd
  0
BLOCK
  5
F414
330
F408
100
AcDbEntity
  8
0
100
AcDbBlockBegin
  2
*D79
 70
     1
 10
0.0
 20
0.0
 30
0.0
  3
*D79
  1

  0
LINE
  5
F711
330
F408
100
AcDbEntity
  8
D-STR-DIM
370
    -2
100
AcDbLine
 10
4709.999902791498
 20
1971.626456204452
 30
0.0
 11
4709.999902791498
 21
1829.610738534447
 31
0.0
  0
LINE
  5
F712
330
F408
100
AcDbEntity
  8
D-STR-DIM
370
    -2
100
AcDbLine
 10
4779.999997643428
 20
1971.626456204452
 30
0.0
 11
4779.999997643428
 21
1829.610738534447
 31
0.0
  0
LINE
  5
F713
330
F408
100
AcDbEntity
  8
D-STR-DIM
370
    -2
100
AcDbLine
 10
4734.999902791498
 20
1849.610738534447
 30
0.0
 11
4754.999997643428
 21
1849.610738534447
 31
0.0
  0
INSERT
  5
F714
330
F408
100
AcDbEntity
  8
D-STR-DIM
370
    -2
100
AcDbBlockReference
  2
_OPEN30
 10
4709.999902791498
 20
1849.610738534447
 30
0.0
 41
25.0
 42
25.0
 43
25.0
 50
180.0
  0
INSERT
  5
F715
330
F408
100
AcDbEntity
  8
D-STR-DIM
370
    -2
100
AcDbBlockReference
  2
_OPEN30
 10
4779.999997643428
 20
1849.610738534447
 30
0.0
 41
25.0
 42
25.0
 43
25.0
  0
MTEXT
  5
F716
330
F408
100
AcDbEntity
  8
D-STR-DIM
100
AcDbMText
 10
4744.999950217463
 20
1874.610738534447
 30
0.0
 40
30.0
 41
0.0
 71
     5
 72
     1
  1
70
 73
     1
 44
1.0
  0
POINT
  5
F717
330
F408
100
AcDbEntity
  8
DEFPOINTS
 62
     0
100
AcDbPoint
 10
4709.999902791498
 20
1981.626456204452
 30
0.0
  0
POINT
  5
F718
330
F408
100
AcDbEntity
  8
DEFPOINTS
 62
     0
100
AcDbPoint
 10
4779.999997643428
 20
1981.626456204452
 30
0.0
  0
POINT
  5
F719
330
F408
100
AcDbEntity
  8
DEFPOINTS
 62
     0
100
AcDbPoint
 10
4779.999997643428
 20
1849.610738534447
 30
0.0
  0
ENDBLK
  5
F415
330
F408
100
AcDbEntity
  8
0
100
AcDbBlockEnd
  0
ENDSEC
  0
SECTION
  2
ENTITIES
  0
LINE
  5
18E8
330
1F
100
AcDbEntity
  8
D-STR-DIM
100
AcDbLine
 10
1030.0
 20
3780.0
 30
0.0
 11
2330.0
 21
3780.0
 31
0.0
  0
LINE
  5
18E9
330
1F
100
AcDbEntity
  8
D-STR-DIM
100
AcDbLine
 10
1030.0
 20
3680.0
 30
0.0
 11
2330.0
 21
3680.0
 31
0.0
  0
LINE
  5
18EA
330
1F
100
AcDbEntity
  8
D-STR-DIM
100
AcDbLine
 10
1030.0
 20
3600.0
 30
0.0
 11
2330.0
 21
3600.0
 31
0.0
  0
LINE
  5
18EB
330
1F
100
AcDbEntity
  8
D-STR-DIM
100
AcDbLine
 10
1030.0
 20
3520.0
 30
0.0
 11
2330.0
 21
3520.0
 31
0.0
  0
LINE
  5
18EC
330
1F
100
AcDbEntity
  8
D-STR-DIM
100
AcDbLine
 10
1030.0
 20
3360.0
 30
0.0
 11
2330.0
 21
3360.0
 31
0.0
  0
LINE
  5
18ED
330
1F
100
AcDbEntity
  8
D-STR-DIM
100
AcDbLine
 10
1030.0
 20
3440.0
 30
0.0
 11
2330.0
 21
3440.0
 31
0.0
  0
LINE
  5
18EE
330
1F
100
AcDbEntity
  8
D-STR-DIM
100
AcDbLine
 10
1030.0
 20
3280.0
 30
0.0
 11
2330.0
 21
3280.0
 31
0.0
  0
MTEXT
  5
18EF
330
1F
100
AcDbEntity
  8
D-STR-DIM
100
AcDbMText
 10
1880.0
 20
3560.0
 30
0.0
 40
30.0
 41
0.0
 71
     5
 72
     1
  1
0.07
 73
     1
 44
1.0
  0
MTEXT
  5
18F0
330
1F
100
AcDbEntity
  8
D-STR-DIM
100
AcDbMText
 10
1680.0
 20
3560.0
 30
0.0
 40
30.0
 41
0.0
 71
     5
 72
     1
  1
m3
 73
     1
 44
1.0
  0
LINE
  5
18F1
330
1F
100
AcDbEntity
  8
D-STR-DIM
100
AcDbLine
 10
1030.0
 20
3780.0
 30
0.0
 11
1030.0
 21
3280.0
 31
0.0
  0
LINE
  5
18F2
330
1F
100
AcDbEntity
  8
D-STR-DIM
100
AcDbLine
 10
1630.0
 20
3780.0
 30
0.0
 11
1630.0
 21
3280.0
 31
0.0
  0
LINE
  5
18F3
330
1F
100
AcDbEntity
  8
D-STR-DIM
100
AcDbLine
 10
1330.0
 20
3780.0
 30
0.0
 11
1330.0
 21
3280.0
 31
0.0
  0
MTEXT
  5
18F4
330
1F
100
AcDbEntity
  8
D-STR-DIM
100
AcDbMText
 10
1180.0
 20
3560.0
 30
0.0
 40
30.0
 41
0.0
 71
     5
 72
     1
  1
敷モルタル
 73
     1
 44
1.0
  0
MTEXT
  5
18F5
330
1F
100
AcDbEntity
  8
D-STR-DIM
100
AcDbMText
 10
1480.0
 20
3560.0
 30
0.0
 40
30.0
 41
0.0
 71
     5
 72
     1
  1
C:S=1:3
 73
     1
 44
1.0
  0
LINE
  5
18F6
330
1F
100
AcDbEntity
  8
D-STR-DIM
100
AcDbLine
 10
1730.0
 20
3780.0
 30
0.0
 11
1730.0
 21
3280.0
 31
0.0
  0
MTEXT
  5
18F7
330
1F
100
AcDbEntity
  8
D-STR-DIM
100
AcDbMText
 10
1180.0
 20
3480.0
 30
0.0
 40
30.0
 41
0.0
 71
     5
 72
     1
  1
基礎材
 73
     1
 44
1.0
  0
MTEXT
  5
18F9
330
1F
100
AcDbEntity
  8
D-STR-DIM
100
AcDbMText
 10
1680.0
 20
3480.0
 30
0.0
 40
30.0
 41
0.0
 71
     5
 72
     1
  1
m2
 73
     1
 44
1.0
  0
MTEXT
  5
18FB
330
1F
100
AcDbEntity
  8
D-STR-DIM
100
AcDbMText
 10
1480.0
 20
3480.0
 30
0.0
 40
30.0
 41
0.0
 71
     5
 72
     1
  1
RC-40
 73
     1
 44
1.0
  0
MTEXT
  5
18FD
330
1F
100
AcDbEntity
  8
D-STR-DIM
100
AcDbMText
 10
1880.0
 20
3480.0
 30
0.0
 40
30.0
 41
0.0
 71
     5
 72
     1
  1
4.40
 73
     1
 44
1.0
  0
MTEXT
  5
18FE
330
1F
100
AcDbEntity
  8
D-STR-DIM
100
AcDbMText
 10
1480.0
 20
3640.0
 30
0.0
 40
30.0
 41
0.0
 71
     5
 72
     1
  1
240×240
 73
     1
 44
1.0
  0
MTEXT
  5
18FF
330
1F
100
AcDbEntity
  8
D-STR-DIM
100
AcDbMText
 10
1180.0
 20
3730.0
 30
0.0
 40
30.0
 41
0.0
 71
     5
 72
     1
  1
名　称
 73
     1
 44
1.0
  0
MTEXT
  5
1900
330
1F
100
AcDbEntity
  8
D-STR-DIM
100
AcDbMText
 10
1180.0
 20
3640.0
 30
0.0
 40
30.0
 41
0.0
 71
     5
 72
     1
  1
側　溝
 73
     1
 44
1.0
  0
MTEXT
  5
1901
330
1F
100
AcDbEntity
  8
D-STR-DIM
100
AcDbMText
 10
1099.097555713095
 20
3813.539995101098
 30
0.0
 40
30.0
 41
0.0
 71
     5
 72
     1
  1
材料表
 73
     1
 44
1.0
  0
MTEXT
  5
1902
330
1F
100
AcDbEntity
  8
D-STR-DIM
100
AcDbMText
 10
1680.0
 20
3730.0
 30
0.0
 40
30.0
 41
0.0
 71
     5
 72
     1
  1
単位
 73
     1
 44
1.0
  0
MTEXT
  5
1903
330
1F
100
AcDbEntity
  8
D-STR-DIM
100
AcDbMText
 10
1680.0
 20
3640.0
 30
0.0
 40
30.0
 41
0.0
 71
     5
 72
     1
  1
本
 73
     1
 44
1.0
  0
MTEXT
  5
1904
330
1F
100
AcDbEntity
  8
D-STR-DIM
100
AcDbMText
 10
1480.0
 20
3730.0
 30
0.0
 40
30.0
 41
0.0
 71
     5
 72
     1
  1
規　格
 73
     1
 44
1.0
  0
MTEXT
  5
1905
330
1F
100
AcDbEntity
  8
D-STR-DIM
100
AcDbMText
 10
1880.0
 20
3640.0
 30
0.0
 40
30.0
 41
0.0
 71
     5
 72
     1
  1
16.7
 73
     1
 44
1.0
  0
MTEXT
  5
1906
330
1F
100
AcDbEntity
  8
D-STR-DIM
100
AcDbMText
 10
1880.0
 20
3730.0
 30
0.0
 40
30.0
 41
0.0
 71
     5
 72
     1
  1
数　量
 73
     1
 44
1.0
  0
LINE
  5
1907
330
1F
100
AcDbEntity
  8
D-STR-DIM
100
AcDbLine
 10
2330.0
 20
3780.0
 30
0.0
 11
2330.0
 21
3280.0
 31
0.0
  0
LINE
  5
1908
330
1F
100
AcDbEntity
  8
D-STR-DIM
100
AcDbLine
 10
2030.0
 20
3780.0
 30
0.0
 11
2030.0
 21
3280.0
 31
0.0
  0
MTEXT
  5
1909
330
1F
100
AcDbEntity
  8
D-STR-DIM
100
AcDbMText
 10
2238.889910226745
 20
3813.539995101098
 30
0.0
 40
30.0
 41
0.0
 71
     5
 72
     1
  1
10m当り
 73
     1
 44
1.0
  0
MTEXT
  5
190A
330
1F
100
AcDbEntity
  8
D-STR-DIM
100
AcDbMText
 10
2180.0
 20
3730.0
 30
0.0
 40
30.0
 41
0.0
 71
     5
 72
     1
  1
摘　要
 73
     1
 44
1.0
  0
MTEXT
  5
69FB
330
1F
100
AcDbEntity
  8
D-STR-TXT
370
    -3
100
AcDbMText
 10
1694.999794999997
 20
5430.304878810836
 30
0.0
 40
50.0
 41
0.0
 71
     5
 72
     1
  1
{\Lソケット付Ｕ形側溝240}
 73
     1
 44
1.0
  0
MTEXT
  5
69FC
330
1F
100
AcDbEntity
  8
D-STR-TXT
370
    -3
100
AcDbMText
 10
1791.952995686437
 20
5357.223535268818
 30
0.0
 40
50.0
 41
0.0
 71
     5
 72
     1
  1
S=1/10
 73
     1
 44
1.0
  0
MTEXT
  5
6BD2
330
1F
100
AcDbEntity
  8
D-STR-DIM
100
AcDbMText
 10
4459.097555713095
 20
3813.539995101098
 30
0.0
 40
30.0
 41
0.0
 71
     5
 72
     1
  1
材料表
 73
     1
 44
1.0
  0
MTEXT
  5
6BD3
330
1F
100
AcDbEntity
  8
D-STR-DIM
100
AcDbMText
 10
4540.0
 20
3560.0
 30
0.0
 40
30.0
 41
0.0
 71
     5
 72
     1
  1
敷モルタル
 73
     1
 44
1.0
  0
LINE
  5
6BD4
330
1F
100
AcDbEntity
  8
D-STR-DIM
100
AcDbLine
 10
4390.0
 20
3440.0
 30
0.0
 11
5690.0
 21
3440.0
 31
0.0
  0
LINE
  5
6BD5
330
1F
100
AcDbEntity
  8
D-STR-DIM
100
AcDbLine
 10
4390.0
 20
3520.0
 30
0.0
 11
5690.0
 21
3520.0
 31
0.0
  0
LINE
  5
6BD6
330
1F
100
AcDbEntity
  8
D-STR-DIM
100
AcDbLine
 10
4390.0
 20
3600.0
 30
0.0
 11
5690.0
 21
3600.0
 31
0.0
  0
LINE
  5
6BD7
330
1F
100
AcDbEntity
  8
D-STR-DIM
100
AcDbLine
 10
4390.0
 20
3680.0
 30
0.0
 11
5690.0
 21
3680.0
 31
0.0
  0
LINE
  5
6BD8
330
1F
100
AcDbEntity
  8
D-STR-DIM
100
AcDbLine
 10
4390.0
 20
3780.0
 30
0.0
 11
5690.0
 21
3780.0
 31
0.0
  0
LINE
  5
6BD9
330
1F
100
AcDbEntity
  8
D-STR-DIM
100
AcDbLine
 10
4390.0
 20
3360.0
 30
0.0
 11
5690.0
 21
3360.0
 31
0.0
  0
LINE
  5
6BDA
330
1F
100
AcDbEntity
  8
D-STR-DIM
100
AcDbLine
 10
4390.0
 20
3280.0
 30
0.0
 11
5690.0
 21
3280.0
 31
0.0
  0
LINE
  5
6BDB
330
1F
100
AcDbEntity
  8
D-STR-DIM
100
AcDbLine
 10
4390.0
 20
3780.0
 30
0.0
 11
4390.0
 21
3280.0
 31
0.0
  0
MTEXT
  5
6BFB
330
1F
100
AcDbEntity
  8
D-STR-DIM
100
AcDbMText
 10
5240.0
 20
3560.0
 30
0.0
 40
30.0
 41
0.0
 71
     5
 72
     1
  1
0.13
 73
     1
 44
1.0
  0
MTEXT
  5
6BFD
330
1F
100
AcDbEntity
  8
D-STR-DIM
100
AcDbMText
 10
4840.0
 20
3560.0
 30
0.0
 40
30.0
 41
0.0
 71
     5
 72
     1
  1
C:S=1:3
 73
     1
 44
1.0
  0
MTEXT
  5
6BFE
330
1F
100
AcDbEntity
  8
D-STR-DIM
100
AcDbMText
 10
5040.0
 20
3560.0
 30
0.0
 40
30.0
 41
0.0
 71
     5
 72
     1
  1
m3
 73
     1
 44
1.0
  0
LINE
  5
6BFF
330
1F
100
AcDbEntity
  8
D-STR-DIM
100
AcDbLine
 10
4690.0
 20
3780.0
 30
0.0
 11
4690.0
 21
3280.0
 31
0.0
  0
LINE
  5
6C00
330
1F
100
AcDbEntity
  8
D-STR-DIM
100
AcDbLine
 10
4990.0
 20
3780.0
 30
0.0
 11
4990.0
 21
3280.0
 31
0.0
  0
LINE
  5
6C01
330
1F
100
AcDbEntity
  8
D-STR-DIM
100
AcDbLine
 10
5090.0
 20
3780.0
 30
0.0
 11
5090.0
 21
3280.0
 31
0.0
  0
LINE
  5
6C02
330
1F
100
AcDbEntity
  8
D-STR-DIM
100
AcDbLine
 10
5390.0
 20
3780.0
 30
0.0
 11
5390.0
 21
3280.0
 31
0.0
  0
LINE
  5
6C03
330
1F
100
AcDbEntity
  8
D-STR-DIM
100
AcDbLine
 10
5690.0
 20
3780.0
 30
0.0
 11
5690.0
 21
3280.0
 31
0.0
  0
MTEXT
  5
6C07
330
1F
100
AcDbEntity
  8
D-STR-DIM
100
AcDbMText
 10
4540.0
 20
3480.0
 30
0.0
 40
30.0
 41
0.0
 71
     5
 72
     1
  1
基礎材
 73
     1
 44
1.0
  0
MTEXT
  5
6C08
330
1F
100
AcDbEntity
  8
D-STR-DIM
100
AcDbMText
 10
4840.0
 20
3480.0
 30
0.0
 40
30.0
 41
0.0
 71
     5
 72
     1
  1
RC-40
 73
     1
 44
1.0
  0
MTEXT
  5
6C09
330
1F
100
AcDbEntity
  8
D-STR-DIM
100
AcDbMText
 10
5240.0
 20
3480.0
 30
0.0
 40
30.0
 41
0.0
 71
     5
 72
     1
  1
6.30
 73
     1
 44
1.0
  0
MTEXT
  5
6C0C
330
1F
100
AcDbEntity
  8
D-STR-DIM
100
AcDbMText
 10
5040.0
 20
3480.0
 30
0.0
 40
30.0
 41
0.0
 71
     5
 72
     1
  1
m2
 73
     1
 44
1.0
  0
MTEXT
  5
6C11
330
1F
100
AcDbEntity
  8
D-STR-DIM
100
AcDbMText
 10
5540.0
 20
3730.0
 30
0.0
 40
30.0
 41
0.0
 71
     5
 72
     1
  1
摘　要
 73
     1
 44
1.0
  0
MTEXT
  5
6C12
330
1F
100
AcDbEntity
  8
D-STR-DIM
100
AcDbMText
 10
4540.0
 20
3640.0
 30
0.0
 40
30.0
 41
0.0
 71
     5
 72
     1
  1
側　溝
 73
     1
 44
1.0
  0
MTEXT
  5
6C13
330
1F
100
AcDbEntity
  8
D-STR-DIM
100
AcDbMText
 10
4540.0
 20
3730.0
 30
0.0
 40
30.0
 41
0.0
 71
     5
 72
     1
  1
名　称
 73
     1
 44
1.0
  0
MTEXT
  5
6C14
330
1F
100
AcDbEntity
  8
D-STR-DIM
100
AcDbMText
 10
4840.0
 20
3640.0
 30
0.0
 40
30.0
 41
0.0
 71
     5
 72
     1
  1
450×450
 73
     1
 44
1.0
  0
MTEXT
  5
6C15
330
1F
100
AcDbEntity
  8
D-STR-DIM
100
AcDbMText
 10
4840.0
 20
3730.0
 30
0.0
 40
30.0
 41
0.0
 71
     5
 72
     1
  1
規　格
 73
     1
 44
1.0
  0
MTEXT
  5
6C16
330
1F
100
AcDbEntity
  8
D-STR-DIM
100
AcDbMText
 10
5240.0
 20
3640.0
 30
0.0
 40
30.0
 41
0.0
 71
     5
 72
     1
  1
16.7
 73
     1
 44
1.0
  0
MTEXT
  5
6C17
330
1F
100
AcDbEntity
  8
D-STR-DIM
100
AcDbMText
 10
5240.0
 20
3730.0
 30
0.0
 40
30.0
 41
0.0
 71
     5
 72
     1
  1
数　量
 73
     1
 44
1.0
  0
MTEXT
  5
6C18
330
1F
100
AcDbEntity
  8
D-STR-DIM
100
AcDbMText
 10
5040.0
 20
3640.0
 30
0.0
 40
30.0
 41
0.0
 71
     5
 72
     1
  1
本
 73
     1
 44
1.0
  0
MTEXT
  5
6C19
330
1F
100
AcDbEntity
  8
D-STR-DIM
100
AcDbMText
 10
5040.0
 20
3730.0
 30
0.0
 40
30.0
 41
0.0
 71
     5
 72
     1
  1
単位
 73
     1
 44
1.0
  0
MTEXT
  5
6C2F
330
1F
100
AcDbEntity
  8
D-STR-DIM
100
AcDbMText
 10
5598.889910226746
 20
3813.539995101098
 30
0.0
 40
30.0
 41
0.0
 71
     5
 72
     1
  1
10m当り
 73
     1
 44
1.0
  0
LINE
  5
95D4
330
1F
100
AcDbEntity
  8
D-STR-DIM
100
AcDbLine
 10
2710.0
 20
3280.0
 30
0.0
 11
4010.0
 21
3280.0
 31
0.0
  0
LINE
  5
95D5
330
1F
100
AcDbEntity
  8
D-STR-DIM
100
AcDbLine
 10
2710.0
 20
3440.0
 30
0.0
 11
4010.0
 21
3440.0
 31
0.0
  0
LINE
  5
95D6
330
1F
100
AcDbEntity
  8
D-STR-DIM
100
AcDbLine
 10
2710.0
 20
3360.0
 30
0.0
 11
4010.0
 21
3360.0
 31
0.0
  0
LINE
  5
95D7
330
1F
100
AcDbEntity
  8
D-STR-DIM
100
AcDbLine
 10
2710.0
 20
3520.0
 30
0.0
 11
4010.0
 21
3520.0
 31
0.0
  0
LINE
  5
95D8
330
1F
100
AcDbEntity
  8
D-STR-DIM
100
AcDbLine
 10
2710.0
 20
3600.0
 30
0.0
 11
4010.0
 21
3600.0
 31
0.0
  0
LINE
  5
95D9
330
1F
100
AcDbEntity
  8
D-STR-DIM
100
AcDbLine
 10
2710.0
 20
3680.0
 30
0.0
 11
4010.0
 21
3680.0
 31
0.0
  0
LINE
  5
95DA
330
1F
100
AcDbEntity
  8
D-STR-DIM
100
AcDbLine
 10
2710.0
 20
3780.0
 30
0.0
 11
4010.0
 21
3780.0
 31
0.0
  0
MTEXT
  5
95DB
330
1F
100
AcDbEntity
  8
D-STR-DIM
100
AcDbMText
 10
3560.0
 20
3640.0
 30
0.0
 40
30.0
 41
0.0
 71
     5
 72
     1
  1
16.7
 73
     1
 44
1.0
  0
MTEXT
  5
95DC
330
1F
100
AcDbEntity
  8
D-STR-DIM
100
AcDbMText
 10
3360.0
 20
3640.0
 30
0.0
 40
30.0
 41
0.0
 71
     5
 72
     1
  1
本
 73
     1
 44
1.0
  0
MTEXT
  5
95DD
330
1F
100
AcDbEntity
  8
D-STR-DIM
100
AcDbMText
 10
2860.0
 20
3640.0
 30
0.0
 40
30.0
 41
0.0
 71
     5
 72
     1
  1
側　溝
 73
     1
 44
1.0
  0
MTEXT
  5
95DE
330
1F
100
AcDbEntity
  8
D-STR-DIM
100
AcDbMText
 10
3160.0
 20
3640.0
 30
0.0
 40
30.0
 41
0.0
 71
     5
 72
     1
  1
300×300
 73
     1
 44
1.0
  0
LINE
  5
95DF
330
1F
100
AcDbEntity
  8
D-STR-DIM
100
AcDbLine
 10
3410.0
 20
3780.0
 30
0.0
 11
3410.0
 21
3280.0
 31
0.0
  0
LINE
  5
95E0
330
1F
100
AcDbEntity
  8
D-STR-DIM
100
AcDbLine
 10
3010.0
 20
3780.0
 30
0.0
 11
3010.0
 21
3280.0
 31
0.0
  0
LINE
  5
95E1
330
1F
100
AcDbEntity
  8
D-STR-DIM
100
AcDbLine
 10
3310.0
 20
3780.0
 30
0.0
 11
3310.0
 21
3280.0
 31
0.0
  0
LINE
  5
95E2
330
1F
100
AcDbEntity
  8
D-STR-DIM
100
AcDbLine
 10
2710.0
 20
3780.0
 30
0.0
 11
2710.0
 21
3280.0
 31
0.0
  0
MTEXT
  5
95E3
330
1F
100
AcDbEntity
  8
D-STR-DIM
100
AcDbMText
 10
3160.0
 20
3480.0
 30
0.0
 40
30.0
 41
0.0
 71
     5
 72
     1
  1
RC-40
 73
     1
 44
1.0
  0
MTEXT
  5
95E4
330
1F
100
AcDbEntity
  8
D-STR-DIM
100
AcDbMText
 10
3160.0
 20
3560.0
 30
0.0
 40
30.0
 41
0.0
 71
     5
 72
     1
  1
C:S=1:3
 73
     1
 44
1.0
  0
MTEXT
  5
95E6
330
1F
100
AcDbEntity
  8
D-STR-DIM
100
AcDbMText
 10
2860.0
 20
3560.0
 30
0.0
 40
30.0
 41
0.0
 71
     5
 72
     1
  1
敷モルタル
 73
     1
 44
1.0
  0
MTEXT
  5
95E7
330
1F
100
AcDbEntity
  8
D-STR-DIM
100
AcDbMText
 10
2860.0
 20
3480.0
 30
0.0
 40
30.0
 41
0.0
 71
     5
 72
     1
  1
基礎材
 73
     1
 44
1.0
  0
MTEXT
  5
95EA
330
1F
100
AcDbEntity
  8
D-STR-DIM
100
AcDbMText
 10
3360.0
 20
3480.0
 30
0.0
 40
30.0
 41
0.0
 71
     5
 72
     1
  1
m2
 73
     1
 44
1.0
  0
MTEXT
  5
95EB
330
1F
100
AcDbEntity
  8
D-STR-DIM
100
AcDbMText
 10
3360.0
 20
3560.0
 30
0.0
 40
30.0
 41
0.0
 71
     5
 72
     1
  1
m3
 73
     1
 44
1.0
  0
MTEXT
  5
95EC
330
1F
100
AcDbEntity
  8
D-STR-DIM
100
AcDbMText
 10
3560.0
 20
3480.0
 30
0.0
 40
30.0
 41
0.0
 71
     5
 72
     1
  1
5.00
 73
     1
 44
1.0
  0
MTEXT
  5
95ED
330
1F
100
AcDbEntity
  8
D-STR-DIM
100
AcDbMText
 10
3560.0
 20
3560.0
 30
0.0
 40
30.0
 41
0.0
 71
     5
 72
     1
  1
0.09
 73
     1
 44
1.0
  0
MTEXT
  5
95EE
330
1F
100
AcDbEntity
  8
D-STR-DIM
100
AcDbMText
 10
3160.0
 20
3730.0
 30
0.0
 40
30.0
 41
0.0
 71
     5
 72
     1
  1
規　格
 73
     1
 44
1.0
  0
MTEXT
  5
95EF
330
1F
100
AcDbEntity
  8
D-STR-DIM
100
AcDbMText
 10
2779.097555713095
 20
3813.539995101098
 30
0.0
 40
30.0
 41
0.0
 71
     5
 72
     1
  1
材料表
 73
     1
 44
1.0
  0
MTEXT
  5
95F0
330
1F
100
AcDbEntity
  8
D-STR-DIM
100
AcDbMText
 10
2860.0
 20
3730.0
 30
0.0
 40
30.0
 41
0.0
 71
     5
 72
     1
  1
名　称
 73
     1
 44
1.0
  0
MTEXT
  5
95F1
330
1F
100
AcDbEntity
  8
D-STR-DIM
100
AcDbMText
 10
3360.0
 20
3730.0
 30
0.0
 40
30.0
 41
0.0
 71
     5
 72
     1
  1
単位
 73
     1
 44
1.0
  0
MTEXT
  5
95F2
330
1F
100
AcDbEntity
  8
D-STR-DIM
100
AcDbMText
 10
3560.0
 20
3730.0
 30
0.0
 40
30.0
 41
0.0
 71
     5
 72
     1
  1
数　量
 73
     1
 44
1.0
  0
LINE
  5
9602
330
1F
100
AcDbEntity
  8
D-STR-DIM
100
AcDbLine
 10
3710.0
 20
3780.0
 30
0.0
 11
3710.0
 21
3280.0
 31
0.0
  0
LINE
  5
9603
330
1F
100
AcDbEntity
  8
D-STR-DIM
100
AcDbLine
 10
4010.0
 20
3780.0
 30
0.0
 11
4010.0
 21
3280.0
 31
0.0
  0
MTEXT
  5
9604
330
1F
100
AcDbEntity
  8
D-STR-DIM
100
AcDbMText
 10
3918.889910226746
 20
3813.539995101098
 30
0.0
 40
30.0
 41
0.0
 71
     5
 72
     1
  1
10m当り
 73
     1
 44
1.0
  0
MTEXT
  5
9605
330
1F
100
AcDbEntity
  8
D-STR-DIM
100
AcDbMText
 10
3860.0
 20
3730.0
 30
0.0
 40
30.0
 41
0.0
 71
     5
 72
     1
  1
摘　要
 73
     1
 44
1.0
  0
MTEXT
  5
960C
330
1F
100
AcDbEntity
  8
D-STR-TXT
370
    -3
100
AcDbMText
 10
3374.999794999998
 20
5430.304878810836
 30
0.0
 40
50.0
 41
0.0
 71
     5
 72
     1
  1
{\Lソケット付Ｕ形側溝300}
 73
     1
 44
1.0
  0
MTEXT
  5
961C
330
1F
100
AcDbEntity
  8
D-STR-TXT
370
    -3
100
AcDbMText
 10
3471.952995686437
 20
5357.22353526882
 30
0.0
 40
50.0
 41
0.0
 71
     5
 72
     1
  1
S=1/10
 73
     1
 44
1.0
  0
LINE
  5
D856
330
1F
100
AcDbEntity
  8
D-TTL
100
AcDbLine
 10
0.0
 20
5940.0
 30
0.0
 11
0.0
 21
0.0
 31
0.0
  0
LINE
  5
D85D
330
1F
100
AcDbEntity
  8
D-TTL
100
AcDbLine
 10
0.0
 20
0.0
 30
0.0
 11
8400.0
 21
0.0
 31
0.0
  0
LINE
  5
D864
330
1F
100
AcDbEntity
  8
D-TTL
100
AcDbLine
 10
0.0
 20
5940.0
 30
0.0
 11
8400.0
 21
5940.0
 31
0.0
  0
LINE
  5
D86B
330
1F
100
AcDbEntity
  8
D-TTL
100
AcDbLine
 10
8400.0
 20
5940.0
 30
0.0
 11
8400.0
 21
0.0
 31
0.0
  0
MTEXT
  5
E3E5
330
1F
100
AcDbEntity
  8
D-STR-TXT
370
    -3
100
AcDbMText
 10
5054.999795
 20
5430.304878810836
 30
0.0
 40
50.0
 41
0.0
 71
     5
 72
     1
  1
{\Lソケット付Ｕ形側溝450}
 73
     1
 44
1.0
  0
MTEXT
  5
E3E7
330
1F
100
AcDbEntity
  8
D-STR-TXT
370
    -3
100
AcDbMText
 10
5151.952995686439
 20
5357.223535268818
 30
0.0
 40
50.0
 41
0.0
 71
     5
 72
     1
  1
S=1/10
 73
     1
 44
1.0
  0
LINE
  5
E442
330
1F
100
AcDbEntity
  8
D-STR
100
AcDbLine
 10
1791.996617062762
 20
4440.687632748881
 30
0.0
 11
1799.999987628009
 21
4632.769226216009
 31
0.0
  0
LINE
  5
E443
330
1F
100
AcDbEntity
  8
D-STR
100
AcDbLine
 10
1568.003382937236
 20
4440.687632748881
 30
0.0
 11
1560.000012371991
 21
4632.769226216009
 31
0.0
  0
LINE
  5
E444
102
{ACAD_REACTORS
330
E5D1
102
}
330
1F
100
AcDbEntity
  8
D-STR
100
AcDbLine
 10
1515.0000388834
 20
4632.769226216009
 30
0.0
 11
1520.212728139516
 21
4382.556467441085
 31
0.0
  0
LINE
  5
E445
330
1F
100
AcDbEntity
  8
D-STR
  6
DASHED1
100
AcDbLine
 10
1504.997958443332
 20
4632.769226216009
 30
0.0
 11
1510.29880243839
 21
4378.328364215791
 31
0.0
  0
LINE
  5
E446
330
1F
100
AcDbEntity
  8
D-STR
  6
DASHED1
100
AcDbLine
 10
1479.99241262842
 20
4632.769226216009
 30
0.0
 11
1485.513550747315
 21
4367.758281127855
 31
0.0
  0
LINE
  5
E447
102
{ACAD_REACTORS
330
E5ED
102
}
330
1F
100
AcDbEntity
  8
D-STR
100
AcDbLine
 10
1844.999961116599
 20
4632.769226216009
 30
0.0
 11
1839.78709688518
 21
4382.556467441085
 31
0.0
  0
LINE
  5
E448
330
1F
100
AcDbEntity
  8
D-STR
  6
DASHED1
100
AcDbLine
 10
1855.002041556667
 20
4632.76922621601
 30
0.0
 11
1849.70119756161
 21
4378.328364215791
 31
0.0
  0
LINE
  5
E449
102
{ACAD_REACTORS
330
E5ED
102
}
330
1F
100
AcDbEntity
  8
D-STR
  6
DASHED1
100
AcDbLine
 10
1880.00758737158
 20
4632.769226216015
 30
0.0
 11
1874.486449252685
 21
4367.758281127855
 31
0.0
  0
LINE
  5
E44A
330
1F
100
AcDbEntity
  8
D-STR
100
AcDbLine
 10
1560.000012371991
 20
4342.769183208611
 30
0.0
 11
1799.999987628009
 21
4342.769183208611
 31
0.0
  0
LINE
  5
E44B
330
1F
100
AcDbEntity
  8
D-STR
  6
DASHED1
100
AcDbLine
 10
1555.857822020541
 20
4332.769169658335
 30
0.0
 11
1804.142177979458
 21
4332.769169658335
 31
0.0
  0
LINE
  5
E44C
330
1F
100
AcDbEntity
  8
D-STR
  6
DASHED1
100
AcDbLine
 10
1545.502433629569
 20
4307.769223270297
 30
0.0
 11
1814.497391395127
 21
4307.769223270297
 31
0.0
  0
LINE
  5
E44D
330
1F
100
AcDbEntity
  8
D-STR
100
AcDbLine
 10
1617.960056614231
 20
4392.769250959991
 30
0.0
 11
1742.039943385768
 21
4392.769250959991
 31
0.0
  0
LINE
  5
E44E
330
1F
100
AcDbEntity
  8
D-STR
100
AcDbLine
 10
1560.000012371991
 20
4342.769183208611
 30
0.0
 11
1520.212728139516
 21
4382.556467441085
 31
0.0
  0
LINE
  5
E44F
330
1F
100
AcDbEntity
  8
D-STR
  6
DASHED1
100
AcDbLine
 10
1555.857822020541
 20
4332.769169658335
 30
0.0
 11
1510.29880243839
 21
4378.328364215791
 31
0.0
  0
LINE
  5
E450
330
1F
100
AcDbEntity
  8
D-STR
  6
DASHED1
100
AcDbLine
 10
1545.502433629569
 20
4307.769223270297
 30
0.0
 11
1485.513550747315
 21
4367.758281127855
 31
0.0
  0
ARC
  5
E451
330
1F
100
AcDbEntity
  8
D-STR
100
AcDbCircle
 10
1617.960056614231
 20
4442.769143736068
 30
0.0
 40
50.00000213564132
100
AcDbArc
 50
182.385925292943
 51
270.0
  0
LINE
  5
E452
330
1F
100
AcDbEntity
  8
D-STR
  6
DASHED1
100
AcDbLine
 10
1814.497391395127
 20
4307.769223270297
 30
0.0
 11
1874.486449252685
 21
4367.758281127855
 31
0.0
  0
LINE
  5
E453
330
1F
100
AcDbEntity
  8
D-STR
100
AcDbLine
 10
1799.999987628009
 20
4342.769183208611
 30
0.0
 11
1839.78709688518
 21
4382.556467441085
 31
0.0
  0
LINE
  5
E454
330
1F
100
AcDbEntity
  8
D-STR
  6
DASHED1
100
AcDbLine
 10
1804.142177979458
 20
4332.769169658335
 30
0.0
 11
1849.70119756161
 21
4378.328364215791
 31
0.0
  0
ARC
  5
E455
330
1F
100
AcDbEntity
  8
D-STR
100
AcDbCircle
 10
1742.039943385768
 20
4442.769143736068
 30
0.0
 40
50.00000213564132
100
AcDbArc
 50
270.0
 51
357.6140747070569
  0
LINE
  5
E456
330
1F
100
AcDbEntity
  8
D-STR
100
AcDbLine
 10
1515.0000388834
 20
4632.769226216009
 30
0.0
 11
1560.000012371991
 21
4632.769226216009
 31
0.0
  0
LINE
  5
E457
330
1F
100
AcDbEntity
  8
D-STR
100
AcDbLine
 10
1844.999961116599
 20
4632.769226216009
 30
0.0
 11
1799.999987628009
 21
4632.769226216009
 31
0.0
  0
LINE
  5
E458
330
1F
100
AcDbEntity
  8
D-STR
  6
Continuous
100
AcDbLine
 10
2005.000002945712
 20
2271.626499211852
 30
0.0
 11
2005.000002945712
 21
2561.626454731598
 31
0.0
  0
LINE
  5
E459
102
{ACAD_REACTORS
330
F16F
330
F191
102
}
330
1F
100
AcDbEntity
  8
D-STR
  6
Continuous
100
AcDbLine
 10
1354.999997054287
 20
2236.626451785887
 30
0.0
 11
1354.999997054287
 21
2561.626454731598
 31
0.0
  0
LINE
  5
E45A
102
{ACAD_REACTORS
330
F1F5
330
F217
102
}
330
1F
100
AcDbEntity
  8
D-STR
  6
Continuous
100
AcDbLine
 10
1415.000078355943
 20
2236.626451785887
 30
0.0
 11
1415.000078355943
 21
2561.626454731598
 31
0.0
  0
LINE
  5
E45B
330
1F
100
AcDbEntity
  8
D-STR
  6
Continuous
100
AcDbLine
 10
1444.999944031468
 20
2271.626499211852
 30
0.0
 11
1444.999944031468
 21
2561.626454731598
 31
0.0
  0
LINE
  5
E45C
102
{ACAD_REACTORS
330
F13F
330
F157
102
}
330
1F
100
AcDbEntity
  8
D-STR
  6
DASHED1
100
AcDbLine
 10
1404.999889830364
 20
2271.6264117242
 30
0.0
 11
1404.999889830364
 21
2561.626454731598
 31
0.0
  0
LINE
  5
E45D
102
{ACAD_REACTORS
330
F217
330
F22F
102
}
330
1F
100
AcDbEntity
  8
D-STR
  6
Continuous
100
AcDbLine
 10
1444.999944031468
 20
2271.626499211852
 30
0.0
 11
2005.000002945712
 21
2271.626499211852
 31
0.0
  0
LINE
  5
E45E
330
1F
100
AcDbEntity
  8
D-STR
  6
Continuous
100
AcDbLine
 10
1444.999944031468
 20
2311.413695956674
 30
0.0
 11
2005.000002945712
 21
2311.413695956674
 31
0.0
  0
LINE
  5
E45F
330
1F
100
AcDbEntity
  8
D-STR
  6
DASHED1
100
AcDbLine
 10
1404.999889830364
 20
2321.62647947558
 30
0.0
 11
2005.000002945712
 21
2321.62647947558
 31
0.0
  0
LINE
  5
E460
330
1F
100
AcDbEntity
  8
D-STR
  6
Continuous
100
AcDbLine
 10
1415.000078355943
 20
2296.615509643444
 30
0.0
 11
1444.999944031468
 21
2311.413695956674
 31
0.0
  0
LINE
  5
E461
330
1F
100
AcDbEntity
  8
D-STR
  6
Continuous
100
AcDbLine
 10
1354.999997054287
 20
2296.615509643444
 30
0.0
 11
1415.000078355943
 21
2296.615509643444
 31
0.0
  0
LINE
  5
E462
330
1F
100
AcDbEntity
  8
D-STR
  6
Continuous
100
AcDbLine
 10
1354.999997054287
 20
2236.626451785887
 30
0.0
 11
1415.000078355943
 21
2236.626451785887
 31
0.0
  0
LINE
  5
E463
102
{ACAD_REACTORS
330
F16F
330
F191
102
}
330
1F
100
AcDbEntity
  8
D-STR
  6
DASHED1
100
AcDbLine
 10
1354.999997054287
 20
2261.626485661576
 30
0.0
 11
1404.999889830364
 21
2271.6264117242
 31
0.0
  0
LINE
  5
E464
330
1F
100
AcDbEntity
  8
D-STR
  6
Continuous
100
AcDbLine
 10
1415.000078355943
 20
2236.626451785887
 30
0.0
 11
1444.999944031468
 21
2271.626499211852
 31
0.0
  0
LINE
  5
E465
102
{ACAD_REACTORS
330
F13F
330
F157
102
}
330
1F
100
AcDbEntity
  8
D-STR
  6
Continuous
100
AcDbLine
 10
1354.999997054287
 20
2561.626454731598
 30
0.0
 11
2005.000002945712
 21
2561.626454731598
 31
0.0
  0
LINE
  5
E46E
330
1F
100
AcDbEntity
  8
D-STR
 62
     0
100
AcDbLine
 10
1460.000025
 20
4212.769183208611
 30
0.0
 11
1899.999974999999
 21
4212.769183208611
 31
0.0
  0
LINE
  5
E46F
330
1F
100
AcDbEntity
  8
D-STR
 62
     0
100
AcDbLine
 10
1460.000025
 20
4312.769193208611
 30
0.0
 11
1899.999974999999
 21
4312.769193208611
 31
0.0
  0
LINE
  5
E470
330
1F
100
AcDbEntity
  8
D-STR
 62
     0
100
AcDbLine
 10
1460.000025
 20
4312.769193208611
 30
0.0
 11
1460.000025
 21
4212.769183208611
 31
0.0
  0
LINE
  5
E471
330
1F
100
AcDbEntity
  8
D-STR
 62
     0
100
AcDbLine
 10
1899.999974999999
 20
4312.769193208611
 30
0.0
 11
1899.999974999999
 21
4212.769183208611
 31
0.0
  0
POINT
  5
E472
330
1F
100
AcDbEntity
  8
D-STR
 62
     0
100
AcDbPoint
 10
1560.000025
 20
4312.769193208611
 30
0.0
  0
HATCH
  5
E473
330
1F
100
AcDbEntity
  8
D-STR
 62
     0
100
AcDbHatch
 10
0.0
 20
0.0
 30
0.0
210
0.0
220
0.0
230
1.0
  2
ANSI31
 70
     0
 71
     0
 91
        1
 92
        7
 72
     0
 73
     1
 93
        4
 10
1799.999974999999
 20
4312.769193208609
 10
1799.999974999999
 20
4342.769183208611
 10
1560.000025
 20
4342.769183208609
 10
1560.000025
 20
4312.769193208611
 97
        0
 75
     0
 76
     1
 52
0.0
 41
7.5
 77
     0
 78
     1
 53
45.0
 43
494.3702707622805
 44
3470.009660184924
 45
-16.83798022700466
 46
16.83798022700466
 79
     0
 47
0.882510394850604
 98
        1
 10
1686.576571831449
 20
4327.751252946404
  0
LINE
  5
E474
330
1F
100
AcDbEntity
  8
D-STR
 62
     0
100
AcDbLine
 10
1799.999974999999
 20
4342.769183208611
 30
0.0
 11
1799.999974999999
 21
4312.769193208611
 31
0.0
  0
LINE
  5
E475
330
1F
100
AcDbEntity
  8
D-STR
 62
     0
100
AcDbLine
 10
1560.000025
 20
4342.769183208611
 30
0.0
 11
1560.000025
 21
4312.769193208611
 31
0.0
  0
DIMENSION
  5
E476
330
1F
100
AcDbEntity
  8
D-STR-DIM
100
AcDbDimension
  2
*D3
 10
1372.499955
 20
4312.769193208611
 30
0.0
 11
1409.35398347318
 21
4324.273961029035
 31
0.0
 70
   160
 71
     5
 42
29.99999000000025
  3
S10
100
AcDbAlignedDimension
 13
1560.000025
 23
4342.769183208611
 33
0.0
 14
1460.000025
 24
4312.769193208611
 34
0.0
 50
90.0
100
AcDbRotatedDimension
1001
ACAD
1000
DSTYLE
1002
{
1070
   279
1070
     2
1002
}
  0
DIMENSION
  5
E477
330
1F
100
AcDbEntity
  8
D-STR-DIM
100
AcDbDimension
  2
*D2
 10
1372.499955
 20
4342.769183208611
 30
0.0
 11
1372.499955
 21
4367.7692170843
 31
0.0
 70
   160
 71
     5
 42
50.0000677513799
  3
S10
100
AcDbAlignedDimension
 13
1519.99996494077
 23
4392.769250959991
 33
0.0
 14
1560.000025
 24
4342.769183208611
 34
0.0
 50
90.0
100
AcDbRotatedDimension
  0
DIMENSION
  5
E478
330
1F
100
AcDbEntity
  8
D-STR-DIM
100
AcDbDimension
  2
*D6
 10
1372.499955
 20
4392.769250959991
 30
0.0
 11
1347.499954999999
 21
4512.769238588
 31
0.0
 70
    32
 71
     5
 42
239.9999752560179
  3
S10
100
AcDbAlignedDimension
 13
1479.99241262842
 23
4632.769226216009
 33
0.0
 14
1519.99996494077
 24
4392.769250959991
 34
0.0
 50
90.0
100
AcDbRotatedDimension
  0
DIMENSION
  5
E479
330
1F
100
AcDbEntity
  8
D-STR-DIM
100
AcDbDimension
  2
*D4
 10
1297.499955
 20
4212.769183208611
 30
0.0
 11
1272.499954999999
 21
4422.769204712309
 31
0.0
 70
    32
 71
     5
 42
420.0000430073978
  3
S10
100
AcDbAlignedDimension
 13
1479.99241262842
 23
4632.769226216009
 33
0.0
 14
1460.000025
 24
4212.769183208611
 34
0.0
 50
90.0
100
AcDbRotatedDimension
  0
DIMENSION
  5
E47A
330
1F
100
AcDbEntity
  8
D-STR-DIM
100
AcDbDimension
  2
*D5
 10
1372.499955
 20
4212.769183208611
 30
0.0
 11
1347.499954999999
 21
4262.76918820861
 31
0.0
 70
    32
 71
     5
 42
100.0000099999997
  3
S10
100
AcDbAlignedDimension
 13
1460.000025
 23
4312.769193208611
 33
0.0
 14
1460.000025
 24
4212.769183208611
 34
0.0
 50
90.0
100
AcDbRotatedDimension
  0
DIMENSION
  5
E47B
330
1F
100
AcDbEntity
  8
D-STR-DIM
100
AcDbDimension
  2
*D8
 10
1899.999974999999
 20
4062.769183208611
 30
0.0
 11
1680.0
 21
4087.769183208611
 31
0.0
 70
    32
 71
     5
 42
439.9999499999994
  3
S10
100
AcDbAlignedDimension
 13
1460.000025
 23
4212.769183208611
 33
0.0
 14
1899.999974999999
 24
4212.769183208611
 34
0.0
100
AcDbRotatedDimension
  0
DIMENSION
  5
E47C
330
1F
100
AcDbEntity
  8
D-STR-DIM
100
AcDbDimension
  2
*D9
 10
1560.000025
 20
4137.769183208611
 30
0.0
 11
1510.000025
 21
4162.769183208611
 31
0.0
 70
    32
 71
     5
 42
100.0
  3
S10
100
AcDbAlignedDimension
 13
1460.000025
 23
4212.769183208611
 33
0.0
 14
1560.000025
 24
4212.769183208611
 34
0.0
100
AcDbRotatedDimension
  0
DIMENSION
  5
E47D
330
1F
100
AcDbEntity
  8
D-STR-DIM
100
AcDbDimension
  2
*D7
 10
1799.999974999999
 20
4137.769183208611
 30
0.0
 11
1680.0
 21
4162.769183208611
 31
0.0
 70
    32
 71
     5
 42
239.9999499999994
  3
S10
100
AcDbAlignedDimension
 13
1560.000025
 23
4212.769183208611
 33
0.0
 14
1799.999974999999
 24
4212.769183208611
 34
0.0
100
AcDbRotatedDimension
  0
DIMENSION
  5
E47E
330
1F
100
AcDbEntity
  8
D-STR-DIM
100
AcDbDimension
  2
*D10
 10
1899.999974999999
 20
4137.769183208611
 30
0.0
 11
1849.999974999999
 21
4162.769183208611
 31
0.0
 70
    32
 71
     5
 42
100.0
  3
S10
100
AcDbAlignedDimension
 13
1799.999974999999
 23
4212.769183208611
 33
0.0
 14
1899.999974999999
 24
4212.769183208611
 34
0.0
100
AcDbRotatedDimension
  0
DIMENSION
  5
E556
330
1F
100
AcDbEntity
  8
D-STR-DIM
100
AcDbDimension
  2
*D14
 10
1560.000037628009
 20
4707.769226216009
 30
0.0
 11
1536.589889496909
 21
4707.980318546794
 31
0.0
 70
   160
 71
     5
 42
44.99997000000075
  3
S10
100
AcDbAlignedDimension
 13
1515.000067628008
 23
4632.769226216009
 33
0.0
 14
1560.000037628009
 24
4632.769226216009
 34
0.0
100
AcDbRotatedDimension
1001
ACAD
1000
DSTYLE
1002
{
1070
   279
1070
     1
1002
}
  0
DIMENSION
  5
E557
330
1F
100
AcDbEntity
  8
D-STR-DIM
100
AcDbDimension
  2
*D12
 10
1845.000047628009
 20
4782.769226216009
 30
0.0
 11
1680.000057628009
 21
4807.769226216009
 31
0.0
 70
    32
 71
     5
 42
329.9999800000005
  3
S10
100
AcDbAlignedDimension
 13
1515.000067628008
 23
4632.769226216009
 33
0.0
 14
1845.000047628009
 24
4632.769226216009
 34
0.0
100
AcDbRotatedDimension
  0
DIMENSION
  5
E558
330
1F
100
AcDbEntity
  8
D-STR-DIM
100
AcDbDimension
  2
*D13
 10
1845.000047628009
 20
4707.769226216009
 30
0.0
 11
1819.796343502638
 21
4707.314057242325
 31
0.0
 70
   160
 71
     5
 42
45.0000600000003
  3
S10
100
AcDbAlignedDimension
 13
1799.999987628009
 23
4632.769226216009
 33
0.0
 14
1845.000047628009
 24
4632.769226216009
 34
0.0
100
AcDbRotatedDimension
1001
ACAD
1000
DSTYLE
1002
{
1070
   279
1070
     1
1002
}
  0
DIMENSION
  5
E559
330
1F
100
AcDbEntity
  8
D-STR-DIM
100
AcDbDimension
  2
*D11
 10
1799.999987628009
 20
4707.769226216009
 30
0.0
 11
1680.000012628009
 21
4732.769226216009
 31
0.0
 70
    32
 71
     5
 42
239.9999499999994
  3
S10
100
AcDbAlignedDimension
 13
1560.000037628009
 23
4632.769226216009
 33
0.0
 14
1799.999987628009
 24
4632.769226216009
 34
0.0
100
AcDbRotatedDimension
  0
DIMENSION
  5
E5B6
102
{ACAD_XDICTIONARY
360
E5C5
102
}
102
{ACAD_REACTORS
330
E5D1
102
}
330
1F
100
AcDbEntity
  8
D-STR-DIM
100
AcDbDimension
  2
*D15
 10
1515.0000388834
 20
4782.769226216009
 30
0.0
 11
1497.503820883261
 21
4782.769226216009
 31
0.0
 70
   160
 71
     5
 42
34.99243600027876
  3
S10
100
AcDbAlignedDimension
 13
1480.007602883121
 23
4632.040104127788
 33
0.0
 14
1515.0000388834
 24
4632.769226216009
 34
0.0
100
AcDbRotatedDimension
1001
ACAD
1000
DSTYLE
1002
{
1070
   279
1070
     1
1002
}
  0
DIMENSION
  5
E5D2
102
{ACAD_XDICTIONARY
360
E5E1
102
}
102
{ACAD_REACTORS
330
E5ED
102
}
330
1F
100
AcDbEntity
  8
D-STR-DIM
100
AcDbDimension
  2
*D16
 10
1880.00758737158
 20
4782.769226216016
 30
0.0
 11
1862.503774244089
 21
4782.769226216016
 31
0.0
 70
   160
 71
     5
 42
35.007626254981
  3
S10
100
AcDbAlignedDimension
 13
1844.999961116599
 23
4632.769226216009
 33
0.0
 14
1880.00758737158
 24
4632.769226216015
 34
0.0
100
AcDbRotatedDimension
1001
ACAD
1000
DSTYLE
1002
{
1070
   279
1070
     1
1002
}
  0
LINE
  5
E6BC
330
1F
100
AcDbEntity
  8
D-STR
100
AcDbLine
 10
3560.000028542568
 20
4702.769146092638
 30
0.0
 11
3510.000048278837
 21
4702.769146092638
 31
0.0
  0
LINE
  5
E6BD
330
1F
100
AcDbEntity
  8
D-STR
  6
DASHED1
100
AcDbLine
 10
3516.213158830708
 20
4327.769162883196
 30
0.0
 11
3564.10468669149
 21
4375.660690743978
 31
0.0
  0
LINE
  5
E6BE
330
1F
100
AcDbEntity
  8
D-STR
  6
DASHED1
100
AcDbLine
 10
3528.639554909754
 20
4297.769122232368
 30
0.0
 11
3593.693447892266
 21
4362.823015214881
 31
0.0
  0
ARC
  5
E6BF
330
1F
100
AcDbEntity
  8
D-STR
100
AcDbCircle
 10
3443.222386097351
 20
4452.769157286343
 30
0.0
 40
50.00000213564132
100
AcDbArc
 50
270.0
 51
356.185943603484
  0
ARC
  5
E6C0
330
1F
100
AcDbEntity
  8
D-STR
100
AcDbCircle
 10
3276.77765390265
 20
4452.769157286343
 30
0.0
 40
50.00000213564132
100
AcDbArc
 50
183.8140563965159
 51
270.0
  0
LINE
  5
E6C1
330
1F
100
AcDbEntity
  8
D-STR
  6
DASHED1
100
AcDbLine
 10
3114.974998757525
 20
4702.769146092633
 30
0.0
 11
3126.306592107736
 21
4362.823015214881
 31
0.0
  0
LINE
  5
E6C2
330
1F
100
AcDbEntity
  8
D-STR
  6
DASHED1
100
AcDbLine
 10
3144.991679805122
 20
4702.769146092638
 30
0.0
 11
3155.895353308512
 21
4375.660690743978
 31
0.0
  0
LINE
  5
E6C3
102
{ACAD_REACTORS
330
E99D
102
}
330
1F
100
AcDbEntity
  8
D-STR
100
AcDbLine
 10
3160.000011457435
 20
4702.76914609264
 30
0.0
 11
3170.689690165073
 21
4382.079484764699
 31
0.0
  0
LINE
  5
E6C4
102
{ACAD_REACTORS
330
E9C4
102
}
330
1F
100
AcDbEntity
  8
D-STR
100
AcDbLine
 10
3560.000028542568
 20
4702.769146092638
 30
0.0
 11
3549.310349834928
 21
4382.079484764699
 31
0.0
  0
LINE
  5
E6C5
330
1F
100
AcDbEntity
  8
D-STR
100
AcDbLine
 10
3276.77765390265
 20
4402.769177022615
 30
0.0
 11
3443.222386097351
 21
4402.769177022615
 31
0.0
  0
LINE
  5
E6C6
330
1F
100
AcDbEntity
  8
D-STR
100
AcDbLine
 10
3209.999991721165
 20
4342.769183208611
 30
0.0
 11
3510.000048278837
 21
4342.769183208611
 31
0.0
  0
LINE
  5
E6C7
330
1F
100
AcDbEntity
  8
D-STR
  6
DASHED1
100
AcDbLine
 10
3203.786881169293
 20
4327.769162883196
 30
0.0
 11
3516.213158830708
 21
4327.769162883196
 31
0.0
  0
LINE
  5
E6C8
330
1F
100
AcDbEntity
  8
D-STR
  6
DASHED1
100
AcDbLine
 10
3191.360485090248
 20
4297.769122232368
 30
0.0
 11
3528.639554909754
 21
4297.769122232368
 31
0.0
  0
LINE
  5
E6C9
330
1F
100
AcDbEntity
  8
D-STR
  6
DASHED1
100
AcDbLine
 10
3203.786881169293
 20
4327.769162883196
 30
0.0
 11
3155.895353308512
 21
4375.660690743978
 31
0.0
  0
LINE
  5
E6CA
330
1F
100
AcDbEntity
  8
D-STR
100
AcDbLine
 10
3209.999991721165
 20
4342.769183208611
 30
0.0
 11
3170.689690165073
 21
4382.079484764699
 31
0.0
  0
LINE
  5
E6CB
330
1F
100
AcDbEntity
  8
D-STR
  6
DASHED1
100
AcDbLine
 10
3191.360485090248
 20
4297.769122232368
 30
0.0
 11
3126.306592107736
 21
4362.823015214881
 31
0.0
  0
LINE
  5
E6CC
330
1F
100
AcDbEntity
  8
D-STR
100
AcDbLine
 10
3510.000048278837
 20
4342.769183208611
 30
0.0
 11
3549.310349834928
 21
4382.079484764699
 31
0.0
  0
LINE
  5
E6CD
330
1F
100
AcDbEntity
  8
D-STR
100
AcDbLine
 10
3226.888433005815
 20
4449.443226724084
 30
0.0
 11
3209.999991721165
 21
4702.769146092638
 31
0.0
  0
LINE
  5
E6CE
330
1F
100
AcDbEntity
  8
D-STR
100
AcDbLine
 10
3160.000011457435
 20
4702.76914609264
 30
0.0
 11
3209.999991721165
 21
4702.769146092638
 31
0.0
  0
LINE
  5
E6CF
330
1F
100
AcDbEntity
  8
D-STR
100
AcDbLine
 10
3493.111606994187
 20
4449.443226724084
 30
0.0
 11
3510.000048278837
 21
4702.769146092638
 31
0.0
  0
LINE
  5
E6D0
330
1F
100
AcDbEntity
  8
D-STR
100
AcDbLine
 10
3034.999909566636
 20
2561.626454731598
 30
0.0
 11
3685.000090433364
 21
2561.626454731598
 31
0.0
  0
LINE
  5
E6D1
330
1F
100
AcDbEntity
  8
D-STR
100
AcDbLine
 10
3125.00003151912
 20
2201.626491847571
 30
0.0
 11
3685.000090433364
 21
2201.626491847571
 31
0.0
  0
LINE
  5
E6D2
330
1F
100
AcDbEntity
  8
D-STR
  6
DASHED1
100
AcDbLine
 10
3084.999977318016
 20
2261.626485661576
 30
0.0
 11
3685.000090433364
 21
2261.626485661576
 31
0.0
  0
LINE
  5
E6D3
330
1F
100
AcDbEntity
  8
D-STR
100
AcDbLine
 10
3125.00003151912
 20
2240.93679340366
 30
0.0
 11
3685.000090433364
 21
2240.93679340366
 31
0.0
  0
LINE
  5
E6D4
330
1F
100
AcDbEntity
  8
D-STR
100
AcDbLine
 10
3034.999909566636
 20
2156.626430871328
 30
0.0
 11
3034.999909566636
 21
2561.626454731598
 31
0.0
  0
LINE
  5
E6D5
330
1F
100
AcDbEntity
  8
D-STR
100
AcDbLine
 10
3094.999990868292
 20
2156.626430871328
 30
0.0
 11
3094.999990868292
 21
2561.626454731598
 31
0.0
  0
LINE
  5
E6D6
102
{ACAD_REACTORS
330
E9C4
102
}
330
1F
100
AcDbEntity
  8
D-STR
  6
DASHED1
100
AcDbLine
 10
3605.025041242476
 20
4702.769146092638
 30
0.0
 11
3593.693447892266
 21
4362.823015214881
 31
0.0
  0
LINE
  5
E6D7
330
1F
100
AcDbEntity
  8
D-STR
  6
DASHED1
100
AcDbLine
 10
3575.00836019488
 20
4702.769146092638
 30
0.0
 11
3564.10468669149
 21
4375.660690743978
 31
0.0
  0
LINE
  5
E6D8
330
1F
100
AcDbEntity
  8
D-STR
  6
DASHED1
100
AcDbLine
 10
3084.999977318016
 20
2201.626491847571
 30
0.0
 11
3084.999977318016
 21
2561.626454731598
 31
0.0
  0
LINE
  5
E6D9
330
1F
100
AcDbEntity
  8
D-STR
100
AcDbLine
 10
3125.00003151912
 20
2201.626491847571
 30
0.0
 11
3125.00003151912
 21
2561.626454731598
 31
0.0
  0
LINE
  5
E6DA
330
1F
100
AcDbEntity
  8
D-STR
100
AcDbLine
 10
3125.00003151912
 20
2240.93679340366
 30
0.0
 11
3084.999977318016
 21
2214.365393818039
 31
0.0
  0
LINE
  5
E6DB
330
1F
100
AcDbEntity
  8
D-STR
100
AcDbLine
 10
3034.999909566636
 20
2156.626430871328
 30
0.0
 11
3094.999990868292
 21
2156.626430871328
 31
0.0
  0
LINE
  5
E6DC
330
1F
100
AcDbEntity
  8
D-STR
  6
DASHED1
100
AcDbLine
 10
3034.999909566636
 20
2186.626471522156
 30
0.0
 11
3084.999977318016
 21
2201.626491847571
 31
0.0
  0
LINE
  5
E6DD
330
1F
100
AcDbEntity
  8
D-STR
100
AcDbLine
 10
3034.999909566636
 20
2214.365393818039
 30
0.0
 11
3084.999977318016
 21
2214.365393818039
 31
0.0
  0
LINE
  5
E6DE
330
1F
100
AcDbEntity
  8
D-STR
100
AcDbLine
 10
3094.999990868292
 20
2156.626430871328
 30
0.0
 11
3125.00003151912
 21
2201.626491847571
 31
0.0
  0
LINE
  5
E6DF
330
1F
100
AcDbEntity
  8
D-STR
100
AcDbLine
 10
3685.000090433364
 20
2201.626491847571
 30
0.0
 11
3685.000090433364
 21
2561.626454731598
 31
0.0
  0
LINE
  5
E6E3
330
1F
100
AcDbEntity
  8
D-STR
  6
DASHED1
100
AcDbLine
 10
3160.000011457435
 20
4702.76914609264
 30
0.0
 11
3114.974998757525
 21
4702.769146092633
 31
0.0
  0
LINE
  5
E6E4
330
1F
100
AcDbEntity
  8
D-STR
  6
DASHED1
100
AcDbLine
 10
3560.000028542568
 20
4702.769146092638
 30
0.0
 11
3605.025041242476
 21
4702.769146092638
 31
0.0
  0
LINE
  5
E6E5
330
1F
100
AcDbEntity
  8
D-STR
  6
DASHED1
100
AcDbLine
 10
1515.0000388834
 20
4632.769226216009
 30
0.0
 11
1479.99241262842
 21
4632.769226216009
 31
0.0
  0
LINE
  5
E6F8
330
1F
100
AcDbEntity
  8
D-STR
  6
DASHED1
100
AcDbLine
 10
1844.999986372618
 20
4632.769226216009
 30
0.0
 11
1880.00758737158
 21
4632.769226216015
 31
0.0
  0
DIMENSION
  5
E727
330
1F
100
AcDbEntity
  8
D-STR-DIM
100
AcDbDimension
  2
*D18
 10
1790.000020540076
 20
4463.080334590253
 30
0.0
 11
1679.999999999999
 21
4488.080334590253
 31
0.0
 70
    32
 71
     5
 42
220.0000410801535
  3
S10
100
AcDbAlignedDimension
 13
1569.999979459923
 23
4392.769141600427
 33
0.0
 14
1790.000020540076
 24
4392.769141600427
 34
0.0
100
AcDbRotatedDimension
  0
DIMENSION
  5
E728
330
1F
100
AcDbEntity
  8
D-STR-DIM
100
AcDbDimension
  2
*D17
 10
1570.000068508505
 20
4463.080334590253
 30
0.0
 11
1545.261065734562
 21
4462.862185698038
 31
0.0
 70
   160
 71
     5
 42
50.01956378471914
  3
S10
100
AcDbAlignedDimension
 13
1519.980504723786
 23
4392.76927195999
 33
0.0
 14
1570.000068508505
 24
4392.76927195999
 34
0.0
100
AcDbRotatedDimension
1001
ACAD
1000
DSTYLE
1002
{
1070
   279
1070
     1
1002
}
  0
DIMENSION
  5
E729
330
1F
100
AcDbEntity
  8
D-STR-DIM
100
AcDbDimension
  2
*D19
 10
1839.999995595237
 20
4463.080334590253
 30
0.0
 11
1818.859307556916
 21
4463.722995197393
 31
0.0
 70
   160
 71
     5
 42
49.99997505516103
  3
S10
100
AcDbAlignedDimension
 13
1790.000020540076
 23
4392.769141600427
 33
0.0
 14
1839.999995595237
 24
4392.76927195999
 34
0.0
100
AcDbRotatedDimension
1001
ACAD
1000
DSTYLE
1002
{
1070
   279
1070
     1
1002
}
  0
LINE
  5
E79C
330
1F
100
AcDbEntity
  8
D-STR
 62
     0
100
AcDbLine
 10
3510.000045000001
 20
4342.769183208611
 30
0.0
 11
3510.000045000001
 21
4312.769183208611
 31
0.0
  0
HATCH
  5
E79D
330
1F
100
AcDbEntity
  8
D-STR
 62
     0
100
AcDbHatch
 10
0.0
 20
0.0
 30
0.0
210
0.0
220
0.0
230
1.0
  2
ANSI31
 70
     0
 71
     0
 91
        1
 92
        7
 72
     0
 73
     1
 93
        4
 10
3209.999995000001
 20
4342.769183208611
 10
3209.999995000001
 20
4312.769183208611
 10
3510.000045000001
 20
4312.769183208611
 10
3510.000045000001
 20
4342.769183208611
 97
        0
 75
     0
 76
     1
 52
0.0
 41
7.5
 77
     0
 78
     1
 53
45.0
 43
-3271.29541509581
 44
3065.044207405646
 45
-16.83798022700466
 46
16.83798022700466
 79
     0
 47
1.002765636520824
 98
        1
 10
3383.432522070272
 20
4330.980500526607
  0
LINE
  5
E79E
330
1F
100
AcDbEntity
  8
D-STR
 62
     0
100
AcDbLine
 10
3209.999995
 20
4342.769183208611
 30
0.0
 11
3209.999995
 21
4312.769183208611
 31
0.0
  0
LINE
  5
E79F
330
1F
100
AcDbEntity
  8
D-STR
 62
     0
100
AcDbLine
 10
3109.999995
 20
4212.769183208611
 30
0.0
 11
3610.000004999999
 21
4212.769183208611
 31
0.0
  0
LINE
  5
E7A0
330
1F
100
AcDbEntity
  8
D-STR
 62
     0
100
AcDbLine
 10
3109.999995
 20
4312.769183208611
 30
0.0
 11
3610.000004999999
 21
4312.769183208611
 31
0.0
  0
LINE
  5
E7A1
330
1F
100
AcDbEntity
  8
D-STR
 62
     0
100
AcDbLine
 10
3109.999995
 20
4312.769183208611
 30
0.0
 11
3109.999995
 21
4212.769183208611
 31
0.0
  0
LINE
  5
E7A2
330
1F
100
AcDbEntity
  8
D-STR
 62
     0
100
AcDbLine
 10
3610.000004999999
 20
4312.769183208611
 30
0.0
 11
3610.000004999999
 21
4212.769183208611
 31
0.0
  0
DIMENSION
  5
E7A3
330
1F
100
AcDbEntity
  8
D-STR-DIM
100
AcDbDimension
  2
*D20
 10
2947.499924999999
 20
4212.769183208611
 30
0.0
 11
2922.499924999998
 21
4457.769164650623
 31
0.0
 70
    32
 71
     5
 42
489.9999628840214
  3
S10
100
AcDbAlignedDimension
 13
3114.974998757525
 23
4702.769146092633
 33
0.0
 14
3109.999994999999
 24
4212.769183208611
 34
0.0
 50
90.0
100
AcDbRotatedDimension
  0
DIMENSION
  5
E7A4
330
1F
100
AcDbEntity
  8
D-STR-DIM
100
AcDbDimension
  2
*D24
 10
3022.499924999999
 20
4402.769173208613
 30
0.0
 11
2997.499924999999
 21
4552.769159650623
 31
0.0
 70
    32
 71
     5
 42
299.9999728840193
  3
S10
100
AcDbAlignedDimension
 13
3114.974998757525
 23
4702.769146092633
 33
0.0
 14
3170.162648906734
 24
4402.769173208613
 34
0.0
 50
90.0
100
AcDbRotatedDimension
  0
DIMENSION
  5
E7A5
330
1F
100
AcDbEntity
  8
D-STR-DIM
100
AcDbDimension
  2
*D21
 10
3022.499924999999
 20
4342.769183208611
 30
0.0
 11
3022.499924999999
 21
4372.769178208613
 31
0.0
 70
   160
 71
     5
 42
59.99999000000207
  3
S10
100
AcDbAlignedDimension
 13
3170.162648906734
 23
4402.769173208613
 33
0.0
 14
3209.999994999999
 24
4342.769183208611
 34
0.0
 50
90.0
100
AcDbRotatedDimension
  0
DIMENSION
  5
E7A6
330
1F
100
AcDbEntity
  8
D-STR-DIM
100
AcDbDimension
  2
*D23
 10
3022.499924999999
 20
4212.769183208611
 30
0.0
 11
2997.499924999999
 21
4262.769188208611
 31
0.0
 70
    32
 71
     5
 42
100.0000099999997
  3
S10
100
AcDbAlignedDimension
 13
3109.999994999999
 23
4312.769193208611
 33
0.0
 14
3109.999994999999
 24
4212.769183208611
 34
0.0
 50
90.0
100
AcDbRotatedDimension
  0
DIMENSION
  5
E7A7
330
1F
100
AcDbEntity
  8
D-STR-DIM
100
AcDbDimension
  2
*D22
 10
3022.499924999999
 20
4312.769193208611
 30
0.0
 11
3059.353953473179
 21
4324.273961029035
 31
0.0
 70
   160
 71
     5
 42
29.99999000000025
  3
S10
100
AcDbAlignedDimension
 13
3209.999994999999
 23
4342.769183208611
 33
0.0
 14
3109.999994999999
 24
4312.769193208611
 34
0.0
 50
90.0
100
AcDbRotatedDimension
1001
ACAD
1000
DSTYLE
1002
{
1070
   279
1070
     2
1002
}
  0
DIMENSION
  5
E7A8
330
1F
100
AcDbEntity
  8
D-STR-DIM
100
AcDbDimension
  2
*D25
 10
3610.000004999999
 20
4062.769183208611
 30
0.0
 11
3360.0
 21
4087.769183208611
 31
0.0
 70
    32
 71
     5
 42
500.0000099999997
  3
S10
100
AcDbAlignedDimension
 13
3109.999995
 23
4212.769183208611
 33
0.0
 14
3610.000004999999
 24
4212.769183208611
 34
0.0
100
AcDbRotatedDimension
  0
DIMENSION
  5
E7A9
330
1F
100
AcDbEntity
  8
D-STR-DIM
100
AcDbDimension
  2
*D27
 10
3510.000045000001
 20
4137.769183208611
 30
0.0
 11
3360.00002
 21
4162.769183208611
 31
0.0
 70
    32
 71
     5
 42
300.0000500000005
  3
S10
100
AcDbAlignedDimension
 13
3209.999995
 23
4212.769183208611
 33
0.0
 14
3510.000045000001
 24
4212.769183208611
 34
0.0
100
AcDbRotatedDimension
  0
DIMENSION
  5
E7AA
330
1F
100
AcDbEntity
  8
D-STR-DIM
100
AcDbDimension
  2
*D26
 10
3209.999995
 20
4137.769183208611
 30
0.0
 11
3159.999995
 21
4162.769183208611
 31
0.0
 70
    32
 71
     5
 42
100.0
  3
S10
100
AcDbAlignedDimension
 13
3109.999995
 23
4212.769183208611
 33
0.0
 14
3209.999995
 24
4212.769183208611
 34
0.0
100
AcDbRotatedDimension
  0
DIMENSION
  5
E7AB
330
1F
100
AcDbEntity
  8
D-STR-DIM
100
AcDbDimension
  2
*D28
 10
3610.000004999999
 20
4137.769183208611
 30
0.0
 11
3560.000025
 21
4162.769183208611
 31
0.0
 70
    32
 71
     5
 42
99.99995999999919
  3
S10
100
AcDbAlignedDimension
 13
3510.000045000001
 23
4212.769183208611
 33
0.0
 14
3610.000004999999
 24
4212.769183208611
 34
0.0
100
AcDbRotatedDimension
  0
DIMENSION
  5
E8D8
330
1F
100
AcDbEntity
  8
D-STR-DIM
100
AcDbDimension
  2
*D30
 10
3560.000021721164
 20
4852.769146092638
 30
0.0
 11
3360.000016721164
 21
4877.769146092639
 31
0.0
 70
    32
 71
     5
 42
400.0000099999997
  3
S10
100
AcDbAlignedDimension
 13
3160.000011721165
 23
4702.769146092638
 33
0.0
 14
3560.000021721164
 24
4702.769146092638
 34
0.0
100
AcDbRotatedDimension
  0
DIMENSION
  5
E8D9
330
1F
100
AcDbEntity
  8
D-STR-DIM
100
AcDbDimension
  2
*D29
 10
3510.000041721165
 20
4777.769146092638
 30
0.0
 11
3360.000016721164
 21
4802.769146092638
 31
0.0
 70
    32
 71
     5
 42
300.0000500000005
  3
S10
100
AcDbAlignedDimension
 13
3209.999991721165
 23
4702.769146092638
 33
0.0
 14
3510.000041721165
 24
4702.769146092638
 34
0.0
100
AcDbRotatedDimension
  0
DIMENSION
  5
E8DA
330
1F
100
AcDbEntity
  8
D-STR-DIM
100
AcDbDimension
  2
*D31
 10
3209.999991721165
 20
4777.769146092638
 30
0.0
 11
3185.415032238765
 21
4777.934388989628
 31
0.0
 70
   160
 71
     5
 42
49.99997999999959
  3
S10
100
AcDbAlignedDimension
 13
3160.000011721165
 23
4702.769146092638
 33
0.0
 14
3209.999991721165
 24
4702.769146092638
 34
0.0
100
AcDbRotatedDimension
1001
ACAD
1000
DSTYLE
1002
{
1070
   279
1070
     1
1002
}
  0
DIMENSION
  5
E8DB
330
1F
100
AcDbEntity
  8
D-STR-DIM
100
AcDbDimension
  2
*D32
 10
3560.000021721164
 20
4777.769146092638
 30
0.0
 11
3534.470649998911
 21
4777.628783991397
 31
0.0
 70
   160
 71
     5
 42
49.99997999999959
  3
S10
100
AcDbAlignedDimension
 13
3510.000041721165
 23
4702.769146092638
 33
0.0
 14
3560.000021721164
 24
4702.769146092638
 34
0.0
100
AcDbRotatedDimension
1001
ACAD
1000
DSTYLE
1002
{
1070
   279
1070
     1
1002
}
  0
DIMENSION
  5
E8DC
330
1F
100
AcDbEntity
  8
D-STR-DIM
100
AcDbDimension
  2
*D34
 10
3489.803010227144
 20
4473.080248722903
 30
0.0
 11
3360.000036184696
 21
4498.080248722902
 31
0.0
 70
    32
 71
     5
 42
259.6059480848944
  3
S10
100
AcDbAlignedDimension
 13
3230.197062142249
 23
4402.769186092641
 33
0.0
 14
3489.803010227144
 24
4402.769186092639
 34
0.0
100
AcDbRotatedDimension
  0
DIMENSION
  5
E8DD
330
1F
100
AcDbEntity
  8
D-STR-DIM
100
AcDbDimension
  2
*D35
 10
3230.197062142249
 20
4473.080248722903
 30
0.0
 11
3198.385389365241
 21
4473.373284952404
 31
0.0
 70
   160
 71
     5
 42
60.0344165143506
  3
S10
100
AcDbAlignedDimension
 13
3170.162645627899
 23
4402.769186092641
 33
0.0
 14
3230.197062142249
 24
4402.769186092641
 34
0.0
100
AcDbRotatedDimension
1001
ACAD
1000
DSTYLE
1002
{
1070
   279
1070
     1
1002
}
  0
DIMENSION
  5
E8DE
330
1F
100
AcDbEntity
  8
D-STR-DIM
100
AcDbDimension
  2
*D33
 10
3549.837426479685
 20
4473.080248722903
 30
0.0
 11
3518.700633657834
 21
4473.43288190284
 31
0.0
 70
   160
 71
     5
 42
60.03441625254072
  3
S10
100
AcDbAlignedDimension
 13
3489.803010227144
 23
4402.769186092639
 33
0.0
 14
3549.837426479685
 24
4402.769186092639
 34
0.0
100
AcDbRotatedDimension
1001
ACAD
1000
DSTYLE
1002
{
1070
   279
1070
     1
1002
}
  0
DIMENSION
  5
E982
102
{ACAD_XDICTIONARY
360
E991
102
}
102
{ACAD_REACTORS
330
E99D
102
}
330
1F
100
AcDbEntity
  8
D-STR-DIM
100
AcDbDimension
  2
*D36
 10
3160.000011457435
 20
4852.769146092638
 30
0.0
 11
3137.48750510748
 21
4852.769146092638
 31
0.0
 70
   160
 71
     5
 42
45.02501269990989
  3
S10
100
AcDbAlignedDimension
 13
3114.974998757525
 23
4702.769146092633
 33
0.0
 14
3160.000011457435
 24
4702.76914609264
 34
0.0
100
AcDbRotatedDimension
  0
DIMENSION
  5
E9A9
102
{ACAD_XDICTIONARY
360
E9B8
102
}
102
{ACAD_REACTORS
330
E9C4
102
}
330
1F
100
AcDbEntity
  8
D-STR-DIM
100
AcDbDimension
  2
*D37
 10
3605.025041242476
 20
4852.769146092638
 30
0.0
 11
3582.512534892522
 21
4852.769146092638
 31
0.0
 70
   160
 71
     5
 42
45.02501269990808
  3
S10
100
AcDbAlignedDimension
 13
3560.000028542568
 23
4702.769146092638
 33
0.0
 14
3605.025041242476
 24
4702.769146092638
 34
0.0
100
AcDbRotatedDimension
  0
LINE
  5
E9FD
330
1F
100
AcDbEntity
  8
D-STR
100
AcDbLine
 10
4824.999991132028
 20
4342.769183208611
 30
0.0
 11
5255.000048867987
 21
4342.769183208611
 31
0.0
  0
LINE
  5
E9FE
330
1F
100
AcDbEntity
  8
D-STR
  6
DASHED1
100
AcDbLine
 10
4816.715785404433
 20
4322.769156108059
 30
0.0
 11
5263.284254595583
 21
4322.769156108059
 31
0.0
  0
LINE
  5
E9FF
330
1F
100
AcDbEntity
  8
D-STR
  6
DASHED1
100
AcDbLine
 10
4800.14728646159
 20
4282.769189394604
 30
0.0
 11
5279.852753538426
 21
4282.769189394604
 31
0.0
  0
LINE
  5
EA00
330
1F
100
AcDbEntity
  8
D-STR
100
AcDbLine
 10
4906.219064983624
 20
4412.769190572891
 30
0.0
 11
5173.780975016391
 21
4412.769190572891
 31
0.0
  0
ARC
  5
EA01
330
1F
100
AcDbEntity
  8
D-STR
100
AcDbCircle
 10
4906.219064983624
 20
4482.769197937172
 30
0.0
 40
70.0000018963022
100
AcDbArc
 50
183.1798095703561
 51
270.0
  0
LINE
  5
EA02
330
1F
100
AcDbEntity
  8
D-STR
  6
DASHED1
100
AcDbLine
 10
4740.004950238474
 20
4862.324838139403
 30
0.0
 11
4750.524290488496
 21
4388.960738511644
 31
0.0
  0
LINE
  5
EA03
102
{ACAD_REACTORS
330
ECF8
102
}
330
1F
100
AcDbEntity
  8
D-STR
100
AcDbLine
 10
4759.999903055235
 20
4862.769187921749
 30
0.0
 11
4770.340943471349
 21
4397.428230869291
 31
0.0
  0
LINE
  5
EA04
102
{ACAD_REACTORS
330
ECF8
102
}
330
1F
100
AcDbEntity
  8
D-STR
  6
DASHED1
100
AcDbLine
 10
4699.985123828113
 20
4862.769187921751
 30
0.0
 11
4710.890634572186
 21
4372.02592877166
 31
0.0
  0
LINE
  5
EA05
330
1F
100
AcDbEntity
  8
D-STR
100
AcDbLine
 10
4824.999991132028
 20
4342.769183208611
 30
0.0
 11
4770.340943471349
 21
4397.428230869291
 31
0.0
  0
LINE
  5
EA06
330
1F
100
AcDbEntity
  8
D-STR
  6
DASHED1
100
AcDbLine
 10
4816.715785404433
 20
4322.769156108059
 30
0.0
 11
4750.524290488496
 21
4388.960738511644
 31
0.0
  0
LINE
  5
EA07
330
1F
100
AcDbEntity
  8
D-STR
  6
DASHED1
100
AcDbLine
 10
4800.14728646159
 20
4282.769189394604
 30
0.0
 11
4710.890634572186
 21
4372.02592877166
 31
0.0
  0
LINE
  5
EA08
330
1F
100
AcDbEntity
  8
D-STR
100
AcDbLine
 10
4836.326842406084
 20
4478.886320984989
 30
0.0
 11
4815.000065069404
 21
4862.769187921751
 31
0.0
  0
LINE
  5
EA09
330
1F
100
AcDbEntity
  8
D-STR
100
AcDbLine
 10
4759.999903055235
 20
4862.769187921749
 30
0.0
 11
4814.999977581752
 21
4862.769187921751
 31
0.0
  0
LINE
  5
EA0A
330
1F
100
AcDbEntity
  8
D-STR
100
AcDbLine
 10
4709.999902791498
 20
2561.626454731598
 30
0.0
 11
5370.000097208502
 21
2561.626454731598
 31
0.0
  0
LINE
  5
EA0B
330
1F
100
AcDbEntity
  8
D-STR
100
AcDbLine
 10
4810.000038294258
 20
2041.626450018458
 30
0.0
 11
5370.000097208502
 21
2041.626450018458
 31
0.0
  0
LINE
  5
EA0C
330
1F
100
AcDbEntity
  8
D-STR
  6
DASHED1
100
AcDbLine
 10
4769.999984093153
 20
2111.626457382739
 30
0.0
 11
5370.000097208502
 21
2111.626457382739
 31
0.0
  0
LINE
  5
EA0D
330
1F
100
AcDbEntity
  8
D-STR
100
AcDbLine
 10
4810.000038294258
 20
2096.285497679138
 30
0.0
 11
5370.000097208502
 21
2096.285497679138
 31
0.0
  0
ARC
  5
EA0E
330
1F
100
AcDbEntity
  8
D-STR
100
AcDbCircle
 10
5173.780975016391
 20
4482.769197937172
 30
0.0
 40
70.0000018963022
100
AcDbArc
 50
270.0
 51
356.8201904296438
  0
LINE
  5
EA0F
330
1F
100
AcDbEntity
  8
D-STR
  6
DASHED1
100
AcDbLine
 10
5339.995089761542
 20
4862.324838139403
 30
0.0
 11
5329.47583699917
 21
4388.960738511644
 31
0.0
  0
LINE
  5
EA10
102
{ACAD_REACTORS
330
ED14
102
}
330
1F
100
AcDbEntity
  8
D-STR
100
AcDbLine
 10
5320.00004945713
 20
4862.769187921749
 30
0.0
 11
5309.659096528667
 21
4397.428230869291
 31
0.0
  0
LINE
  5
EA11
102
{ACAD_REACTORS
330
ED14
102
}
330
1F
100
AcDbEntity
  8
D-STR
  6
DASHED1
100
AcDbLine
 10
5380.014916171901
 20
4862.769187921751
 30
0.0
 11
5369.109405427829
 21
4372.02592877166
 31
0.0
  0
LINE
  5
EA12
330
1F
100
AcDbEntity
  8
D-STR
100
AcDbLine
 10
4709.999902791498
 20
1981.626456204452
 30
0.0
 11
4709.999902791498
 21
2561.626454731598
 31
0.0
  0
LINE
  5
EA13
330
1F
100
AcDbEntity
  8
D-STR
100
AcDbLine
 10
4779.999997643428
 20
1981.626456204452
 30
0.0
 11
4779.999997643428
 21
2561.626454731598
 31
0.0
  0
LINE
  5
EA14
330
1F
100
AcDbEntity
  8
D-STR
100
AcDbLine
 10
4810.000038294258
 20
2041.626450018458
 30
0.0
 11
4810.000038294258
 21
2561.626454731598
 31
0.0
  0
LINE
  5
EA15
330
1F
100
AcDbEntity
  8
D-STR
  6
DASHED1
100
AcDbLine
 10
4769.999984093153
 20
2041.626450018458
 30
0.0
 11
4769.999984093153
 21
2561.626454731598
 31
0.0
  0
LINE
  5
EA16
330
1F
100
AcDbEntity
  8
D-STR
  6
DASHED1
100
AcDbLine
 10
5263.284254595583
 20
4322.769156108059
 30
0.0
 11
5329.47583699917
 21
4388.960738511644
 31
0.0
  0
LINE
  5
EA17
330
1F
100
AcDbEntity
  8
D-STR
  6
DASHED1
100
AcDbLine
 10
5279.852753538426
 20
4282.769189394604
 30
0.0
 11
5369.109405427829
 21
4372.02592877166
 31
0.0
  0
LINE
  5
EA18
330
1F
100
AcDbEntity
  8
D-STR
100
AcDbLine
 10
5255.000048867987
 20
4342.769183208611
 30
0.0
 11
5309.659096528667
 21
4397.428230869291
 31
0.0
  0
LINE
  5
EA19
330
1F
100
AcDbEntity
  8
D-STR
100
AcDbLine
 10
4709.999902791498
 20
2070.883195581507
 30
0.0
 11
4779.999997643428
 21
2070.883195581507
 31
0.0
  0
LINE
  5
EA1A
330
1F
100
AcDbEntity
  8
D-STR
  6
DASHED1
100
AcDbLine
 10
4709.999902791498
 20
2021.626422917907
 30
0.0
 11
4769.999984093153
 21
2041.626450018458
 31
0.0
  0
LINE
  5
EA1B
330
1F
100
AcDbEntity
  8
D-STR
100
AcDbLine
 10
4709.999902791498
 20
1981.626456204452
 30
0.0
 11
4779.999997643428
 21
1981.626456204452
 31
0.0
  0
LINE
  5
EA1C
330
1F
100
AcDbEntity
  8
D-STR
100
AcDbLine
 10
4810.000038294258
 20
2041.626450018458
 30
0.0
 11
4779.999997643428
 21
1981.626456204452
 31
0.0
  0
LINE
  5
EA1D
330
1F
100
AcDbEntity
  8
D-STR
100
AcDbLine
 10
4810.000038294258
 20
2096.285497679138
 30
0.0
 11
4779.999997643428
 21
2070.883195581507
 31
0.0
  0
LINE
  5
EA1E
330
1F
100
AcDbEntity
  8
D-STR
100
AcDbLine
 10
5243.673197593931
 20
4478.886320984989
 30
0.0
 11
5264.999974930612
 21
4862.769187921751
 31
0.0
  0
LINE
  5
EA1F
330
1F
100
AcDbEntity
  8
D-STR
100
AcDbLine
 10
5320.00004945713
 20
4862.769187921749
 30
0.0
 11
5265.000062418263
 21
4862.769187921751
 31
0.0
  0
LINE
  5
EA20
330
1F
100
AcDbEntity
  8
D-STR
100
AcDbLine
 10
5370.000097208502
 20
2041.626450018458
 30
0.0
 11
5370.000097208502
 21
2561.626454731598
 31
0.0
  0
LINE
  5
EA21
330
1F
100
AcDbEntity
  8
D-STR
  6
DASHED1
100
AcDbLine
 10
4699.985123828113
 20
4862.769187921751
 30
0.0
 11
4759.999903055235
 21
4862.769187921749
 31
0.0
  0
LINE
  5
EA22
330
1F
100
AcDbEntity
  8
D-STR
  6
DASHED1
100
AcDbLine
 10
5320.00004945713
 20
4862.769187921749
 30
0.0
 11
5380.014916171901
 21
4862.769187921751
 31
0.0
  0
DIMENSION
  5
EB54
330
1F
100
AcDbEntity
  8
D-STR-DIM
100
AcDbDimension
  2
*D43
 10
4562.499925000003
 20
4212.769183208611
 30
0.0
 11
4537.499925000003
 21
4537.769185565181
 31
0.0
 70
    32
 71
     5
 42
650.0000047131398
  3
S10
100
AcDbAlignedDimension
 13
4699.985123828113
 23
4862.769187921751
 33
0.0
 14
4724.999995000006
 24
4212.769183208611
 34
0.0
 50
90.0
100
AcDbRotatedDimension
  0
DIMENSION
  5
EB55
330
1F
100
AcDbEntity
  8
D-STR-DIM
100
AcDbDimension
  2
*D46
 10
4637.499925000003
 20
4212.769183208611
 30
0.0
 11
4612.499925000003
 21
4262.769188208611
 31
0.0
 70
    32
 71
     5
 42
100.0000099999997
  3
S10
100
AcDbAlignedDimension
 13
4724.999995000006
 23
4312.769193208611
 33
0.0
 14
4724.999995000006
 24
4212.769183208611
 34
0.0
 50
90.0
100
AcDbRotatedDimension
  0
DIMENSION
  5
EB56
330
1F
100
AcDbEntity
  8
D-STR-DIM
100
AcDbDimension
  2
*D42
 10
4637.499925000003
 20
4412.769083208611
 30
0.0
 11
4612.499925000003
 21
4637.769135565182
 31
0.0
 70
    32
 71
     5
 42
450.000104713139
  3
S10
100
AcDbAlignedDimension
 13
4699.985123828113
 23
4862.769187921751
 33
0.0
 14
4769.999893070816
 24
4412.769083208611
 34
0.0
 50
90.0
100
AcDbRotatedDimension
  0
DIMENSION
  5
EB57
330
1F
100
AcDbEntity
  8
D-STR-DIM
100
AcDbDimension
  2
*D44
 10
4637.499925000004
 20
4342.769183208611
 30
0.0
 11
4637.499925000003
 21
4377.769133208612
 31
0.0
 70
   160
 71
     5
 42
69.99990000000071
  3
S10
100
AcDbAlignedDimension
 13
4769.999893070816
 23
4412.769083208611
 33
0.0
 14
4824.999995000005
 24
4342.769183208611
 34
0.0
 50
90.0
100
AcDbRotatedDimension
  0
DIMENSION
  5
EB58
330
1F
100
AcDbEntity
  8
D-STR-DIM
100
AcDbDimension
  2
*D45
 10
4637.499925000003
 20
4312.769193208611
 30
0.0
 11
4674.353953473183
 21
4324.273961029035
 31
0.0
 70
   160
 71
     5
 42
29.99999000000025
  3
S10
100
AcDbAlignedDimension
 13
4824.999995000005
 23
4342.769183208611
 33
0.0
 14
4724.999995000006
 24
4312.769193208611
 34
0.0
 50
90.0
100
AcDbRotatedDimension
1001
ACAD
1000
DSTYLE
1002
{
1070
   279
1070
     2
1002
}
  0
DIMENSION
  5
EB59
330
1F
100
AcDbEntity
  8
D-STR-DIM
100
AcDbDimension
  2
*D41
 10
5355.000005000001
 20
4137.769183208611
 30
0.0
 11
5305.000025000003
 21
4162.769183208611
 31
0.0
 70
    32
 71
     5
 42
99.99995999999738
  3
S10
100
AcDbAlignedDimension
 13
5255.000045000004
 23
4212.769183208611
 33
0.0
 14
5355.000005000001
 24
4212.769183208611
 34
0.0
100
AcDbRotatedDimension
  0
DIMENSION
  5
EB5A
330
1F
100
AcDbEntity
  8
D-STR-DIM
100
AcDbDimension
  2
*D39
 10
5355.000005000001
 20
4062.769183208611
 30
0.0
 11
5040.000000000003
 21
4087.769183208611
 31
0.0
 70
    32
 71
     5
 42
630.0000099999961
  3
S10
100
AcDbAlignedDimension
 13
4724.999995000006
 23
4212.769183208611
 33
0.0
 14
5355.000005000001
 24
4212.769183208611
 34
0.0
100
AcDbRotatedDimension
  0
DIMENSION
  5
EB5B
330
1F
100
AcDbEntity
  8
D-STR-DIM
100
AcDbDimension
  2
*D40
 10
5255.000045000004
 20
4137.769183208611
 30
0.0
 11
5040.000020000005
 21
4162.769183208611
 31
0.0
 70
    32
 71
     5
 42
430.0000499999987
  3
S10
100
AcDbAlignedDimension
 13
4824.999995000005
 23
4212.769183208611
 33
0.0
 14
5255.000045000004
 24
4212.769183208611
 34
0.0
100
AcDbRotatedDimension
  0
DIMENSION
  5
EB5C
330
1F
100
AcDbEntity
  8
D-STR-DIM
100
AcDbDimension
  2
*D38
 10
4824.999995000005
 20
4137.769183208611
 30
0.0
 11
4774.999995000006
 21
4162.769183208611
 31
0.0
 70
    32
 71
     5
 42
100.0
  3
S10
100
AcDbAlignedDimension
 13
4724.999995000006
 23
4212.769183208611
 33
0.0
 14
4824.999995000005
 24
4212.769183208611
 34
0.0
100
AcDbRotatedDimension
  0
LINE
  5
EB5D
330
1F
100
AcDbEntity
  8
D-STR
 62
     0
100
AcDbLine
 10
5355.000005000001
 20
4312.769183208611
 30
0.0
 11
5355.000005000001
 21
4212.769183208611
 31
0.0
  0
LINE
  5
EB5E
330
1F
100
AcDbEntity
  8
D-STR
 62
     0
100
AcDbLine
 10
4724.999995000006
 20
4312.769183208611
 30
0.0
 11
4724.999995000006
 21
4212.769183208611
 31
0.0
  0
LINE
  5
EB5F
330
1F
100
AcDbEntity
  8
D-STR
 62
     0
100
AcDbLine
 10
4724.999995000006
 20
4212.769183208611
 30
0.0
 11
5355.000005000001
 21
4212.769183208611
 31
0.0
  0
LINE
  5
EB60
330
1F
100
AcDbEntity
  8
D-STR
 62
     0
100
AcDbLine
 10
4724.999995000006
 20
4312.769183208611
 30
0.0
 11
5355.000005000001
 21
4312.769183208611
 31
0.0
  0
HATCH
  5
EB61
330
1F
100
AcDbEntity
  8
D-STR
 62
     0
100
AcDbHatch
 10
0.0
 20
0.0
 30
0.0
210
0.0
220
0.0
230
1.0
  2
ANSI31
 70
     0
 71
     0
 91
        1
 92
        7
 72
     0
 73
     1
 93
        4
 10
4824.999995000005
 20
4342.769183208611
 10
4824.999995000002
 20
4312.769183208611
 10
5255.000045000008
 20
4312.769183208611
 10
5255.000045000008
 20
4342.769183208611
 97
        0
 75
     0
 76
     1
 52
0.0
 41
7.5
 77
     0
 78
     1
 53
45.0
 43
2014.541717688016
 44
5433.210593368994
 45
-16.83798022700466
 46
16.83798022700466
 79
     0
 47
1.002765636520824
 98
        1
 10
4998.432522070274
 20
4330.980500526607
  0
LINE
  5
EB62
330
1F
100
AcDbEntity
  8
D-STR
 62
     0
100
AcDbLine
 10
5255.000045000004
 20
4342.769183208611
 30
0.0
 11
5255.000045000004
 21
4312.769183208611
 31
0.0
  0
LINE
  5
EB63
330
1F
100
AcDbEntity
  8
D-STR
 62
     0
100
AcDbLine
 10
4824.999995000005
 20
4342.769183208611
 30
0.0
 11
4824.999995000005
 21
4312.769183208611
 31
0.0
  0
DIMENSION
  5
EB64
330
1F
100
AcDbEntity
  8
D-STR-DIM
100
AcDbDimension
  2
*D52
 10
4839.999967993539
 20
4544.587815997591
 30
0.0
 11
4804.999930532178
 21
4569.587815997591
 31
0.0
 70
    32
 71
     5
 42
70.00007492272198
  3
S10
100
AcDbAlignedDimension
 13
4769.999893070816
 23
4412.769083208611
 33
0.0
 14
4839.999967993539
 24
4412.769083208611
 34
0.0
100
AcDbRotatedDimension
1001
ACAD
1000
DSTYLE
1002
{
1070
   279
1070
     1
1002
}
  0
DIMENSION
  5
EB65
330
1F
100
AcDbEntity
  8
D-STR-DIM
100
AcDbDimension
  2
*D51
 10
5240.000022006468
 20
4544.587815997591
 30
0.0
 11
5039.999995000004
 21
4569.587815997591
 31
0.0
 70
    32
 71
     5
 42
400.0000540129295
  3
S10
100
AcDbAlignedDimension
 13
4839.999967993539
 23
4412.769083208611
 33
0.0
 14
5240.000022006468
 24
4412.76908320861
 34
0.0
100
AcDbRotatedDimension
  0
DIMENSION
  5
EB66
330
1F
100
AcDbEntity
  8
D-STR-DIM
100
AcDbDimension
  2
*D53
 10
5310.000106819295
 20
4544.587815997591
 30
0.0
 11
5275.000064412882
 21
4569.587815997591
 31
0.0
 70
    32
 71
     5
 42
70.00008481282566
  3
S10
100
AcDbAlignedDimension
 13
5240.000022006468
 23
4412.76908320861
 33
0.0
 14
5310.000106819295
 24
4412.769083208611
 34
0.0
100
AcDbRotatedDimension
1001
ACAD
1000
DSTYLE
1002
{
1070
   279
1070
     1
1002
}
  0
DIMENSION
  5
EB67
330
1F
100
AcDbEntity
  8
D-STR-DIM
100
AcDbDimension
  2
*D50
 10
5320.000195000001
 20
4937.769183208612
 30
0.0
 11
5291.094204286896
 21
4937.50454142098
 31
0.0
 70
   160
 71
     5
 42
55.00019999999494
  3
S10
100
AcDbAlignedDimension
 13
5264.999995000006
 23
4862.769183208611
 33
0.0
 14
5320.000195000001
 24
4862.769183208611
 34
0.0
100
AcDbRotatedDimension
1001
ACAD
1000
DSTYLE
1002
{
1070
   279
1070
     1
1002
}
  0
DIMENSION
  5
EB68
330
1F
100
AcDbEntity
  8
D-STR-DIM
100
AcDbDimension
  2
*D48
 10
5264.999995000006
 20
4937.769183208612
 30
0.0
 11
5039.999995000005
 21
4962.769183208611
 31
0.0
 70
    32
 71
     5
 42
450.0
  3
S10
100
AcDbAlignedDimension
 13
4814.999995000006
 23
4862.769183208611
 33
0.0
 14
5264.999995000006
 24
4862.769183208611
 34
0.0
100
AcDbRotatedDimension
  0
DIMENSION
  5
EB69
330
1F
100
AcDbEntity
  8
D-STR-DIM
100
AcDbDimension
  2
*D47
 10
5320.000195000001
 20
5012.769183208611
 30
0.0
 11
5040.000145000002
 21
5037.769183208611
 31
0.0
 70
    32
 71
     5
 42
560.0000999999974
  3
S10
100
AcDbAlignedDimension
 13
4760.000095000003
 23
4862.769183208611
 33
0.0
 14
5320.000195000001
 24
4862.769183208611
 34
0.0
100
AcDbRotatedDimension
  0
DIMENSION
  5
EB6A
330
1F
100
AcDbEntity
  8
D-STR-DIM
100
AcDbDimension
  2
*D49
 10
4814.999995000006
 20
4937.769183208612
 30
0.0
 11
4788.763139895353
 21
4937.743557238837
 31
0.0
 70
   160
 71
     5
 42
54.99990000000252
  3
S10
100
AcDbAlignedDimension
 13
4760.000095000003
 23
4862.769183208611
 33
0.0
 14
4814.999995000006
 24
4862.769183208611
 34
0.0
100
AcDbRotatedDimension
1001
ACAD
1000
DSTYLE
1002
{
1070
   279
1070
     1
1002
}
  0
DIMENSION
  5
ECDD
102
{ACAD_XDICTIONARY
360
ECEC
102
}
102
{ACAD_REACTORS
330
ECF8
102
}
330
1F
100
AcDbEntity
  8
D-STR-DIM
100
AcDbDimension
  2
*D54
 10
4759.999903055235
 20
5012.769183208611
 30
0.0
 11
4729.992513441675
 21
5037.769183208611
 31
0.0
 70
    32
 71
     5
 42
60.01477922712183
  3
S10
100
AcDbAlignedDimension
 13
4699.985123828113
 23
4862.769187921751
 33
0.0
 14
4759.999903055235
 24
4862.769187921749
 34
0.0
100
AcDbRotatedDimension
  0
DIMENSION
  5
ECF9
102
{ACAD_XDICTIONARY
360
ED08
102
}
102
{ACAD_REACTORS
330
ED14
102
}
330
1F
100
AcDbEntity
  8
D-STR-DIM
100
AcDbDimension
  2
*D55
 10
5380.014916171901
 20
5012.769183208611
 30
0.0
 11
5350.007482814515
 21
5037.769183208611
 31
0.0
 70
    32
 71
     5
 42
60.01486671477232
  3
S10
100
AcDbAlignedDimension
 13
5320.00004945713
 23
4862.769187921749
 33
0.0
 14
5380.014916171901
 24
4862.769187921751
 34
0.0
100
AcDbRotatedDimension
  0
MTEXT
  5
ED1B
102
{ACAD_REACTORS
330
ED1C
102
}
330
1F
100
AcDbEntity
  8
D-STR-DIM
100
AcDbMText
 10
1977.150793029727
 20
4210.811458648709
 30
0.0
 40
30.0
 41
0.0
 71
     7
 72
     1
  1
基礎材
 73
     1
 44
1.0
  0
LEADER
  5
ED1C
330
1F
100
AcDbEntity
  8
D-STR-DIM
100
AcDbLeader
  3
S10
 73
     0
 74
     0
 75
     1
 40
35.17766497461928
 41
84.30456852791879
 76
     3
 10
1853.955514282823
 20
4267.361805131065
 30
0.0
 10
1942.150793029726
 20
4200.81145864871
 30
0.0
 10
1967.150793029726
 20
4200.81145864871
 30
0.0
340
ED1B
1001
ACAD
1000
DSTYLE
1002
{
1070
   147
1040
1.0
1070
    77
1070
     1
1002
}
  0
MTEXT
  5
ED1D
330
1F
100
AcDbEntity
  8
D-STR-DIM
100
AcDbMText
 10
1977.150793029727
 20
4161.834321187344
 30
0.0
 40
30.0
 41
0.0
 71
     7
 72
     1
  1
RC-40
 73
     1
 44
1.0
  0
LEADER
  5
ED1E
330
1F
100
AcDbEntity
  8
D-STR-DIM
100
AcDbLeader
  3
S10
 73
     0
 74
     0
 40
36.09137055837563
 41
154.4771573604061
 76
     2
 10
1782.639090522445
 20
4324.57740120832
 30
0.0
 10
1967.150793029726
 20
4324.57740120832
 30
0.0
340
ED1F
1001
ACAD
1000
DSTYLE
1002
{
1070
   147
1040
1.0
1070
    77
1070
     1
1002
}
  0
MTEXT
  5
ED1F
102
{ACAD_REACTORS
330
ED1E
102
}
330
1F
100
AcDbEntity
  8
D-STR-DIM
100
AcDbMText
 10
1977.150793029727
 20
4334.57740120832
 30
0.0
 40
30.0
 41
0.0
 71
     7
 72
     1
  1
敷モルタル
 73
     1
 44
1.0
  0
MTEXT
  5
ED20
330
1F
100
AcDbEntity
  8
D-STR-DIM
100
AcDbMText
 10
1977.150793029727
 20
4285.600263746953
 30
0.0
 40
30.0
 41
0.0
 71
     7
 72
     1
  1
C:S=1:3
 73
     1
 44
1.0
  0
LEADER
  5
ED22
330
1F
100
AcDbEntity
  8
D-STR-DIM
100
AcDbLeader
  3
S10
 73
     0
 74
     0
 75
     1
 40
35.17766497461928
 41
84.30456852791879
 76
     3
 10
3563.955544282823
 20
4267.361795131066
 30
0.0
 10
3652.150823029727
 20
4200.81144864871
 30
0.0
 10
3677.150823029727
 20
4200.81144864871
 30
0.0
340
ED25
1001
ACAD
1000
DSTYLE
1002
{
1070
   147
1040
1.0
1070
    77
1070
     1
1002
}
  0
LEADER
  5
ED23
330
1F
100
AcDbEntity
  8
D-STR-DIM
100
AcDbLeader
  3
S10
 73
     0
 74
     0
 40
36.09137055837563
 41
154.4771573604061
 76
     2
 10
3492.639120522445
 20
4324.577391208321
 30
0.0
 10
3677.150823029727
 20
4324.577391208321
 30
0.0
340
ED27
1001
ACAD
1000
DSTYLE
1002
{
1070
   147
1040
1.0
1070
    77
1070
     1
1002
}
  0
MTEXT
  5
ED24
330
1F
100
AcDbEntity
  8
D-STR-DIM
100
AcDbMText
 10
3687.150823029726
 20
4285.600253746954
 30
0.0
 40
30.0
 41
0.0
 71
     7
 72
     1
  1
C:S=1:3
 73
     1
 44
1.0
  0
MTEXT
  5
ED25
102
{ACAD_REACTORS
330
ED22
102
}
330
1F
100
AcDbEntity
  8
D-STR-DIM
100
AcDbMText
 10
3687.150823029726
 20
4210.81144864871
 30
0.0
 40
30.0
 41
0.0
 71
     7
 72
     1
  1
基礎材
 73
     1
 44
1.0
  0
MTEXT
  5
ED26
330
1F
100
AcDbEntity
  8
D-STR-DIM
100
AcDbMText
 10
3687.150823029726
 20
4161.834311187344
 30
0.0
 40
30.0
 41
0.0
 71
     7
 72
     1
  1
RC-40
 73
     1
 44
1.0
  0
MTEXT
  5
ED27
102
{ACAD_REACTORS
330
ED23
102
}
330
1F
100
AcDbEntity
  8
D-STR-DIM
100
AcDbMText
 10
3687.150823029726
 20
4334.57739120832
 30
0.0
 40
30.0
 41
0.0
 71
     7
 72
     1
  1
敷モルタル
 73
     1
 44
1.0
  0
LEADER
  5
ED2E
330
1F
100
AcDbEntity
  8
D-STR-DIM
100
AcDbLeader
  3
S10
 73
     0
 74
     0
 40
36.09137055837563
 41
154.4771573604061
 76
     2
 10
5237.639120522447
 20
4324.577391208321
 30
0.0
 10
5422.150823029729
 20
4324.577391208321
 30
0.0
340
ED32
1001
ACAD
1000
DSTYLE
1002
{
1070
   147
1040
1.0
1070
    77
1070
     1
1002
}
  0
LEADER
  5
ED2F
330
1F
100
AcDbEntity
  8
D-STR-DIM
100
AcDbLeader
  3
S10
 73
     0
 74
     0
 75
     1
 40
35.17766497461928
 41
84.30456852791879
 76
     3
 10
5308.955544282825
 20
4267.361795131066
 30
0.0
 10
5397.150823029729
 20
4200.81144864871
 30
0.0
 10
5422.150823029729
 20
4200.81144864871
 30
0.0
340
ED31
1001
ACAD
1000
DSTYLE
1002
{
1070
   147
1040
1.0
1070
    77
1070
     1
1002
}
  0
MTEXT
  5
ED30
330
1F
100
AcDbEntity
  8
D-STR-DIM
100
AcDbMText
 10
5432.150823029729
 20
4161.834311187344
 30
0.0
 40
30.0
 41
0.0
 71
     7
 72
     1
  1
RC-40
 73
     1
 44
1.0
  0
MTEXT
  5
ED31
102
{ACAD_REACTORS
330
ED2F
102
}
330
1F
100
AcDbEntity
  8
D-STR-DIM
100
AcDbMText
 10
5432.150823029729
 20
4210.81144864871
 30
0.0
 40
30.0
 41
0.0
 71
     7
 72
     1
  1
基礎材
 73
     1
 44
1.0
  0
MTEXT
  5
ED32
102
{ACAD_REACTORS
330
ED2E
102
}
330
1F
100
AcDbEntity
  8
D-STR-DIM
100
AcDbMText
 10
5432.150823029729
 20
4334.57739120832
 30
0.0
 40
30.0
 41
0.0
 71
     7
 72
     1
  1
敷モルタル
 73
     1
 44
1.0
  0
MTEXT
  5
ED33
330
1F
100
AcDbEntity
  8
D-STR-DIM
100
AcDbMText
 10
5432.150823029729
 20
4285.600253746954
 30
0.0
 40
30.0
 41
0.0
 71
     7
 72
     1
  1
C:S=1:3
 73
     1
 44
1.0
  0
MTEXT
  5
ED34
102
{ACAD_REACTORS
330
ED35
102
}
330
1F
100
AcDbEntity
  8
D-STR-DIM
100
AcDbMText
 10
2002.166123415765
 20
4639.809040906009
 30
0.0
 40
30.0
 41
0.0
 71
     7
 72
     1
  1
ソケット付Ｕ形側溝
 73
     1
 44
1.0
  0
LEADER
  5
ED35
330
1F
100
AcDbEntity
  8
D-STR-DIM
100
AcDbLeader
  3
S10
 73
     0
 74
     0
 40
36.09137055837563
 41
273.8680203045685
 76
     3
 10
1866.160665384588
 20
4539.602676353213
 30
0.0
 10
1985.378799253332
 20
4629.809040906009
 30
0.0
 10
1992.166123415765
 20
4629.809040906009
 30
0.0
340
ED34
1001
ACAD
1000
DSTYLE
1002
{
1070
   147
1040
1.0
1070
    77
1070
     1
1002
}
  0
MTEXT
  5
ED36
102
{ACAD_REACTORS
330
ED37
102
}
330
1F
100
AcDbEntity
  8
D-STR-DIM
100
AcDbMText
 10
3727.183577286662
 20
4709.808960782633
 30
0.0
 40
30.0
 41
0.0
 71
     7
 72
     1
  1
ソケット付Ｕ形側溝
 73
     1
 44
1.0
  0
LEADER
  5
ED37
330
1F
100
AcDbEntity
  8
D-STR-DIM
100
AcDbLeader
  3
S10
 73
     0
 74
     0
 40
36.09137055837563
 41
273.8680203045685
 76
     3
 10
3591.178119255485
 20
4609.602596229836
 30
0.0
 10
3710.396253124229
 20
4699.808960782632
 30
0.0
 10
3717.183577286663
 20
4699.808960782632
 30
0.0
340
ED36
1001
ACAD
1000
DSTYLE
1002
{
1070
   147
1040
1.0
1070
    77
1070
     1
1002
}
  0
MTEXT
  5
ED38
102
{ACAD_REACTORS
330
ED39
102
}
330
1F
100
AcDbEntity
  8
D-STR-DIM
100
AcDbMText
 10
5502.173452216087
 20
4869.809002611746
 30
0.0
 40
30.0
 41
0.0
 71
     7
 72
     1
  1
ソケット付Ｕ形側溝
 73
     1
 44
1.0
  0
LEADER
  5
ED39
330
1F
100
AcDbEntity
  8
D-STR-DIM
100
AcDbLeader
  3
S10
 73
     0
 74
     0
 40
36.09137055837563
 41
273.8680203045685
 76
     3
 10
5366.167994184911
 20
4769.60263805895
 30
0.0
 10
5485.386128053654
 20
4859.809002611746
 30
0.0
 10
5492.173452216087
 20
4859.809002611746
 30
0.0
340
ED38
1001
ACAD
1000
DSTYLE
1002
{
1070
   147
1040
1.0
1070
    77
1070
     1
1002
}
  0
DIMENSION
  5
F124
102
{ACAD_XDICTIONARY
360
F133
102
}
102
{ACAD_REACTORS
330
F13F
102
}
330
1F
100
AcDbEntity
  8
D-STR-DIM
100
AcDbDimension
  2
*D56
 10
1404.999889830364
 20
2694.395668399105
 30
0.0
 11
1379.999943442326
 21
2719.395668399105
 31
0.0
 70
    32
 71
     5
 42
49.9998927760771
  3
S10
100
AcDbAlignedDimension
 13
1354.999997054287
 23
2561.626454731598
 33
0.0
 14
1404.999889830364
 24
2561.626454731598
 34
0.0
100
AcDbRotatedDimension
  0
DIMENSION
  5
F140
102
{ACAD_XDICTIONARY
360
F14D
102
}
102
{ACAD_REACTORS
330
F157
102
}
330
1F
100
AcDbEntity
  8
D-STR-DIM
100
AcDbDimension
  2
*D57
 10
2005.000002945712
 20
2694.395668399105
 30
0.0
 11
1704.999946388038
 21
2719.395668399105
 31
0.0
 70
    32
 71
     5
 42
600.0001131153476
  3
S10
100
AcDbAlignedDimension
 13
1404.999889830364
 23
2561.626454731598
 33
0.0
 14
2005.000002945712
 24
2561.626454731598
 34
0.0
100
AcDbRotatedDimension
1001
ACAD
1000
DSTYLE
1002
{
1070
   279
1070
     1
1002
}
  0
DIMENSION
  5
F158
102
{ACAD_XDICTIONARY
360
F165
102
}
102
{ACAD_REACTORS
330
F16F
102
}
330
1F
100
AcDbEntity
  8
D-STR-DIM
100
AcDbDimension
  2
*D58
 10
1197.963895144337
 20
2261.626485661576
 30
0.0
 11
1172.963895144337
 21
2411.626470196587
 31
0.0
 70
    32
 71
     5
 42
299.9999690700224
  3
S10
100
AcDbAlignedDimension
 13
1354.999997054287
 23
2561.626454731598
 33
0.0
 14
1354.999997054287
 24
2261.626485661576
 34
0.0
 50
90.0
100
AcDbRotatedDimension
  0
DIMENSION
  5
F170
102
{ACAD_XDICTIONARY
360
F182
102
}
102
{ACAD_REACTORS
330
F191
102
}
330
1F
100
AcDbEntity
  8
D-STR-DIM
100
AcDbDimension
  2
*D59
 10
1197.963895144337
 20
2236.626451785887
 30
0.0
 11
1197.963895144337
 21
2249.126468723731
 31
0.0
 70
   160
 71
     5
 42
25.00003387568904
  3
S10
100
AcDbAlignedDimension
 13
1354.999997054287
 23
2261.626485661576
 33
0.0
 14
1354.999997054287
 24
2236.626451785887
 34
0.0
 50
90.0
100
AcDbRotatedDimension
1001
ACAD
1000
DSTYLE
1002
{
1070
   279
1070
     1
1002
}
  0
DIMENSION
  5
F19D
330
1F
100
AcDbEntity
  8
D-STR-DIM
100
AcDbDimension
  2
*D60
 10
1273.135178292305
 20
2271.6264117242
 30
0.0
 11
1273.135178292304
 21
2266.626448692889
 31
0.0
 70
   160
 71
     5
 42
9.999926062624581
  3
S10
100
AcDbAlignedDimension
 13
1354.999997054287
 23
2261.626485661576
 33
0.0
 14
1354.999997054287
 24
2271.6264117242
 34
0.0
 50
90.0
100
AcDbRotatedDimension
  0
DIMENSION
  5
F1DA
102
{ACAD_XDICTIONARY
360
F1E9
102
}
102
{ACAD_REACTORS
330
F1F5
102
}
330
1F
100
AcDbEntity
  8
D-STR-DIM
100
AcDbDimension
  2
*D61
 10
1415.000078355943
 20
2104.610734115882
 30
0.0
 11
1385.000037705115
 21
2129.610734115882
 31
0.0
 70
    32
 71
     5
 42
60.00008130165588
  3
S10
100
AcDbAlignedDimension
 13
1354.999997054287
 23
2236.626451785887
 33
0.0
 14
1415.000078355943
 24
2236.626451785887
 34
0.0
100
AcDbRotatedDimension
  0
DIMENSION
  5
F1F6
102
{ACAD_XDICTIONARY
360
F208
102
}
102
{ACAD_REACTORS
330
F217
102
}
330
1F
100
AcDbEntity
  8
D-STR-DIM
100
AcDbDimension
  2
*D62
 10
1444.999944031468
 20
2104.610734115882
 30
0.0
 11
1430.000011193706
 21
2104.610734115882
 31
0.0
 70
   160
 71
     5
 42
29.99986567552514
  3
S10
100
AcDbAlignedDimension
 13
1415.000078355943
 23
2236.626451785887
 33
0.0
 14
1444.999944031468
 24
2271.626499211852
 34
0.0
100
AcDbRotatedDimension
1001
ACAD
1000
DSTYLE
1002
{
1070
   279
1070
     1
1002
}
  0
DIMENSION
  5
F218
102
{ACAD_XDICTIONARY
360
F225
102
}
102
{ACAD_REACTORS
330
F22F
102
}
330
1F
100
AcDbEntity
  8
D-STR-DIM
100
AcDbDimension
  2
*D63
 10
2005.000002945712
 20
2104.610734115882
 30
0.0
 11
1724.99997348859
 21
2129.610734115882
 31
0.0
 70
    32
 71
     5
 42
560.0000589142437
  3
S10
100
AcDbAlignedDimension
 13
1444.999944031468
 23
2271.626499211852
 33
0.0
 14
2005.000002945712
 24
2271.626499211852
 34
0.0
100
AcDbRotatedDimension
1001
ACAD
1000
DSTYLE
1002
{
1070
   279
1070
     1
1002
}
  0
DIMENSION
  5
F23B
330
1F
100
AcDbEntity
  8
D-STR-DIM
100
AcDbDimension
  2
*D65
 10
3685.000090433364
 20
2694.395668399105
 30
0.0
 11
3385.00003387569
 21
2719.395668399105
 31
0.0
 70
    32
 71
     5
 42
600.0001131153476
  3
S10
100
AcDbAlignedDimension
 13
3084.999977318016
 23
2561.626454731598
 33
0.0
 14
3685.000090433364
 24
2561.626454731598
 34
0.0
100
AcDbRotatedDimension
1001
ACAD
1000
DSTYLE
1002
{
1070
   279
1070
     1
1002
}
  0
DIMENSION
  5
F23E
330
1F
100
AcDbEntity
  8
D-STR-DIM
100
AcDbDimension
  2
*D64
 10
3084.999977318016
 20
2694.395668399105
 30
0.0
 11
3060.000030929977
 21
2719.395668399105
 31
0.0
 70
    32
 71
     5
 42
49.9998927760771
  3
S10
100
AcDbAlignedDimension
 13
3035.000084541939
 23
2561.626454731598
 33
0.0
 14
3084.999977318016
 24
2561.626454731598
 34
0.0
100
AcDbRotatedDimension
  0
DIMENSION
  5
F26F
330
1F
100
AcDbEntity
  8
D-STR-DIM
100
AcDbDimension
  2
*D66
 10
2953.135090804654
 20
2201.626491847571
 30
0.0
 11
2953.135090804653
 21
2194.126481684864
 31
0.0
 70
   160
 71
     5
 42
15.00002032541488
  3
S10
100
AcDbAlignedDimension
 13
3034.999909566636
 23
2186.626471522156
 33
0.0
 14
3034.999909566636
 24
2201.626491847571
 34
0.0
 50
90.0
100
AcDbRotatedDimension
  0
DIMENSION
  5
F270
330
1F
100
AcDbEntity
  8
D-STR-DIM
100
AcDbDimension
  2
*D68
 10
2877.963807656686
 20
2156.626430871328
 30
0.0
 11
2877.963807656686
 21
2171.626451196743
 31
0.0
 70
   160
 71
     5
 42
30.00004065082794
  3
S10
100
AcDbAlignedDimension
 13
3034.999909566636
 23
2186.626471522156
 33
0.0
 14
3034.999909566636
 24
2156.626430871328
 34
0.0
 50
90.0
100
AcDbRotatedDimension
1001
ACAD
1000
DSTYLE
1002
{
1070
   279
1070
     1
1002
}
  0
DIMENSION
  5
F273
330
1F
100
AcDbEntity
  8
D-STR-DIM
100
AcDbDimension
  2
*D67
 10
2877.963807656686
 20
2186.626471522156
 30
0.0
 11
2852.963807656685
 21
2374.126463126878
 31
0.0
 70
    32
 71
     5
 42
374.9999832094417
  3
S10
100
AcDbAlignedDimension
 13
3034.999909566636
 23
2561.626454731598
 33
0.0
 14
3034.999909566636
 24
2186.626471522156
 34
0.0
 50
90.0
100
AcDbRotatedDimension
  0
DIMENSION
  5
F276
330
1F
100
AcDbEntity
  8
D-STR-DIM
100
AcDbDimension
  2
*D71
 10
3685.000090433364
 20
2024.610713201324
 30
0.0
 11
3405.000060976242
 21
2049.610713201324
 31
0.0
 70
    32
 71
     5
 42
560.0000589142437
  3
S10
100
AcDbAlignedDimension
 13
3125.00003151912
 23
2201.626491847571
 33
0.0
 14
3685.000090433364
 24
2201.626491847571
 34
0.0
100
AcDbRotatedDimension
1001
ACAD
1000
DSTYLE
1002
{
1070
   279
1070
     1
1002
}
  0
DIMENSION
  5
F279
330
1F
100
AcDbEntity
  8
D-STR-DIM
100
AcDbDimension
  2
*D70
 10
3125.00003151912
 20
2024.610713201324
 30
0.0
 11
3109.999923706054
 21
2024.610713201324
 31
0.0
 70
   160
 71
     5
 42
30.00004065082794
  3
S10
100
AcDbAlignedDimension
 13
3094.999990868292
 23
2156.626430871328
 33
0.0
 14
3125.00003151912
 24
2201.626491847571
 34
0.0
100
AcDbRotatedDimension
1001
ACAD
1000
DSTYLE
1002
{
1070
   279
1070
     1
1002
}
  0
DIMENSION
  5
F27C
330
1F
100
AcDbEntity
  8
D-STR-DIM
100
AcDbDimension
  2
*D69
 10
3094.999990868292
 20
2024.610713201324
 30
0.0
 11
3064.999950217464
 21
2049.610713201324
 31
0.0
 70
    32
 71
     5
 42
60.00008130165588
  3
S10
100
AcDbAlignedDimension
 13
3034.999909566636
 23
2156.626430871328
 33
0.0
 14
3094.999990868292
 24
2156.626430871328
 34
0.0
100
AcDbRotatedDimension
  0
DIMENSION
  5
F373
330
1F
100
AcDbEntity
  8
D-STR-DIM
100
AcDbDimension
  2
*D72
 10
5370.000097208502
 20
2694.395668399105
 30
0.0
 11
5070.000040650828
 21
2719.395668399105
 31
0.0
 70
    32
 71
     5
 42
600.0001131153476
  3
S10
100
AcDbAlignedDimension
 13
4769.999984093153
 23
2561.626454731598
 33
0.0
 14
5370.000097208502
 24
2561.626454731598
 34
0.0
100
AcDbRotatedDimension
1001
ACAD
1000
DSTYLE
1002
{
1070
   279
1070
     1
1002
}
  0
DIMENSION
  5
F374
330
1F
100
AcDbEntity
  8
D-STR-DIM
100
AcDbDimension
  2
*D73
 10
4769.999984093153
 20
2694.395668399105
 30
0.0
 11
4740.000030929977
 21
2719.395668399105
 31
0.0
 70
    32
 71
     5
 42
59.99990632635308
  3
S10
100
AcDbAlignedDimension
 13
4710.0000777668
 23
2561.626454731598
 33
0.0
 14
4769.999984093153
 24
2561.626454731598
 34
0.0
100
AcDbRotatedDimension
  0
DIMENSION
  5
F3C0
330
1F
100
AcDbEntity
  8
D-STR-DIM
100
AcDbDimension
  2
*D75
 10
4552.963800881548
 20
1981.626456204452
 30
0.0
 11
4552.963800881548
 21
2001.626439561179
 31
0.0
 70
   160
 71
     5
 42
39.99996671345434
  3
S10
100
AcDbAlignedDimension
 13
4709.999902791498
 23
2021.626422917907
 33
0.0
 14
4709.999902791498
 24
1981.626456204452
 34
0.0
 50
90.0
100
AcDbRotatedDimension
1001
ACAD
1000
DSTYLE
1002
{
1070
   279
1070
     1
1002
}
  0
DIMENSION
  5
F3C1
330
1F
100
AcDbEntity
  8
D-STR-DIM
100
AcDbDimension
  2
*D76
 10
4552.963800881548
 20
2021.626422917907
 30
0.0
 11
4527.963800881548
 21
2291.626438824753
 31
0.0
 70
    32
 71
     5
 42
540.0000318136915
  3
S10
100
AcDbAlignedDimension
 13
4709.999902791498
 23
2561.626454731598
 33
0.0
 14
4709.999902791498
 24
2021.626422917907
 34
0.0
 50
90.0
100
AcDbRotatedDimension
  0
DIMENSION
  5
F3C2
330
1F
100
AcDbEntity
  8
D-STR-DIM
100
AcDbDimension
  2
*D74
 10
4628.135084029515
 20
2041.626450018458
 30
0.0
 11
4628.135084029515
 21
2031.626436468183
 31
0.0
 70
   160
 71
     5
 42
20.00002710055196
  3
S10
100
AcDbAlignedDimension
 13
4709.999902791498
 23
2021.626422917907
 33
0.0
 14
4709.999902791498
 24
2041.626450018458
 34
0.0
 50
90.0
100
AcDbRotatedDimension
  0
DIMENSION
  5
F3C3
330
1F
100
AcDbEntity
  8
D-STR-DIM
100
AcDbDimension
  2
*D77
 10
5370.000097208502
 20
1849.610738534447
 30
0.0
 11
5090.00006775138
 21
1874.610738534447
 31
0.0
 70
    32
 71
     5
 42
560.0000589142437
  3
S10
100
AcDbAlignedDimension
 13
4810.000038294258
 23
2041.626450018458
 33
0.0
 14
5370.000097208502
 24
2041.626450018458
 34
0.0
100
AcDbRotatedDimension
1001
ACAD
1000
DSTYLE
1002
{
1070
   279
1070
     1
1002
}
  0
DIMENSION
  5
F3C4
330
1F
100
AcDbEntity
  8
D-STR-DIM
100
AcDbDimension
  2
*D78
 10
4810.000038294258
 20
1849.610738534447
 30
0.0
 11
4795.000017968843
 21
1849.610738534447
 31
0.0
 70
   160
 71
     5
 42
30.00004065082976
  3
S10
100
AcDbAlignedDimension
 13
4779.999997643428
 23
1981.626456204452
 33
0.0
 14
4810.000038294258
 24
2041.626450018458
 34
0.0
100
AcDbRotatedDimension
1001
ACAD
1000
DSTYLE
1002
{
1070
   279
1070
     1
1002
}
  0
DIMENSION
  5
F3C5
330
1F
100
AcDbEntity
  8
D-STR-DIM
100
AcDbDimension
  2
*D79
 10
4779.999997643428
 20
1849.610738534447
 30
0.0
 11
4744.999950217463
 21
1874.610738534447
 31
0.0
 70
    32
 71
     5
 42
70.00009485193004
  3
S10
100
AcDbAlignedDimension
 13
4709.999902791498
 23
1981.626456204452
 33
0.0
 14
4779.999997643428
 24
1981.626456204452
 34
0.0
100
AcDbRotatedDimension
  0
ENDSEC
  0
SECTION
  2
OBJECTS
  0
DICTIONARY
  5
C
330
0
100
AcDbDictionary
281
     1
  3
ACAD_GROUP
350
D
  3
ACAD_LAYOUT
350
1A
  3
ACAD_MLINESTYLE
350
17
  3
ACAD_PLOTSETTINGS
350
19
  3
ACAD_PLOTSTYLENAME
350
E
  3
AcadDim
350
23B1
  3
AcDbVariableDictionary
350
B0
  3
AEC_PROPERTY_SET_DEFS
350
67
  3
ASE_INDEX_DICTIONARY
350
E9D1
  0
DICTIONARY
  5
E5C5
330
E5B6
100
AcDbDictionary
280
     1
281
     1
  3
ACAD_DIMASSOC
360
E5D1
  0
DICTIONARY
  5
E5E1
330
E5D2
100
AcDbDictionary
280
     1
281
     1
  3
ACAD_DIMASSOC
360
E5ED
  0
DICTIONARY
  5
E991
330
E982
100
AcDbDictionary
280
     1
281
     1
  3
ACAD_DIMASSOC
360
E99D
  0
DICTIONARY
  5
E9B8
330
E9A9
100
AcDbDictionary
280
     1
281
     1
  3
ACAD_DIMASSOC
360
E9C4
  0
DICTIONARY
  5
ECEC
330
ECDD
100
AcDbDictionary
280
     1
281
     1
  3
ACAD_DIMASSOC
360
ECF8
  0
DICTIONARY
  5
ED08
330
ECF9
100
AcDbDictionary
280
     1
281
     1
  3
ACAD_DIMASSOC
360
ED14
  0
DICTIONARY
  5
F133
330
F124
100
AcDbDictionary
280
     1
281
     1
  3
ACAD_DIMASSOC
360
F13F
  0
DICTIONARY
  5
F14D
330
F140
100
AcDbDictionary
280
     1
281
     1
  3
ACAD_DIMASSOC
360
F157
  0
DICTIONARY
  5
F165
330
F158
100
AcDbDictionary
280
     1
281
     1
  3
ACAD_DIMASSOC
360
F16F
  0
DICTIONARY
  5
F182
330
F170
100
AcDbDictionary
280
     1
281
     1
  3
ACAD_DIMASSOC
360
F191
  0
DICTIONARY
  5
F1E9
330
F1DA
100
AcDbDictionary
280
     1
281
     1
  3
ACAD_DIMASSOC
360
F1F5
  0
DICTIONARY
  5
F208
330
F1F6
100
AcDbDictionary
280
     1
281
     1
  3
ACAD_DIMASSOC
360
F217
  0
DICTIONARY
  5
F225
330
F218
100
AcDbDictionary
280
     1
281
     1
  3
ACAD_DIMASSOC
360
F22F
  0
DICTIONARY
  5
D
102
{ACAD_REACTORS
330
C
102
}
330
C
100
AcDbDictionary
281
     1
  0
DICTIONARY
  5
1A
102
{ACAD_REACTORS
330
C
102
}
330
C
100
AcDbDictionary
281
     1
  3
Model
350
22
  3
ﾚｲｱｳﾄ1
350
1E
  3
ﾚｲｱｳﾄ2
350
26
  0
DICTIONARY
  5
17
102
{ACAD_REACTORS
330
C
102
}
330
C
100
AcDbDictionary
281
     1
  3
Standard
350
18
  0
DICTIONARY
  5
19
102
{ACAD_REACTORS
330
C
102
}
330
C
100
AcDbDictionary
281
     1
  0
ACDBDICTIONARYWDFLT
  5
E
102
{ACAD_REACTORS
330
C
102
}
330
C
100
AcDbDictionary
281
     1
  3
Normal
350
F
100
AcDbDictionaryWithDefault
340
F
  0
XRECORD
  5
23B1
102
{ACAD_REACTORS
330
C
102
}
330
C
100
AcDbXrecord
280
     1
 90
   990106
  3
OPEN30
 60
     0
 61
     0
 62
     4
 63
     4
 64
     1
 65
     0
 66
     0
 67
     3
 68
     1
 69
     0
 70
     0
 71
     0
 72
     0
 40
0.0
170
     2
340
0
  0
DICTIONARY
  5
B0
102
{ACAD_REACTORS
330
C
102
}
330
C
100
AcDbDictionary
281
     1
  3
DIMASSOC
350
B2
  3
HIDETEXT
350
B1
  0
DICTIONARY
  5
67
102
{ACAD_REACTORS
330
C
102
}
330
C
100
AcDbDictionary
281
     1
  0
DICTIONARY
  5
E9D1
102
{ACAD_REACTORS
330
C
102
}
330
C
100
AcDbDictionary
281
     1
  3
ASEBlockHierarchyIndexRecord
350
E9D3
1001
DCO15
1040
1594526283.441
  0
DIMASSOC
  5
E5D1
102
{ACAD_REACTORS
330
E5C5
102
}
330
E5C5
100
AcDbDimAssoc
330
E5B6
 90
        2
 70
     0
 71
     0
  1
AcDbOsnapPointRef
 72
    13
331
E444
 73
     2
 91
        0
 40
0.0
 10
1515.0000388834
 20
4632.769226216009
 30
0.0
 75
     0
  0
DIMASSOC
  5
E5ED
102
{ACAD_REACTORS
330
E5E1
102
}
330
E5E1
100
AcDbDimAssoc
330
E5D2
 90
        3
 70
     0
 71
     0
  1
AcDbOsnapPointRef
 72
    13
331
E447
 73
     2
 91
        0
 40
0.0
 10
1844.999961116599
 20
4632.769226216009
 30
0.0
 75
     0
  1
AcDbOsnapPointRef
 72
    13
331
E449
 73
     2
 91
        0
 40
0.0
 10
1880.00758737158
 20
4632.769226216015
 30
0.0
 75
     0
  0
DIMASSOC
  5
E99D
102
{ACAD_REACTORS
330
E991
102
}
330
E991
100
AcDbDimAssoc
330
E982
 90
        2
 70
     0
 71
     0
  1
AcDbOsnapPointRef
 72
    13
331
E6C3
 73
     2
 91
        0
 40
0.0
 10
3160.000011457435
 20
4702.76914609264
 30
0.0
 75
     0
  0
DIMASSOC
  5
E9C4
102
{ACAD_REACTORS
330
E9B8
102
}
330
E9B8
100
AcDbDimAssoc
330
E9A9
 90
        3
 70
     0
 71
     0
  1
AcDbOsnapPointRef
 72
    13
331
E6C4
 73
     2
 91
        0
 40
0.0
 10
3560.000028542568
 20
4702.769146092638
 30
0.0
 75
     0
  1
AcDbOsnapPointRef
 72
    13
331
E6D6
 73
     2
 91
        0
 40
0.0
 10
3605.025041242476
 20
4702.769146092638
 30
0.0
 75
     0
  0
DIMASSOC
  5
ECF8
102
{ACAD_REACTORS
330
ECEC
102
}
330
ECEC
100
AcDbDimAssoc
330
ECDD
 90
        3
 70
     0
 71
     0
  1
AcDbOsnapPointRef
 72
    13
331
EA04
 73
     2
 91
        0
 40
0.0
 10
4699.985123828113
 20
4862.769187921751
 30
0.0
 75
     0
  1
AcDbOsnapPointRef
 72
    13
331
EA03
 73
     2
 91
        0
 40
0.0
 10
4759.999903055235
 20
4862.769187921749
 30
0.0
 75
     0
  0
DIMASSOC
  5
ED14
102
{ACAD_REACTORS
330
ED08
102
}
330
ED08
100
AcDbDimAssoc
330
ECF9
 90
        3
 70
     0
 71
     0
  1
AcDbOsnapPointRef
 72
    13
331
EA10
 73
     2
 91
        0
 40
0.0
 10
5320.00004945713
 20
4862.769187921749
 30
0.0
 75
     0
  1
AcDbOsnapPointRef
 72
    13
331
EA11
 73
     2
 91
        0
 40
0.0
 10
5380.014916171901
 20
4862.769187921751
 30
0.0
 75
     0
  0
DIMASSOC
  5
F13F
102
{ACAD_REACTORS
330
F133
102
}
330
F133
100
AcDbDimAssoc
330
F124
 90
        3
 70
     0
 71
     0
  1
AcDbOsnapPointRef
 72
    13
331
E465
 73
     2
 91
        0
 40
0.0
 10
1354.999997054287
 20
2561.626454731598
 30
0.0
 75
     0
  1
AcDbOsnapPointRef
 72
     1
331
E45C
 73
     2
 91
        0
 40
1.0
 10
1404.999889830364
 20
2561.626454731598
 30
0.0
 75
     0
  0
DIMASSOC
  5
F157
102
{ACAD_REACTORS
330
F14D
102
}
330
F14D
100
AcDbDimAssoc
330
F140
 90
        3
 70
     0
 71
     0
  1
AcDbOsnapPointRef
 72
     1
331
E45C
 73
     2
 91
        0
 40
1.0
 10
1404.999889830364
 20
2561.626454731598
 30
0.0
 75
     0
  1
AcDbOsnapPointRef
 72
     1
331
E465
 73
     2
 91
        0
 40
1.0
 10
2005.000002945712
 20
2561.626454731598
 30
0.0
 75
     0
  0
DIMASSOC
  5
F16F
102
{ACAD_REACTORS
330
F165
102
}
330
F165
100
AcDbDimAssoc
330
F158
 90
        3
 70
     0
 71
     0
  1
AcDbOsnapPointRef
 72
     1
331
E459
 73
     2
 91
        0
 40
1.0
 10
1354.999997054287
 20
2561.626454731598
 30
0.0
 75
     0
  1
AcDbOsnapPointRef
 72
    13
331
E463
 73
     2
 91
        0
 40
0.0
 10
1354.999997054287
 20
2261.626485661576
 30
0.0
 75
     0
  0
DIMASSOC
  5
F191
102
{ACAD_REACTORS
330
F182
102
}
330
F182
100
AcDbDimAssoc
330
F170
 90
        3
 70
     0
 71
     0
  1
AcDbOsnapPointRef
 72
    13
331
E463
 73
     2
 91
        0
 40
0.0
 10
1354.999997054287
 20
2261.626485661576
 30
0.0
 75
     0
  1
AcDbOsnapPointRef
 72
    13
331
E459
 73
     2
 91
        0
 40
0.0
 10
1354.999997054287
 20
2236.626451785887
 30
0.0
 75
     0
  0
DIMASSOC
  5
F1F5
102
{ACAD_REACTORS
330
F1E9
102
}
330
F1E9
100
AcDbDimAssoc
330
F1DA
 90
        2
 70
     0
 71
     0
  1
AcDbOsnapPointRef
 72
    13
331
E45A
 73
     2
 91
        0
 40
0.0
 10
1415.000078355943
 20
2236.626451785887
 30
0.0
 75
     0
  0
DIMASSOC
  5
F217
102
{ACAD_REACTORS
330
F208
102
}
330
F208
100
AcDbDimAssoc
330
F1F6
 90
        3
 70
     0
 71
     0
  1
AcDbOsnapPointRef
 72
    13
331
E45A
 73
     2
 91
        0
 40
0.0
 10
1415.000078355943
 20
2236.626451785887
 30
0.0
 75
     0
  1
AcDbOsnapPointRef
 72
    13
331
E45D
 73
     2
 91
        0
 40
0.0
 10
1444.999944031468
 20
2271.626499211852
 30
0.0
 75
     0
  0
DIMASSOC
  5
F22F
102
{ACAD_REACTORS
330
F225
102
}
330
F225
100
AcDbDimAssoc
330
F218
 90
        3
 70
     0
 71
     0
  1
AcDbOsnapPointRef
 72
    13
331
E45D
 73
     2
 91
        0
 40
0.0
 10
1444.999944031468
 20
2271.626499211852
 30
0.0
 75
     0
  1
AcDbOsnapPointRef
 72
     1
331
E45D
 73
     2
 91
        0
 40
1.0
 10
2005.000002945712
 20
2271.626499211852
 30
0.0
 75
     0
  0
LAYOUT
  5
22
102
{ACAD_REACTORS
330
1A
102
}
330
1A
100
AcDbPlotSettings
  1

  2
DocuPrint C2220
  4
A3
  6

 40
4.900083065032958
 41
4.857729434967041
 42
4.900054931640625
 43
4.90008544921875
 44
297.0106506347656
 45
419.9889831542968
 46
-4.889999999999999
 47
-4.879999999999999
 48
11363.01166058428
 49
5248.56212101729
140
19763.01166058428
141
11188.56212101729
142
1.0
143
20.0
 70
 11940
 72
     1
 73
     1
 74
     4
  7
monochrome.ctb
 75
     0
147
0.05
148
-11363.01166058428
149
-5248.56212101729
100
AcDbLayout
  1
Model
 70
     1
 71
     0
 10
0.0
 20
0.0
 11
12.0
 21
9.0
 12
0.0
 22
0.0
 32
0.0
 14
0.0
 24
0.0
 34
0.0
 15
0.0
 25
0.0
 35
0.0
146
0.0
 13
0.0
 23
0.0
 33
0.0
 16
1.0
 26
0.0
 36
0.0
 17
0.0
 27
1.0
 37
0.0
 76
     0
330
1F
  0
LAYOUT
  5
1E
102
{ACAD_REACTORS
330
1A
102
}
330
1A
100
AcDbPlotSettings
  1

  2
NEC PC-PR2000/4R No.2
  4

  6

 40
0.0
 41
0.0
 42
0.0
 43
0.0
 44
0.0
 45
0.0
 46
0.0
 47
0.0
 48
0.0
 49
0.0
140
0.0
141
0.0
142
1.0
143
1.0
 70
   688
 72
     0
 73
     0
 74
     5
  7
monochrome.ctb
 75
    16
147
1.0
148
0.0
149
0.0
100
AcDbLayout
  1
ﾚｲｱｳﾄ1
 70
     1
 71
     1
 10
0.0
 20
0.0
 11
420.0
 21
297.0
 12
0.0
 22
0.0
 32
0.0
 14
1.000000000000000E+20
 24
1.000000000000000E+20
 34
1.000000000000000E+20
 15
-1.000000000000000E+20
 25
-1.000000000000000E+20
 35
-1.000000000000000E+20
146
0.0
 13
0.0
 23
0.0
 33
0.0
 16
1.0
 26
0.0
 36
0.0
 17
0.0
 27
1.0
 37
0.0
 76
     0
330
1B
  0
LAYOUT
  5
26
102
{ACAD_REACTORS
330
1A
102
}
330
1A
100
AcDbPlotSettings
  1

  2
NEC PC-PR2000/4R No.2
  4

  6

 40
0.0
 41
0.0
 42
0.0
 43
0.0
 44
0.0
 45
0.0
 46
0.0
 47
0.0
 48
0.0
 49
0.0
140
0.0
141
0.0
142
1.0
143
1.0
 70
   688
 72
     0
 73
     0
 74
     5
  7
monochrome.ctb
 75
    16
147
1.0
148
0.0
149
0.0
100
AcDbLayout
  1
ﾚｲｱｳﾄ2
 70
     1
 71
     2
 10
0.0
 20
0.0
 11
12.0
 21
9.0
 12
0.0
 22
0.0
 32
0.0
 14
0.0
 24
0.0
 34
0.0
 15
0.0
 25
0.0
 35
0.0
146
0.0
 13
0.0
 23
0.0
 33
0.0
 16
1.0
 26
0.0
 36
0.0
 17
0.0
 27
1.0
 37
0.0
 76
     0
330
23
  0
MLINESTYLE
  5
18
102
{ACAD_REACTORS
330
17
102
}
330
17
100
AcDbMlineStyle
  2
STANDARD
 70
     0
  3

 62
   256
 51
90.0
 52
90.0
 71
     2
 49
0.5
 62
   256
  6
BYLAYER
 49
-0.5
 62
   256
  6
BYLAYER
  0
ACDBPLACEHOLDER
  5
F
102
{ACAD_REACTORS
330
E
102
}
330
E
  0
DICTIONARYVAR
  5
B2
102
{ACAD_REACTORS
330
B0
102
}
330
B0
100
DictionaryVariables
280
     0
  1
2
  0
DICTIONARYVAR
  5
B1
102
{ACAD_REACTORS
330
B0
102
}
330
B0
100
DictionaryVariables
280
     0
  1
1
  0
XRECORD
  5
E9D3
102
{ACAD_REACTORS
330
E9D1
102
}
330
E9D1
100
AcDbXrecord
280
     1
330
EF2D
330
EF2E
330
EF4B
330
EF4C
330
EF17
330
EF18
330
EF53
330
EF54
330
EF0E
330
EF0F
330
EF70
330
EF71
330
EF3F
330
EF40
330
EF36
330
EF37
330
EF67
330
EF68
330
EFB7
330
EFB8
330
EFAE
330
EFAF
330
EFA6
330
EFA7
330
EF90
330
EF91
330
EF85
330
EF86
330
EF9B
330
EF9C
330
EF23
330
EF24
330
EF79
330
EF7A
330
EF5F
330
EF60
330
EFDF
330
EFE0
330
F010
330
F011
330
F006
330
F007
330
F019
330
F01A
330
EFE8
330
EFE9
330
EFF1
330
EFF2
330
EFFA
330
EFFB
330
F02B
330
F02C
330
F022
330
F023
330
F069
330
F06A
330
F060
330
F061
330
F042
330
F043
330
F058
330
F059
330
EFC3
330
EFC4
330
EFD6
330
EFD7
330
EFCE
330
EFCF
330
F036
330
F037
330
F04C
330
F04D
330
F09F
330
F0A0
330
F0A8
330
F0A9
330
F0D0
330
F0D1
330
F0D9
330
F0DA
330
F072
330
F073
330
F07B
330
F07C
330
F0BE
330
F0BF
330
F0B4
330
F0B5
330
F0C7
330
F0C8
330
F0ED
330
F0EE
330
F0F6
330
F0F7
330
F0E5
330
F0E6
330
F118
330
F119
330
F08D
330
F08E
330
F096
330
F097
330
F084
330
F085
330
F101
330
F102
330
F10C
330
F10D
330
F139
330
F13A
330
F151
330
F152
330
F169
330
F16A
330
F198
330
F199
330
F1D4
330
F1D5
330
F1EF
330
F1F0
330
F236
330
F237
330
F229
330
F22A
330
F269
330
F26A
330
F25E
330
F25F
330
F34E
330
F34F
330
F357
330
F358
330
F36E
330
F36F
330
F2F3
330
F2F4
330
F313
330
F314
330
F324
330
F325
330
F3AF
330
F3B0
330
F3BA
330
F3BB
330
F478
330
F479
330
F498
330
F499
330
F481
330
F482
330
F4F2
330
F4F3
330
F4EA
330
F4EB
330
F4D3
330
F4D4
  0
ENDSEC
  0
EOF
