  0
SECTION
  2
HEADER
  9
$ACADVER
  1
AC1015
  9
$ACADMAINTVER
 70
    14
  9
$DWGCODEPAGE
  3
ANSI_932
  9
$INSBASE
 10
0.0
 20
0.0
 30
0.0
  9
$EXTMIN
 10
0.0
 20
0.0
 30
0.0
  9
$EXTMAX
 10
2980.0
 20
2023.604371196622
 30
0.0
  9
$LIMMIN
 10
0.0
 20
0.0
  9
$LIMMAX
 10
420.0
 20
297.0
  9
$ORTHOMODE
 70
     1
  9
$REGENMODE
 70
     1
  9
$FILLMODE
 70
     1
  9
$QTEXTMODE
 70
     0
  9
$MIRRTEXT
 70
     1
  9
$LTSCALE
 40
10.0
  9
$ATTMODE
 70
     1
  9
$TEXTSIZE
 40
2.5
  9
$TRACEWID
 40
1.0
  9
$TEXTSTYLE
  7
Standard
  9
$CLAYER
  8
D-STR
  9
$CELTYPE
  6
ByLayer
  9
$CECOLOR
 62
   256
  9
$CELTSCALE
 40
1.0
  9
$DISPSILH
 70
     0
  9
$DIMSCALE
 40
10.0
  9
$DIMASZ
 40
2.5
  9
$DIMEXO
 40
1.0
  9
$DIMDLI
 40
10.0
  9
$DIMRND
 40
0.0
  9
$DIMDLE
 40
0.0
  9
$DIMEXE
 40
2.0
  9
$DIMTP
 40
0.0
  9
$DIMTM
 40
0.0
  9
$DIMTXT
 40
3.0
  9
$DIMCEN
 40
2.5
  9
$DIMTSZ
 40
0.0
  9
$DIMTOL
 70
     0
  9
$DIMLIM
 70
     0
  9
$DIMTIH
 70
     0
  9
$DIMTOH
 70
     0
  9
$DIMSE1
 70
     0
  9
$DIMSE2
 70
     0
  9
$DIMTAD
 70
     1
  9
$DIMZIN
 70
     8
  9
$DIMBLK
  1
OPEN30
  9
$DIMASO
 70
     1
  9
$DIMSHO
 70
     1
  9
$DIMPOST
  1

  9
$DIMAPOST
  1

  9
$DIMALT
 70
     0
  9
$DIMALTD
 70
     3
  9
$DIMALTF
 40
0.03937007874016
  9
$DIMLFAC
 40
1.0
  9
$DIMTOFL
 70
     1
  9
$DIMTVP
 40
0.0
  9
$DIMTIX
 70
     0
  9
$DIMSOXD
 70
     0
  9
$DIMSAH
 70
     0
  9
$DIMBLK1
  1

  9
$DIMBLK2
  1

  9
$DIMSTYLE
  2
S10
  9
$DIMCLRD
 70
   256
  9
$DIMCLRE
 70
   256
  9
$DIMCLRT
 70
   256
  9
$DIMTFAC
 40
1.0
  9
$DIMGAP
 40
1.0
  9
$DIMJUST
 70
     0
  9
$DIMSD1
 70
     0
  9
$DIMSD2
 70
     0
  9
$DIMTOLJ
 70
     0
  9
$DIMTZIN
 70
     8
  9
$DIMALTZ
 70
     0
  9
$DIMALTTZ
 70
     0
  9
$DIMUPT
 70
     0
  9
$DIMDEC
 70
     0
  9
$DIMTDEC
 70
     0
  9
$DIMALTU
 70
     2
  9
$DIMALTTD
 70
     3
  9
$DIMTXSTY
  7
Standard
  9
$DIMAUNIT
 70
     0
  9
$DIMADEC
 70
     0
  9
$DIMALTRND
 40
0.0
  9
$DIMAZIN
 70
     0
  9
$DIMDSEP
 70
    46
  9
$DIMATFIT
 70
     3
  9
$DIMFRAC
 70
     0
  9
$DIMLDRBLK
  1
OPEN30
  9
$DIMLUNIT
 70
     2
  9
$DIMLWD
 70
    -2
  9
$DIMLWE
 70
    -2
  9
$DIMTMOVE
 70
     0
  9
$LUNITS
 70
     2
  9
$LUPREC
 70
     4
  9
$SKETCHINC
 40
1.0
  9
$FILLETRAD
 40
30.0
  9
$AUNITS
 70
     0
  9
$AUPREC
 70
     0
  9
$MENU
  1
.
  9
$ELEVATION
 40
0.0
  9
$PELEVATION
 40
0.0
  9
$THICKNESS
 40
0.0
  9
$LIMCHECK
 70
     0
  9
$CHAMFERA
 40
0.0
  9
$CHAMFERB
 40
0.0
  9
$CHAMFERC
 40
20.0
  9
$CHAMFERD
 40
0.0
  9
$SKPOLY
 70
     0
  9
$TDCREATE
 40
2452871.347558217
  9
$TDUCREATE
 40
2452870.972558217
  9
$TDUPDATE
 40
2454642.398618322
  9
$TDUUPDATE
 40
2454642.023618322
  9
$TDINDWG
 40
0.5457421065
  9
$TDUSRTIMER
 40
0.5457421065
  9
$USRTIMER
 70
     1
  9
$ANGBASE
 50
0.0
  9
$ANGDIR
 70
     0
  9
$PDMODE
 70
     0
  9
$PDSIZE
 40
0.0
  9
$PLINEWID
 40
0.0
  9
$SPLFRAME
 70
     0
  9
$SPLINETYPE
 70
     6
  9
$SPLINESEGS
 70
     8
  9
$HANDSEED
  5
EFDD
  9
$SURFTAB1
 70
     6
  9
$SURFTAB2
 70
     6
  9
$SURFTYPE
 70
     6
  9
$SURFU
 70
     6
  9
$SURFV
 70
     6
  9
$UCSBASE
  2

  9
$UCSNAME
  2

  9
$UCSORG
 10
0.0
 20
0.0
 30
0.0
  9
$UCSXDIR
 10
1.0
 20
0.0
 30
0.0
  9
$UCSYDIR
 10
0.0
 20
1.0
 30
0.0
  9
$UCSORTHOREF
  2

  9
$UCSORTHOVIEW
 70
     0
  9
$UCSORGTOP
 10
0.0
 20
0.0
 30
0.0
  9
$UCSORGBOTTOM
 10
0.0
 20
0.0
 30
0.0
  9
$UCSORGLEFT
 10
0.0
 20
0.0
 30
0.0
  9
$UCSORGRIGHT
 10
0.0
 20
0.0
 30
0.0
  9
$UCSORGFRONT
 10
0.0
 20
0.0
 30
0.0
  9
$UCSORGBACK
 10
0.0
 20
0.0
 30
0.0
  9
$PUCSBASE
  2

  9
$PUCSNAME
  2

  9
$PUCSORG
 10
0.0
 20
0.0
 30
0.0
  9
$PUCSXDIR
 10
1.0
 20
0.0
 30
0.0
  9
$PUCSYDIR
 10
0.0
 20
1.0
 30
0.0
  9
$PUCSORTHOREF
  2

  9
$PUCSORTHOVIEW
 70
     0
  9
$PUCSORGTOP
 10
0.0
 20
0.0
 30
0.0
  9
$PUCSORGBOTTOM
 10
0.0
 20
0.0
 30
0.0
  9
$PUCSORGLEFT
 10
0.0
 20
0.0
 30
0.0
  9
$PUCSORGRIGHT
 10
0.0
 20
0.0
 30
0.0
  9
$PUCSORGFRONT
 10
0.0
 20
0.0
 30
0.0
  9
$PUCSORGBACK
 10
0.0
 20
0.0
 30
0.0
  9
$USERI1
 70
     0
  9
$USERI2
 70
     0
  9
$USERI3
 70
     0
  9
$USERI4
 70
     0
  9
$USERI5
 70
     0
  9
$USERR1
 40
0.0
  9
$USERR2
 40
0.0
  9
$USERR3
 40
0.0
  9
$USERR4
 40
0.0
  9
$USERR5
 40
0.0
  9
$WORLDVIEW
 70
     1
  9
$SHADEDGE
 70
     3
  9
$SHADEDIF
 70
    70
  9
$TILEMODE
 70
     1
  9
$MAXACTVP
 70
    64
  9
$PINSBASE
 10
0.0
 20
0.0
 30
0.0
  9
$PLIMCHECK
 70
     0
  9
$PEXTMIN
 10
1.000000000000000E+20
 20
1.000000000000000E+20
 30
1.000000000000000E+20
  9
$PEXTMAX
 10
-1.000000000000000E+20
 20
-1.000000000000000E+20
 30
-1.000000000000000E+20
  9
$PLIMMIN
 10
0.0
 20
0.0
  9
$PLIMMAX
 10
420.0
 20
297.0
  9
$UNITMODE
 70
     0
  9
$VISRETAIN
 70
     1
  9
$PLINEGEN
 70
     0
  9
$PSLTSCALE
 70
     1
  9
$TREEDEPTH
 70
  3020
  9
$CMLSTYLE
  2
Standard
  9
$CMLJUST
 70
     0
  9
$CMLSCALE
 40
20.0
  9
$PROXYGRAPHICS
 70
     1
  9
$MEASUREMENT
 70
     1
  9
$CELWEIGHT
370
    -1
  9
$ENDCAPS
280
     0
  9
$JOINSTYLE
280
     0
  9
$LWDISPLAY
290
     0
  9
$INSUNITS
 70
     4
  9
$HYPERLINKBASE
  1

  9
$STYLESHEET
  1
monochrome.ctb
  9
$XEDIT
290
     1
  9
$CEPSNTYPE
380
     0
  9
$PSTYLEMODE
290
     1
  9
$FINGERPRINTGUID
  2
{D1FD9ED3-811D-4C3D-9EA5-C7A58094841D}
  9
$VERSIONGUID
  2
{41B9C006-3C66-48E3-96F9-7D6364FD8BEF}
  9
$EXTNAMES
290
     1
  9
$PSVPSCALE
 40
0.0
  9
$OLESTARTUP
290
     0
  0
ENDSEC
  0
SECTION
  2
CLASSES
  0
CLASS
  1
ACDBDICTIONARYWDFLT
  2
AcDbDictionaryWithDefault
  3
AutoCAD 2000
 90
        0
280
     0
281
     0
  0
CLASS
  1
ACDBPLACEHOLDER
  2
AcDbPlaceHolder
  3
AutoCAD 2000
 90
        0
280
     0
281
     0
  0
CLASS
  1
LAYOUT
  2
AcDbLayout
  3
AutoCAD 2000
 90
        0
280
     0
281
     0
  0
CLASS
  1
DICTIONARYVAR
  2
AcDbDictionaryVar
  3
AutoCAD 2000
 90
        0
280
     0
281
     0
  0
CLASS
  1
DIMASSOC
  2
AcDbDimAssoc
  3
"AcDbDimAssoc|Product Desc:     AcDim ARX App For Dimension|Company:          Autodesk, Inc.|WEB Address:      www.autodesk.com"
 90
    32768
280
     0
281
     0
  0
ENDSEC
  0
SECTION
  2
TABLES
  0
TABLE
  2
VPORT
  5
8
330
0
100
AcDbSymbolTable
 70
     2
  0
VPORT
  5
EFDC
330
8
100
AcDbSymbolTableRecord
100
AcDbViewportTableRecord
  2
*Active
 70
     0
 10
0.0
 20
0.0
 11
1.0
 21
1.0
 12
1490.0886937546
 22
1011.878740581827
 13
0.0
 23
0.0
 14
10.0
 24
10.0
 15
10.0
 25
10.0
 16
0.0
 26
0.0
 36
1.0
 17
0.0
 27
0.0
 37
0.0
 40
2041.027492770449
 41
1.64931506849315
 42
50.0
 43
0.0
 44
0.0
 50
0.0
 51
0.0
 71
     0
 72
   100
 73
     1
 74
     1
 75
     0
 76
     0
 77
     0
 78
     0
281
     0
 65
     1
110
0.0
120
0.0
130
0.0
111
1.0
121
0.0
131
0.0
112
0.0
122
1.0
132
0.0
 79
     0
146
0.0
  0
ENDTAB
  0
TABLE
  2
LTYPE
  5
5
330
0
100
AcDbSymbolTable
 70
     1
  0
LTYPE
  5
14
330
5
100
AcDbSymbolTableRecord
100
AcDbLinetypeTableRecord
  2
ByBlock
 70
     0
  3

 72
    65
 73
     0
 40
0.0
  0
LTYPE
  5
15
330
5
100
AcDbSymbolTableRecord
100
AcDbLinetypeTableRecord
  2
ByLayer
 70
     0
  3

 72
    65
 73
     0
 40
0.0
  0
LTYPE
  5
16
330
5
100
AcDbSymbolTableRecord
100
AcDbLinetypeTableRecord
  2
Continuous
 70
     0
  3
Solid line
 72
    65
 73
     0
 40
0.0
  0
ENDTAB
  0
TABLE
  2
LAYER
  5
2
330
0
100
AcDbSymbolTable
 70
     6
  0
LAYER
  5
10
330
2
100
AcDbSymbolTableRecord
100
AcDbLayerTableRecord
  2
0
 70
     0
 62
     7
  6
Continuous
370
    -3
390
F
  0
LAYER
  5
40
330
2
100
AcDbSymbolTableRecord
100
AcDbLayerTableRecord
  2
DEFPOINTS
 70
     0
 62
     7
  6
Continuous
290
     0
370
    -3
390
F
  0
LAYER
  5
9E
330
2
100
AcDbSymbolTableRecord
100
AcDbLayerTableRecord
  2
D-STR
 70
     0
 62
     1
  6
Continuous
370
    -3
390
F
  0
LAYER
  5
A0
330
2
100
AcDbSymbolTableRecord
100
AcDbLayerTableRecord
  2
D-STR-TXT
 70
     0
 62
     7
  6
Continuous
370
    15
390
F
  0
LAYER
  5
A1
330
2
100
AcDbSymbolTableRecord
100
AcDbLayerTableRecord
  2
D-STR-DIM
 70
     0
 62
     7
  6
Continuous
370
    15
390
F
  0
LAYER
  5
E4C2
330
2
100
AcDbSymbolTableRecord
100
AcDbLayerTableRecord
  2
D-STR-STR1
 70
     0
 62
     4
  6
Continuous
370
    -3
390
F
  0
ENDTAB
  0
TABLE
  2
STYLE
  5
3
330
0
100
AcDbSymbolTable
 70
     1
  0
STYLE
  5
11
330
3
100
AcDbSymbolTableRecord
100
AcDbTextStyleTableRecord
  2
Standard
 70
     0
 40
0.0
 41
0.8
 50
0.0
 71
     0
 42
2.5
  3
MS Gothic.ttf
  4

1001
ACAD
1000
MS Gothic
1071
    32817
  0
ENDTAB
  0
TABLE
  2
VIEW
  5
6
330
0
100
AcDbSymbolTable
 70
     0
  0
ENDTAB
  0
TABLE
  2
UCS
  5
7
330
0
100
AcDbSymbolTable
 70
     0
  0
ENDTAB
  0
TABLE
  2
APPID
  5
9
330
0
100
AcDbSymbolTable
 70
     2
  0
APPID
  5
12
330
9
100
AcDbSymbolTableRecord
100
AcDbRegAppTableRecord
  2
ACAD
 70
     0
  0
APPID
  5
EF33
330
9
100
AcDbSymbolTableRecord
100
AcDbRegAppTableRecord
  2
DCO15
 70
     0
  0
ENDTAB
  0
TABLE
  2
DIMSTYLE
  5
A
330
0
100
AcDbSymbolTable
 70
     2
100
AcDbDimStyleTable
 71
     1
340
229D
  0
DIMSTYLE
105
229D
102
{ACAD_REACTORS
330
E6CE
330
E7D9
330
E748
330
E6CC
330
E6CD
330
E7D8
330
E780
330
E77B
330
E758
330
E8B2
330
E8B6
330
E759
330
E7E3
330
E8B1
330
E8B0
330
E7FB
330
E7F8
330
E6D4
330
E6E8
330
E6EA
330
E755
330
E77E
330
E7DB
330
E7DD
330
E7F9
102
}
330
A
100
AcDbSymbolTableRecord
100
AcDbDimStyleTableRecord
  2
S10
 70
     0
 40
10.0
 41
2.5
 42
1.0
 43
10.0
 44
2.0
 73
     0
 74
     0
 77
     1
 78
     8
140
3.0
141
2.5
143
0.03937007874016
147
1.0
171
     3
172
     1
176
   256
177
   256
178
   256
271
     0
272
     0
274
     3
283
     0
284
     8
340
11
341
2B
342
2B
  0
DIMSTYLE
105
E4C9
330
A
100
AcDbSymbolTableRecord
100
AcDbDimStyleTableRecord
  2
STANDARD
 70
     0
 40
10.0
 41
2.5
 42
1.0
 43
1.0
 44
1.0
 73
     0
 74
     0
 77
     1
140
3.0
141
3.0
147
1.0
172
     1
173
     1
176
     4
177
     4
178
     4
271
     0
272
     0
279
     2
340
11
341
2B
343
2B
344
2B
  0
ENDTAB
  0
TABLE
  2
BLOCK_RECORD
  5
1
330
0
100
AcDbSymbolTable
 70
    19
  0
BLOCK_RECORD
  5
1F
330
1
100
AcDbSymbolTableRecord
100
AcDbBlockTableRecord
  2
*Model_Space
340
22
  0
BLOCK_RECORD
  5
1B
330
1
100
AcDbSymbolTableRecord
100
AcDbBlockTableRecord
  2
*Paper_Space
340
1E
  0
BLOCK_RECORD
  5
23
330
1
100
AcDbSymbolTableRecord
100
AcDbBlockTableRecord
  2
*Paper_Space0
340
26
  0
BLOCK_RECORD
  5
2B
330
1
100
AcDbSymbolTableRecord
100
AcDbBlockTableRecord
  2
_OPEN30
340
0
102
{BLKREFS
331
EF3C
331
EF3D
331
EF45
331
EF46
331
EF4E
331
EF4F
331
EF57
331
EF58
331
EF63
331
EF64
331
EF6B
331
EF6C
331
EF74
331
EF75
331
EF7D
331
EF7E
331
EF86
331
EF87
331
EF92
331
EF93
331
EF9A
331
EF9B
331
EFA3
331
EFA4
331
EFAC
331
EFAD
331
EFB8
331
EFB9
331
EFC0
331
EFC1
331
EFC9
331
EFCA
331
EFD2
331
EFD3
102
}
  0
BLOCK_RECORD
  5
E8B7
330
1
100
AcDbSymbolTableRecord
100
AcDbBlockTableRecord
  2
*D2
340
0
  0
BLOCK_RECORD
  5
E8C3
330
1
100
AcDbSymbolTableRecord
100
AcDbBlockTableRecord
  2
*D3
340
0
  0
BLOCK_RECORD
  5
E8CF
330
1
100
AcDbSymbolTableRecord
100
AcDbBlockTableRecord
  2
*D4
340
0
  0
BLOCK_RECORD
  5
E8DD
330
1
100
AcDbSymbolTableRecord
100
AcDbBlockTableRecord
  2
*D5
340
0
  0
BLOCK_RECORD
  5
E8E9
330
1
100
AcDbSymbolTableRecord
100
AcDbBlockTableRecord
  2
*D6
340
0
  0
BLOCK_RECORD
  5
E8F5
330
1
100
AcDbSymbolTableRecord
100
AcDbBlockTableRecord
  2
*D7
340
0
  0
BLOCK_RECORD
  5
E903
330
1
100
AcDbSymbolTableRecord
100
AcDbBlockTableRecord
  2
*D8
340
0
  0
BLOCK_RECORD
  5
E90F
330
1
100
AcDbSymbolTableRecord
100
AcDbBlockTableRecord
  2
*D9
340
0
  0
BLOCK_RECORD
  5
E91B
330
1
100
AcDbSymbolTableRecord
100
AcDbBlockTableRecord
  2
*D10
340
0
  0
BLOCK_RECORD
  5
E927
330
1
100
AcDbSymbolTableRecord
100
AcDbBlockTableRecord
  2
*D11
340
0
  0
BLOCK_RECORD
  5
E935
330
1
100
AcDbSymbolTableRecord
100
AcDbBlockTableRecord
  2
*D12
340
0
  0
BLOCK_RECORD
  5
E941
330
1
100
AcDbSymbolTableRecord
100
AcDbBlockTableRecord
  2
*D13
340
0
  0
BLOCK_RECORD
  5
E94D
330
1
100
AcDbSymbolTableRecord
100
AcDbBlockTableRecord
  2
*D14
340
0
  0
BLOCK_RECORD
  5
E959
330
1
100
AcDbSymbolTableRecord
100
AcDbBlockTableRecord
  2
*D15
340
0
  0
BLOCK_RECORD
  5
E965
330
1
100
AcDbSymbolTableRecord
100
AcDbBlockTableRecord
  2
*D16
340
0
  0
BLOCK_RECORD
  5
E971
330
1
100
AcDbSymbolTableRecord
100
AcDbBlockTableRecord
  2
*D17
340
0
  0
BLOCK_RECORD
  5
E97D
330
1
100
AcDbSymbolTableRecord
100
AcDbBlockTableRecord
  2
*D18
340
0
  0
ENDTAB
  0
ENDSEC
  0
SECTION
  2
BLOCKS
  0
BLOCK
  5
20
330
1F
100
AcDbEntity
  8
0
100
AcDbBlockBegin
  2
*Model_Space
 70
     0
 10
0.0
 20
0.0
 30
0.0
  3
*Model_Space
  1

  0
ENDBLK
  5
21
330
1F
100
AcDbEntity
  8
0
100
AcDbBlockEnd
  0
BLOCK
  5
1C
330
1B
100
AcDbEntity
 67
     1
  8
0
100
AcDbBlockBegin
  2
*Paper_Space
 70
     0
 10
0.0
 20
0.0
 30
0.0
  3
*Paper_Space
  1

  0
ENDBLK
  5
1D
330
1B
100
AcDbEntity
 67
     1
  8
0
100
AcDbBlockEnd
  0
BLOCK
  5
24
330
23
100
AcDbEntity
  8
0
100
AcDbBlockBegin
  2
*Paper_Space0
 70
     0
 10
0.0
 20
0.0
 30
0.0
  3
*Paper_Space0
  1

  0
ENDBLK
  5
25
330
23
100
AcDbEntity
  8
0
100
AcDbBlockEnd
  0
BLOCK
  5
2F
330
2B
100
AcDbEntity
  8
0
100
AcDbBlockBegin
  2
_OPEN30
 70
     0
 10
0.0
 20
0.0
 30
0.0
  3
_OPEN30
  1

  0
LINE
  5
2C
330
2B
100
AcDbEntity
  8
0
  6
ByBlock
 62
     0
100
AcDbLine
 10
-1.0
 20
0.26794919
 30
0.0
 11
0.0
 21
0.0
 31
0.0
  0
LINE
  5
2D
330
2B
100
AcDbEntity
  8
0
  6
ByBlock
 62
     0
100
AcDbLine
 10
0.0
 20
0.0
 30
0.0
 11
-1.0
 21
-0.26794919
 31
0.0
  0
LINE
  5
2E
330
2B
100
AcDbEntity
  8
0
  6
ByBlock
 62
     0
100
AcDbLine
 10
0.0
 20
0.0
 30
0.0
 11
-1.0
 21
0.0
 31
0.0
  0
ENDBLK
  5
30
330
2B
100
AcDbEntity
  8
0
100
AcDbBlockEnd
  0
BLOCK
  5
E8C1
330
E8B7
100
AcDbEntity
  8
0
100
AcDbBlockBegin
  2
*D2
 70
     1
 10
0.0
 20
0.0
 30
0.0
  3
*D2
  1

  0
LINE
  5
EFC6
330
E8B7
100
AcDbEntity
  8
D-STR-DIM
370
    -2
100
AcDbLine
 10
2600.000035692775
 20
1118.118518368475
 30
0.0
 11
2710.000035692776
 21
1118.118518368475
 31
0.0
  0
LINE
  5
EFC7
330
E8B7
100
AcDbEntity
  8
D-STR-DIM
370
    -2
100
AcDbLine
 10
2600.000035692775
 20
968.1185183684757
 30
0.0
 11
2710.000035692775
 21
968.1185183684757
 31
0.0
  0
LINE
  5
EFC8
330
E8B7
100
AcDbEntity
  8
D-STR-DIM
370
    -2
100
AcDbLine
 10
2690.000035692776
 20
1093.118518368475
 30
0.0
 11
2690.000035692776
 21
993.1185183684757
 31
0.0
  0
INSERT
  5
EFC9
330
E8B7
100
AcDbEntity
  8
D-STR-DIM
370
    -2
100
AcDbBlockReference
  2
_OPEN30
 10
2690.000035692776
 20
1118.118518368475
 30
0.0
 41
25.0
 42
25.0
 43
25.0
 50
90.0
  0
INSERT
  5
EFCA
330
E8B7
100
AcDbEntity
  8
D-STR-DIM
370
    -2
100
AcDbBlockReference
  2
_OPEN30
 10
2690.000035692776
 20
968.1185183684757
 30
0.0
 41
25.0
 42
25.0
 43
25.0
 50
270.0
  0
MTEXT
  5
EFCB
330
E8B7
100
AcDbEntity
  8
D-STR-DIM
100
AcDbMText
 10
2665.000035692775
 20
1043.118518368476
 30
0.0
 40
30.0
 41
0.0
 71
     5
 72
     1
  1
150
 11
0.0000000000000001
 21
1.0
 31
0.0
 73
     1
 44
1.0
  0
POINT
  5
EFCC
330
E8B7
100
AcDbEntity
  8
DEFPOINTS
 62
     0
100
AcDbPoint
 10
2590.000035692776
 20
1118.118518368475
 30
0.0
  0
POINT
  5
EFCD
330
E8B7
100
AcDbEntity
  8
DEFPOINTS
 62
     0
100
AcDbPoint
 10
2590.000035692776
 20
968.1185183684757
 30
0.0
  0
POINT
  5
EFCE
330
E8B7
100
AcDbEntity
  8
DEFPOINTS
 62
     0
100
AcDbPoint
 10
2690.000035692776
 20
968.1185183684757
 30
0.0
  0
ENDBLK
  5
E8C2
330
E8B7
100
AcDbEntity
  8
0
100
AcDbBlockEnd
  0
BLOCK
  5
E8CD
330
E8C3
100
AcDbEntity
  8
0
100
AcDbBlockBegin
  2
*D3
 70
     1
 10
0.0
 20
0.0
 30
0.0
  3
*D3
  1

  0
LINE
  5
EFA0
330
E8C3
100
AcDbEntity
  8
D-STR-DIM
370
    -2
100
AcDbLine
 10
2590.000035692776
 20
1328.117172996149
 30
0.0
 11
2590.000035692776
 21
1398.118418368474
 31
0.0
  0
LINE
  5
EFA1
330
E8C3
100
AcDbEntity
  8
D-STR-DIM
370
    -2
100
AcDbLine
 10
2439.999938062336
 20
1328.117172996149
 30
0.0
 11
2439.999938062336
 21
1398.118418368474
 31
0.0
  0
LINE
  5
EFA2
330
E8C3
100
AcDbEntity
  8
D-STR-DIM
370
    -2
100
AcDbLine
 10
2565.000035692776
 20
1378.118418368474
 30
0.0
 11
2464.999938062335
 21
1378.118418368474
 31
0.0
  0
INSERT
  5
EFA3
330
E8C3
100
AcDbEntity
  8
D-STR-DIM
370
    -2
100
AcDbBlockReference
  2
_OPEN30
 10
2590.000035692776
 20
1378.118418368474
 30
0.0
 41
25.0
 42
25.0
 43
25.0
  0
INSERT
  5
EFA4
330
E8C3
100
AcDbEntity
  8
D-STR-DIM
370
    -2
100
AcDbBlockReference
  2
_OPEN30
 10
2439.999938062336
 20
1378.118418368474
 30
0.0
 41
25.0
 42
25.0
 43
25.0
 50
180.0
  0
MTEXT
  5
EFA5
330
E8C3
100
AcDbEntity
  8
D-STR-DIM
100
AcDbMText
 10
2514.999986877556
 20
1403.118418368474
 30
0.0
 40
30.0
 41
0.0
 71
     5
 72
     1
  1
150
 73
     1
 44
1.0
  0
POINT
  5
EFA6
330
E8C3
100
AcDbEntity
  8
DEFPOINTS
 62
     0
100
AcDbPoint
 10
2590.000035692776
 20
1318.117172996149
 30
0.0
  0
POINT
  5
EFA7
330
E8C3
100
AcDbEntity
  8
DEFPOINTS
 62
     0
100
AcDbPoint
 10
2439.999938062336
 20
1318.117172996149
 30
0.0
  0
POINT
  5
EFA8
330
E8C3
100
AcDbEntity
  8
DEFPOINTS
 62
     0
100
AcDbPoint
 10
2439.999938062336
 20
1378.118418368474
 30
0.0
  0
ENDBLK
  5
E8CE
330
E8C3
100
AcDbEntity
  8
0
100
AcDbBlockEnd
  0
BLOCK
  5
E8DB
330
E8CF
100
AcDbEntity
  8
0
100
AcDbBlockBegin
  2
*D4
 70
     1
 10
0.0
 20
0.0
 30
0.0
  3
*D4
  1

  0
LINE
  5
EFB2
330
E8CF
100
AcDbEntity
  8
D-STR-DIM
370
    -2
100
AcDbLine
 10
2419.999938062336
 20
1328.117172996149
 30
0.0
 11
2419.999938062336
 21
1398.118418368474
 31
0.0
  0
LINE
  5
EFB3
330
E8CF
100
AcDbEntity
  8
D-STR-DIM
370
    -2
100
AcDbLine
 10
2439.999938062336
 20
1328.117172996149
 30
0.0
 11
2439.999938062336
 21
1398.118418368474
 31
0.0
  0
LINE
  5
EFB4
330
E8CF
100
AcDbEntity
  8
D-STR-DIM
370
    -2
100
AcDbLine
 10
2394.999938062335
 20
1378.118418368474
 30
0.0
 11
2369.999938062335
 21
1378.118418368474
 31
0.0
  0
LINE
  5
EFB5
330
E8CF
100
AcDbEntity
  8
D-STR-DIM
370
    -2
100
AcDbLine
 10
2464.999938062335
 20
1378.118418368474
 30
0.0
 11
2489.999938062336
 21
1378.118418368474
 31
0.0
  0
MTEXT
  5
EFB6
330
E8CF
100
AcDbEntity
  8
D-STR-DIM
100
AcDbMText
 10
2429.894314531066
 20
1421.302088347369
 30
0.0
 40
30.0
 41
0.0
 71
     5
 72
     1
  1
20
 73
     1
 44
1.0
  0
LINE
  5
EFB7
330
E8CF
100
AcDbEntity
  8
D-STR-DIM
370
    -2
100
AcDbLine
 10
2419.999938062336
 20
1378.118418368474
 30
0.0
 11
2439.999938062336
 21
1378.118418368474
 31
0.0
  0
INSERT
  5
EFB8
330
E8CF
100
AcDbEntity
  8
D-STR-DIM
370
    -2
100
AcDbBlockReference
  2
_OPEN30
 10
2419.999938062336
 20
1378.118418368474
 30
0.0
 41
25.0
 42
25.0
 43
25.0
  0
INSERT
  5
EFB9
330
E8CF
100
AcDbEntity
  8
D-STR-DIM
370
    -2
100
AcDbBlockReference
  2
_OPEN30
 10
2439.999938062336
 20
1378.118418368474
 30
0.0
 41
25.0
 42
25.0
 43
25.0
 50
180.0
  0
POINT
  5
EFBA
330
E8CF
100
AcDbEntity
  8
DEFPOINTS
 62
     0
100
AcDbPoint
 10
2419.999938062336
 20
1318.117172996149
 30
0.0
  0
POINT
  5
EFBB
330
E8CF
100
AcDbEntity
  8
DEFPOINTS
 62
     0
100
AcDbPoint
 10
2439.999938062336
 20
1318.117172996149
 30
0.0
  0
POINT
  5
EFBC
330
E8CF
100
AcDbEntity
  8
DEFPOINTS
 62
     0
100
AcDbPoint
 10
2439.999938062336
 20
1378.118418368474
 30
0.0
  0
ENDBLK
  5
E8DC
330
E8CF
100
AcDbEntity
  8
0
100
AcDbBlockEnd
  0
BLOCK
  5
E8E7
330
E8DD
100
AcDbEntity
  8
0
100
AcDbBlockBegin
  2
*D5
 70
     1
 10
0.0
 20
0.0
 30
0.0
  3
*D5
  1

  0
LINE
  5
EFA9
330
E8DD
100
AcDbEntity
  8
D-STR-DIM
370
    -2
100
AcDbLine
 10
2419.999938062336
 20
1328.117172996149
 30
0.0
 11
2419.999938062336
 21
1398.118418368474
 31
0.0
  0
LINE
  5
EFAA
330
E8DD
100
AcDbEntity
  8
D-STR-DIM
370
    -2
100
AcDbLine
 10
2239.999968657952
 20
1328.117172996149
 30
0.0
 11
2239.999968657952
 21
1398.118418368474
 31
0.0
  0
LINE
  5
EFAB
330
E8DD
100
AcDbEntity
  8
D-STR-DIM
370
    -2
100
AcDbLine
 10
2394.999938062335
 20
1378.118418368474
 30
0.0
 11
2264.999968657952
 21
1378.118418368474
 31
0.0
  0
INSERT
  5
EFAC
330
E8DD
100
AcDbEntity
  8
D-STR-DIM
370
    -2
100
AcDbBlockReference
  2
_OPEN30
 10
2419.999938062336
 20
1378.118418368474
 30
0.0
 41
25.0
 42
25.0
 43
25.0
  0
INSERT
  5
EFAD
330
E8DD
100
AcDbEntity
  8
D-STR-DIM
370
    -2
100
AcDbBlockReference
  2
_OPEN30
 10
2239.999968657952
 20
1378.118418368474
 30
0.0
 41
25.0
 42
25.0
 43
25.0
 50
180.0
  0
MTEXT
  5
EFAE
330
E8DD
100
AcDbEntity
  8
D-STR-DIM
100
AcDbMText
 10
2329.999953360144
 20
1403.118418368474
 30
0.0
 40
30.0
 41
0.0
 71
     5
 72
     1
  1
180
 73
     1
 44
1.0
  0
POINT
  5
EFAF
330
E8DD
100
AcDbEntity
  8
DEFPOINTS
 62
     0
100
AcDbPoint
 10
2419.999938062336
 20
1318.117172996149
 30
0.0
  0
POINT
  5
EFB0
330
E8DD
100
AcDbEntity
  8
DEFPOINTS
 62
     0
100
AcDbPoint
 10
2239.999968657952
 20
1318.117172996149
 30
0.0
  0
POINT
  5
EFB1
330
E8DD
100
AcDbEntity
  8
DEFPOINTS
 62
     0
100
AcDbPoint
 10
2239.999968657952
 20
1378.118418368474
 30
0.0
  0
ENDBLK
  5
E8E8
330
E8DD
100
AcDbEntity
  8
0
100
AcDbBlockEnd
  0
BLOCK
  5
E8F3
330
E8E9
100
AcDbEntity
  8
0
100
AcDbBlockBegin
  2
*D6
 70
     1
 10
0.0
 20
0.0
 30
0.0
  3
*D6
  1

  0
LINE
  5
EF68
330
E8E9
100
AcDbEntity
  8
D-STR-DIM
370
    -2
100
AcDbLine
 10
749.999938062333
 20
1328.117172996149
 30
0.0
 11
749.999938062333
 21
1398.118418368474
 31
0.0
  0
LINE
  5
EF69
330
E8E9
100
AcDbEntity
  8
D-STR-DIM
370
    -2
100
AcDbLine
 10
569.9999686579513
 20
1328.117172996149
 30
0.0
 11
569.9999686579513
 21
1398.118418368474
 31
0.0
  0
LINE
  5
EF6A
330
E8E9
100
AcDbEntity
  8
D-STR-DIM
370
    -2
100
AcDbLine
 10
724.999938062333
 20
1378.118418368474
 30
0.0
 11
594.9999686579513
 21
1378.118418368474
 31
0.0
  0
INSERT
  5
EF6B
330
E8E9
100
AcDbEntity
  8
D-STR-DIM
370
    -2
100
AcDbBlockReference
  2
_OPEN30
 10
749.999938062333
 20
1378.118418368474
 30
0.0
 41
25.0
 42
25.0
 43
25.0
  0
INSERT
  5
EF6C
330
E8E9
100
AcDbEntity
  8
D-STR-DIM
370
    -2
100
AcDbBlockReference
  2
_OPEN30
 10
569.9999686579513
 20
1378.118418368474
 30
0.0
 41
25.0
 42
25.0
 43
25.0
 50
180.0
  0
MTEXT
  5
EF6D
330
E8E9
100
AcDbEntity
  8
D-STR-DIM
100
AcDbMText
 10
659.9999533601422
 20
1403.118418368474
 30
0.0
 40
30.0
 41
0.0
 71
     5
 72
     1
  1
180
 73
     1
 44
1.0
  0
POINT
  5
EF6E
330
E8E9
100
AcDbEntity
  8
DEFPOINTS
 62
     0
100
AcDbPoint
 10
749.999938062333
 20
1318.117172996149
 30
0.0
  0
POINT
  5
EF6F
330
E8E9
100
AcDbEntity
  8
DEFPOINTS
 62
     0
100
AcDbPoint
 10
569.9999686579513
 20
1318.117172996149
 30
0.0
  0
POINT
  5
EF70
330
E8E9
100
AcDbEntity
  8
DEFPOINTS
 62
     0
100
AcDbPoint
 10
569.9999686579513
 20
1378.118418368474
 30
0.0
  0
ENDBLK
  5
E8F4
330
E8E9
100
AcDbEntity
  8
0
100
AcDbBlockEnd
  0
BLOCK
  5
E901
330
E8F5
100
AcDbEntity
  8
0
100
AcDbBlockBegin
  2
*D7
 70
     1
 10
0.0
 20
0.0
 30
0.0
  3
*D7
  1

  0
LINE
  5
EF5D
330
E8F5
100
AcDbEntity
  8
D-STR-DIM
370
    -2
100
AcDbLine
 10
569.9999686579513
 20
1328.117172996149
 30
0.0
 11
569.9999686579513
 21
1398.118418368474
 31
0.0
  0
LINE
  5
EF5E
330
E8F5
100
AcDbEntity
  8
D-STR-DIM
370
    -2
100
AcDbLine
 10
550.0001044075425
 20
1328.117172996149
 30
0.0
 11
550.0001044075425
 21
1398.118418368474
 31
0.0
  0
LINE
  5
EF5F
330
E8F5
100
AcDbEntity
  8
D-STR-DIM
370
    -2
100
AcDbLine
 10
594.9999686579513
 20
1378.118418368474
 30
0.0
 11
619.9999686579513
 21
1378.118418368474
 31
0.0
  0
LINE
  5
EF60
330
E8F5
100
AcDbEntity
  8
D-STR-DIM
370
    -2
100
AcDbLine
 10
525.0001044075425
 20
1378.118418368474
 30
0.0
 11
500.0001044075425
 21
1378.118418368474
 31
0.0
  0
MTEXT
  5
EF61
330
E8F5
100
AcDbEntity
  8
D-STR-DIM
100
AcDbMText
 10
560.1647185830961
 20
1422.958124337645
 30
0.0
 40
30.0
 41
0.0
 71
     5
 72
     1
  1
20
 73
     1
 44
1.0
  0
LINE
  5
EF62
330
E8F5
100
AcDbEntity
  8
D-STR-DIM
370
    -2
100
AcDbLine
 10
569.9999686579513
 20
1378.118418368474
 30
0.0
 11
550.0001044075425
 21
1378.118418368474
 31
0.0
  0
INSERT
  5
EF63
330
E8F5
100
AcDbEntity
  8
D-STR-DIM
370
    -2
100
AcDbBlockReference
  2
_OPEN30
 10
569.9999686579513
 20
1378.118418368474
 30
0.0
 41
25.0
 42
25.0
 43
25.0
 50
180.0
  0
INSERT
  5
EF64
330
E8F5
100
AcDbEntity
  8
D-STR-DIM
370
    -2
100
AcDbBlockReference
  2
_OPEN30
 10
550.0001044075425
 20
1378.118418368474
 30
0.0
 41
25.0
 42
25.0
 43
25.0
  0
POINT
  5
EF65
330
E8F5
100
AcDbEntity
  8
DEFPOINTS
 62
     0
100
AcDbPoint
 10
569.9999686579513
 20
1318.117172996149
 30
0.0
  0
POINT
  5
EF66
330
E8F5
100
AcDbEntity
  8
DEFPOINTS
 62
     0
100
AcDbPoint
 10
550.0001044075425
 20
1318.117172996149
 30
0.0
  0
POINT
  5
EF67
330
E8F5
100
AcDbEntity
  8
DEFPOINTS
 62
     0
100
AcDbPoint
 10
550.0001044075425
 20
1378.118418368474
 30
0.0
  0
ENDBLK
  5
E902
330
E8F5
100
AcDbEntity
  8
0
100
AcDbBlockEnd
  0
BLOCK
  5
E90D
330
E903
100
AcDbEntity
  8
0
100
AcDbBlockBegin
  2
*D8
 70
     1
 10
0.0
 20
0.0
 30
0.0
  3
*D8
  1

  0
LINE
  5
EF54
330
E903
100
AcDbEntity
  8
D-STR-DIM
370
    -2
100
AcDbLine
 10
900.0000356927749
 20
1328.117172996149
 30
0.0
 11
900.0000356927749
 21
1498.118418368474
 31
0.0
  0
LINE
  5
EF55
330
E903
100
AcDbEntity
  8
D-STR-DIM
370
    -2
100
AcDbLine
 10
400.0000067771006
 20
1328.117172996149
 30
0.0
 11
400.0000067771006
 21
1498.118418368474
 31
0.0
  0
LINE
  5
EF56
330
E903
100
AcDbEntity
  8
D-STR-DIM
370
    -2
100
AcDbLine
 10
875.0000356927749
 20
1478.118418368474
 30
0.0
 11
425.0000067771006
 21
1478.118418368474
 31
0.0
  0
INSERT
  5
EF57
330
E903
100
AcDbEntity
  8
D-STR-DIM
370
    -2
100
AcDbBlockReference
  2
_OPEN30
 10
900.0000356927749
 20
1478.118418368474
 30
0.0
 41
25.0
 42
25.0
 43
25.0
  0
INSERT
  5
EF58
330
E903
100
AcDbEntity
  8
D-STR-DIM
370
    -2
100
AcDbBlockReference
  2
_OPEN30
 10
400.0000067771006
 20
1478.118418368474
 30
0.0
 41
25.0
 42
25.0
 43
25.0
 50
180.0
  0
MTEXT
  5
EF59
330
E903
100
AcDbEntity
  8
D-STR-DIM
100
AcDbMText
 10
650.0000212349378
 20
1503.118418368474
 30
0.0
 40
30.0
 41
0.0
 71
     5
 72
     1
  1
500
 73
     1
 44
1.0
  0
POINT
  5
EF5A
330
E903
100
AcDbEntity
  8
DEFPOINTS
 62
     0
100
AcDbPoint
 10
900.0000356927749
 20
1318.117172996149
 30
0.0
  0
POINT
  5
EF5B
330
E903
100
AcDbEntity
  8
DEFPOINTS
 62
     0
100
AcDbPoint
 10
400.0000067771006
 20
1318.117172996149
 30
0.0
  0
POINT
  5
EF5C
330
E903
100
AcDbEntity
  8
DEFPOINTS
 62
     0
100
AcDbPoint
 10
400.0000067771006
 20
1478.118418368474
 30
0.0
  0
ENDBLK
  5
E90E
330
E903
100
AcDbEntity
  8
0
100
AcDbBlockEnd
  0
BLOCK
  5
E919
330
E90F
100
AcDbEntity
  8
0
100
AcDbBlockBegin
  2
*D9
 70
     1
 10
0.0
 20
0.0
 30
0.0
  3
*D9
  1

  0
LINE
  5
EF71
330
E90F
100
AcDbEntity
  8
D-STR-DIM
370
    -2
100
AcDbLine
 10
400.0000067771006
 20
1328.117172996149
 30
0.0
 11
400.0000067771006
 21
1398.118418368474
 31
0.0
  0
LINE
  5
EF72
330
E90F
100
AcDbEntity
  8
D-STR-DIM
370
    -2
100
AcDbLine
 10
550.0001044075425
 20
1328.117172996149
 30
0.0
 11
550.0001044075425
 21
1398.118418368474
 31
0.0
  0
LINE
  5
EF73
330
E90F
100
AcDbEntity
  8
D-STR-DIM
370
    -2
100
AcDbLine
 10
425.0000067771006
 20
1378.118418368474
 30
0.0
 11
525.0001044075425
 21
1378.118418368474
 31
0.0
  0
INSERT
  5
EF74
330
E90F
100
AcDbEntity
  8
D-STR-DIM
370
    -2
100
AcDbBlockReference
  2
_OPEN30
 10
400.0000067771006
 20
1378.118418368474
 30
0.0
 41
25.0
 42
25.0
 43
25.0
 50
180.0
  0
INSERT
  5
EF75
330
E90F
100
AcDbEntity
  8
D-STR-DIM
370
    -2
100
AcDbBlockReference
  2
_OPEN30
 10
550.0001044075425
 20
1378.118418368474
 30
0.0
 41
25.0
 42
25.0
 43
25.0
  0
MTEXT
  5
EF76
330
E90F
100
AcDbEntity
  8
D-STR-DIM
100
AcDbMText
 10
475.0000555923215
 20
1403.118418368474
 30
0.0
 40
30.0
 41
0.0
 71
     5
 72
     1
  1
150
 73
     1
 44
1.0
  0
POINT
  5
EF77
330
E90F
100
AcDbEntity
  8
DEFPOINTS
 62
     0
100
AcDbPoint
 10
400.0000067771006
 20
1318.117172996149
 30
0.0
  0
POINT
  5
EF78
330
E90F
100
AcDbEntity
  8
DEFPOINTS
 62
     0
100
AcDbPoint
 10
550.0001044075425
 20
1318.117172996149
 30
0.0
  0
POINT
  5
EF79
330
E90F
100
AcDbEntity
  8
DEFPOINTS
 62
     0
100
AcDbPoint
 10
550.0001044075425
 20
1378.118418368474
 30
0.0
  0
ENDBLK
  5
E91A
330
E90F
100
AcDbEntity
  8
0
100
AcDbBlockEnd
  0
BLOCK
  5
E925
330
E91B
100
AcDbEntity
  8
0
100
AcDbBlockBegin
  2
*D10
 70
     1
 10
0.0
 20
0.0
 30
0.0
  3
*D10
  1

  0
LINE
  5
EF97
330
E91B
100
AcDbEntity
  8
D-STR-DIM
370
    -2
100
AcDbLine
 10
2590.000035692776
 20
1328.117172996149
 30
0.0
 11
2590.000035692776
 21
1498.118418368474
 31
0.0
  0
LINE
  5
EF98
330
E91B
100
AcDbEntity
  8
D-STR-DIM
370
    -2
100
AcDbLine
 10
2070.000006777101
 20
1328.117172996149
 30
0.0
 11
2070.000006777101
 21
1498.118418368474
 31
0.0
  0
LINE
  5
EF99
330
E91B
100
AcDbEntity
  8
D-STR-DIM
370
    -2
100
AcDbLine
 10
2565.000035692776
 20
1478.118418368474
 30
0.0
 11
2095.000006777101
 21
1478.118418368474
 31
0.0
  0
INSERT
  5
EF9A
330
E91B
100
AcDbEntity
  8
D-STR-DIM
370
    -2
100
AcDbBlockReference
  2
_OPEN30
 10
2590.000035692776
 20
1478.118418368474
 30
0.0
 41
25.0
 42
25.0
 43
25.0
  0
INSERT
  5
EF9B
330
E91B
100
AcDbEntity
  8
D-STR-DIM
370
    -2
100
AcDbBlockReference
  2
_OPEN30
 10
2070.000006777101
 20
1478.118418368474
 30
0.0
 41
25.0
 42
25.0
 43
25.0
 50
180.0
  0
MTEXT
  5
EF9C
330
E91B
100
AcDbEntity
  8
D-STR-DIM
100
AcDbMText
 10
2330.000021234938
 20
1503.118418368474
 30
0.0
 40
30.0
 41
0.0
 71
     5
 72
     1
  1
520
 73
     1
 44
1.0
  0
POINT
  5
EF9D
330
E91B
100
AcDbEntity
  8
DEFPOINTS
 62
     0
100
AcDbPoint
 10
2590.000035692776
 20
1318.117172996149
 30
0.0
  0
POINT
  5
EF9E
330
E91B
100
AcDbEntity
  8
DEFPOINTS
 62
     0
100
AcDbPoint
 10
2070.000006777101
 20
1318.117172996149
 30
0.0
  0
POINT
  5
EF9F
330
E91B
100
AcDbEntity
  8
DEFPOINTS
 62
     0
100
AcDbPoint
 10
2070.000006777101
 20
1478.118418368474
 30
0.0
  0
ENDBLK
  5
E926
330
E91B
100
AcDbEntity
  8
0
100
AcDbBlockEnd
  0
BLOCK
  5
E933
330
E927
100
AcDbEntity
  8
0
100
AcDbBlockBegin
  2
*D11
 70
     1
 10
0.0
 20
0.0
 30
0.0
  3
*D11
  1

  0
LINE
  5
EF8C
330
E927
100
AcDbEntity
  8
D-STR-DIM
370
    -2
100
AcDbLine
 10
2239.999968657952
 20
1328.117172996149
 30
0.0
 11
2239.999968657952
 21
1398.118418368474
 31
0.0
  0
LINE
  5
EF8D
330
E927
100
AcDbEntity
  8
D-STR-DIM
370
    -2
100
AcDbLine
 10
2220.000104407541
 20
1328.117172996149
 30
0.0
 11
2220.000104407541
 21
1398.118418368474
 31
0.0
  0
LINE
  5
EF8E
330
E927
100
AcDbEntity
  8
D-STR-DIM
370
    -2
100
AcDbLine
 10
2264.999968657952
 20
1378.118418368474
 30
0.0
 11
2289.999968657952
 21
1378.118418368474
 31
0.0
  0
LINE
  5
EF8F
330
E927
100
AcDbEntity
  8
D-STR-DIM
370
    -2
100
AcDbLine
 10
2195.000104407542
 20
1378.118418368474
 30
0.0
 11
2170.000104407541
 21
1378.118418368474
 31
0.0
  0
MTEXT
  5
EF90
330
E927
100
AcDbEntity
  8
D-STR-DIM
100
AcDbMText
 10
2232.34994047879
 20
1421.267528557931
 30
0.0
 40
30.0
 41
0.0
 71
     5
 72
     1
  1
20
 73
     1
 44
1.0
  0
LINE
  5
EF91
330
E927
100
AcDbEntity
  8
D-STR-DIM
370
    -2
100
AcDbLine
 10
2239.999968657952
 20
1378.118418368474
 30
0.0
 11
2220.000104407541
 21
1378.118418368474
 31
0.0
  0
INSERT
  5
EF92
330
E927
100
AcDbEntity
  8
D-STR-DIM
370
    -2
100
AcDbBlockReference
  2
_OPEN30
 10
2239.999968657952
 20
1378.118418368474
 30
0.0
 41
25.0
 42
25.0
 43
25.0
 50
180.0
  0
INSERT
  5
EF93
330
E927
100
AcDbEntity
  8
D-STR-DIM
370
    -2
100
AcDbBlockReference
  2
_OPEN30
 10
2220.000104407541
 20
1378.118418368474
 30
0.0
 41
25.0
 42
25.0
 43
25.0
  0
POINT
  5
EF94
330
E927
100
AcDbEntity
  8
DEFPOINTS
 62
     0
100
AcDbPoint
 10
2239.999968657952
 20
1318.117172996149
 30
0.0
  0
POINT
  5
EF95
330
E927
100
AcDbEntity
  8
DEFPOINTS
 62
     0
100
AcDbPoint
 10
2220.000104407541
 20
1318.117172996149
 30
0.0
  0
POINT
  5
EF96
330
E927
100
AcDbEntity
  8
DEFPOINTS
 62
     0
100
AcDbPoint
 10
2220.000104407541
 20
1378.118418368474
 30
0.0
  0
ENDBLK
  5
E934
330
E927
100
AcDbEntity
  8
0
100
AcDbBlockEnd
  0
BLOCK
  5
E93F
330
E935
100
AcDbEntity
  8
0
100
AcDbBlockBegin
  2
*D12
 70
     1
 10
0.0
 20
0.0
 30
0.0
  3
*D12
  1

  0
LINE
  5
EF4B
330
E935
100
AcDbEntity
  8
D-STR-DIM
370
    -2
100
AcDbLine
 10
910.0000356927749
 20
1118.118518368475
 30
0.0
 11
1020.000035692774
 21
1118.118518368475
 31
0.0
  0
LINE
  5
EF4C
330
E935
100
AcDbEntity
  8
D-STR-DIM
370
    -2
100
AcDbLine
 10
910.0000356927749
 20
1318.117172996149
 30
0.0
 11
1020.000035692774
 21
1318.117172996149
 31
0.0
  0
LINE
  5
EF4D
330
E935
100
AcDbEntity
  8
D-STR-DIM
370
    -2
100
AcDbLine
 10
1000.000035692774
 20
1143.118518368475
 30
0.0
 11
1000.000035692774
 21
1293.117172996149
 31
0.0
  0
INSERT
  5
EF4E
330
E935
100
AcDbEntity
  8
D-STR-DIM
370
    -2
100
AcDbBlockReference
  2
_OPEN30
 10
1000.000035692774
 20
1118.118518368475
 30
0.0
 41
25.0
 42
25.0
 43
25.0
 50
270.0
  0
INSERT
  5
EF4F
330
E935
100
AcDbEntity
  8
D-STR-DIM
370
    -2
100
AcDbBlockReference
  2
_OPEN30
 10
1000.000035692774
 20
1318.117172996149
 30
0.0
 41
25.0
 42
25.0
 43
25.0
 50
90.0
  0
MTEXT
  5
EF50
330
E935
100
AcDbEntity
  8
D-STR-DIM
100
AcDbMText
 10
975.0000356927746
 20
1218.117845682312
 30
0.0
 40
30.0
 41
0.0
 71
     5
 72
     1
  1
200
 11
0.0000000000000001
 21
1.0
 31
0.0
 73
     1
 44
1.0
  0
POINT
  5
EF51
330
E935
100
AcDbEntity
  8
DEFPOINTS
 62
     0
100
AcDbPoint
 10
900.0000356927749
 20
1118.118518368475
 30
0.0
  0
POINT
  5
EF52
330
E935
100
AcDbEntity
  8
DEFPOINTS
 62
     0
100
AcDbPoint
 10
900.0000356927749
 20
1318.117172996149
 30
0.0
  0
POINT
  5
EF53
330
E935
100
AcDbEntity
  8
DEFPOINTS
 62
     0
100
AcDbPoint
 10
1000.000035692774
 20
1318.117172996149
 30
0.0
  0
ENDBLK
  5
E940
330
E935
100
AcDbEntity
  8
0
100
AcDbBlockEnd
  0
BLOCK
  5
E94B
330
E941
100
AcDbEntity
  8
0
100
AcDbBlockBegin
  2
*D13
 70
     1
 10
0.0
 20
0.0
 30
0.0
  3
*D13
  1

  0
LINE
  5
EF42
330
E941
100
AcDbEntity
  8
D-STR-DIM
370
    -2
100
AcDbLine
 10
910.0000356927749
 20
968.1185183684737
 30
0.0
 11
1020.000035692774
 21
968.1185183684737
 31
0.0
  0
LINE
  5
EF43
330
E941
100
AcDbEntity
  8
D-STR-DIM
370
    -2
100
AcDbLine
 10
910.0000356927749
 20
868.1185183684737
 30
0.0
 11
1020.000035692774
 21
868.1185183684737
 31
0.0
  0
LINE
  5
EF44
330
E941
100
AcDbEntity
  8
D-STR-DIM
370
    -2
100
AcDbLine
 10
1000.000035692774
 20
943.1185183684737
 30
0.0
 11
1000.000035692774
 21
893.1185183684737
 31
0.0
  0
INSERT
  5
EF45
330
E941
100
AcDbEntity
  8
D-STR-DIM
370
    -2
100
AcDbBlockReference
  2
_OPEN30
 10
1000.000035692774
 20
968.1185183684737
 30
0.0
 41
25.0
 42
25.0
 43
25.0
 50
90.0
  0
INSERT
  5
EF46
330
E941
100
AcDbEntity
  8
D-STR-DIM
370
    -2
100
AcDbBlockReference
  2
_OPEN30
 10
1000.000035692774
 20
868.1185183684737
 30
0.0
 41
25.0
 42
25.0
 43
25.0
 50
270.0
  0
MTEXT
  5
EF47
330
E941
100
AcDbEntity
  8
D-STR-DIM
100
AcDbMText
 10
975.0000356927746
 20
918.1185183684739
 30
0.0
 40
30.0
 41
0.0
 71
     5
 72
     1
  1
100
 11
0.0000000000000001
 21
1.0
 31
0.0
 73
     1
 44
1.0
  0
POINT
  5
EF48
330
E941
100
AcDbEntity
  8
DEFPOINTS
 62
     0
100
AcDbPoint
 10
900.0000356927749
 20
968.1185183684737
 30
0.0
  0
POINT
  5
EF49
330
E941
100
AcDbEntity
  8
DEFPOINTS
 62
     0
100
AcDbPoint
 10
900.0000356927749
 20
868.1185183684737
 30
0.0
  0
POINT
  5
EF4A
330
E941
100
AcDbEntity
  8
DEFPOINTS
 62
     0
100
AcDbPoint
 10
1000.000035692774
 20
868.1185183684737
 30
0.0
  0
ENDBLK
  5
E94C
330
E941
100
AcDbEntity
  8
0
100
AcDbBlockEnd
  0
BLOCK
  5
E957
330
E94D
100
AcDbEntity
  8
0
100
AcDbBlockBegin
  2
*D14
 70
     1
 10
0.0
 20
0.0
 30
0.0
  3
*D14
  1

  0
LINE
  5
EF39
330
E94D
100
AcDbEntity
  8
D-STR-DIM
370
    -2
100
AcDbLine
 10
910.0000356927749
 20
1118.118518368475
 30
0.0
 11
1020.000035692774
 21
1118.118518368475
 31
0.0
  0
LINE
  5
EF3A
330
E94D
100
AcDbEntity
  8
D-STR-DIM
370
    -2
100
AcDbLine
 10
910.0000356927749
 20
968.1185183684737
 30
0.0
 11
1020.000035692774
 21
968.1185183684737
 31
0.0
  0
LINE
  5
EF3B
330
E94D
100
AcDbEntity
  8
D-STR-DIM
370
    -2
100
AcDbLine
 10
1000.000035692774
 20
1093.118518368475
 30
0.0
 11
1000.000035692774
 21
993.1185183684737
 31
0.0
  0
INSERT
  5
EF3C
330
E94D
100
AcDbEntity
  8
D-STR-DIM
370
    -2
100
AcDbBlockReference
  2
_OPEN30
 10
1000.000035692774
 20
1118.118518368475
 30
0.0
 41
25.0
 42
25.0
 43
25.0
 50
90.0
  0
INSERT
  5
EF3D
330
E94D
100
AcDbEntity
  8
D-STR-DIM
370
    -2
100
AcDbBlockReference
  2
_OPEN30
 10
1000.000035692774
 20
968.1185183684737
 30
0.0
 41
25.0
 42
25.0
 43
25.0
 50
270.0
  0
MTEXT
  5
EF3E
330
E94D
100
AcDbEntity
  8
D-STR-DIM
100
AcDbMText
 10
975.0000356927747
 20
1043.118518368475
 30
0.0
 40
30.0
 41
0.0
 71
     5
 72
     1
  1
150
 11
0.0000000000000001
 21
1.0
 31
0.0
 73
     1
 44
1.0
  0
POINT
  5
EF3F
330
E94D
100
AcDbEntity
  8
DEFPOINTS
 62
     0
100
AcDbPoint
 10
900.0000356927749
 20
1118.118518368475
 30
0.0
  0
POINT
  5
EF40
330
E94D
100
AcDbEntity
  8
DEFPOINTS
 62
     0
100
AcDbPoint
 10
900.0000356927749
 20
968.1185183684737
 30
0.0
  0
POINT
  5
EF41
330
E94D
100
AcDbEntity
  8
DEFPOINTS
 62
     0
100
AcDbPoint
 10
1000.000035692774
 20
968.1185183684737
 30
0.0
  0
ENDBLK
  5
E958
330
E94D
100
AcDbEntity
  8
0
100
AcDbBlockEnd
  0
BLOCK
  5
E963
330
E959
100
AcDbEntity
  8
0
100
AcDbBlockBegin
  2
*D15
 70
     1
 10
0.0
 20
0.0
 30
0.0
  3
*D15
  1

  0
LINE
  5
EF7A
330
E959
100
AcDbEntity
  8
D-STR-DIM
370
    -2
100
AcDbLine
 10
900.0000356927749
 20
1328.117172996149
 30
0.0
 11
900.0000356927749
 21
1398.118418368474
 31
0.0
  0
LINE
  5
EF7B
330
E959
100
AcDbEntity
  8
D-STR-DIM
370
    -2
100
AcDbLine
 10
749.999938062333
 20
1328.117172996149
 30
0.0
 11
749.999938062333
 21
1398.118418368474
 31
0.0
  0
LINE
  5
EF7C
330
E959
100
AcDbEntity
  8
D-STR-DIM
370
    -2
100
AcDbLine
 10
875.0000356927749
 20
1378.118418368474
 30
0.0
 11
774.999938062333
 21
1378.118418368474
 31
0.0
  0
INSERT
  5
EF7D
330
E959
100
AcDbEntity
  8
D-STR-DIM
370
    -2
100
AcDbBlockReference
  2
_OPEN30
 10
900.0000356927749
 20
1378.118418368474
 30
0.0
 41
25.0
 42
25.0
 43
25.0
  0
INSERT
  5
EF7E
330
E959
100
AcDbEntity
  8
D-STR-DIM
370
    -2
100
AcDbBlockReference
  2
_OPEN30
 10
749.999938062333
 20
1378.118418368474
 30
0.0
 41
25.0
 42
25.0
 43
25.0
 50
180.0
  0
MTEXT
  5
EF7F
330
E959
100
AcDbEntity
  8
D-STR-DIM
100
AcDbMText
 10
824.9999868775539
 20
1403.118418368474
 30
0.0
 40
30.0
 41
0.0
 71
     5
 72
     1
  1
150
 73
     1
 44
1.0
  0
POINT
  5
EF80
330
E959
100
AcDbEntity
  8
DEFPOINTS
 62
     0
100
AcDbPoint
 10
900.0000356927749
 20
1318.117172996149
 30
0.0
  0
POINT
  5
EF81
330
E959
100
AcDbEntity
  8
DEFPOINTS
 62
     0
100
AcDbPoint
 10
749.999938062333
 20
1318.117172996149
 30
0.0
  0
POINT
  5
EF82
330
E959
100
AcDbEntity
  8
DEFPOINTS
 62
     0
100
AcDbPoint
 10
749.999938062333
 20
1378.118418368474
 30
0.0
  0
ENDBLK
  5
E964
330
E959
100
AcDbEntity
  8
0
100
AcDbBlockEnd
  0
BLOCK
  5
E96F
330
E965
100
AcDbEntity
  8
0
100
AcDbBlockBegin
  2
*D16
 70
     1
 10
0.0
 20
0.0
 30
0.0
  3
*D16
  1

  0
LINE
  5
EF83
330
E965
100
AcDbEntity
  8
D-STR-DIM
370
    -2
100
AcDbLine
 10
2070.000006777101
 20
1328.117172996149
 30
0.0
 11
2070.000006777101
 21
1398.118418368474
 31
0.0
  0
LINE
  5
EF84
330
E965
100
AcDbEntity
  8
D-STR-DIM
370
    -2
100
AcDbLine
 10
2220.000104407541
 20
1328.117172996149
 30
0.0
 11
2220.000104407541
 21
1398.118418368474
 31
0.0
  0
LINE
  5
EF85
330
E965
100
AcDbEntity
  8
D-STR-DIM
370
    -2
100
AcDbLine
 10
2095.000006777101
 20
1378.118418368474
 30
0.0
 11
2195.000104407542
 21
1378.118418368474
 31
0.0
  0
INSERT
  5
EF86
330
E965
100
AcDbEntity
  8
D-STR-DIM
370
    -2
100
AcDbBlockReference
  2
_OPEN30
 10
2070.000006777101
 20
1378.118418368474
 30
0.0
 41
25.0
 42
25.0
 43
25.0
 50
180.0
  0
INSERT
  5
EF87
330
E965
100
AcDbEntity
  8
D-STR-DIM
370
    -2
100
AcDbBlockReference
  2
_OPEN30
 10
2220.000104407541
 20
1378.118418368474
 30
0.0
 41
25.0
 42
25.0
 43
25.0
  0
MTEXT
  5
EF88
330
E965
100
AcDbEntity
  8
D-STR-DIM
100
AcDbMText
 10
2145.000055592321
 20
1403.118418368474
 30
0.0
 40
30.0
 41
0.0
 71
     5
 72
     1
  1
150
 73
     1
 44
1.0
  0
POINT
  5
EF89
330
E965
100
AcDbEntity
  8
DEFPOINTS
 62
     0
100
AcDbPoint
 10
2070.000006777101
 20
1318.117172996149
 30
0.0
  0
POINT
  5
EF8A
330
E965
100
AcDbEntity
  8
DEFPOINTS
 62
     0
100
AcDbPoint
 10
2220.000104407541
 20
1318.117172996149
 30
0.0
  0
POINT
  5
EF8B
330
E965
100
AcDbEntity
  8
DEFPOINTS
 62
     0
100
AcDbPoint
 10
2220.000104407541
 20
1378.118418368474
 30
0.0
  0
ENDBLK
  5
E970
330
E965
100
AcDbEntity
  8
0
100
AcDbBlockEnd
  0
BLOCK
  5
E97B
330
E971
100
AcDbEntity
  8
0
100
AcDbBlockBegin
  2
*D17
 70
     1
 10
0.0
 20
0.0
 30
0.0
  3
*D17
  1

  0
LINE
  5
EFBD
330
E971
100
AcDbEntity
  8
D-STR-DIM
370
    -2
100
AcDbLine
 10
2600.000035692775
 20
1118.118518368475
 30
0.0
 11
2710.000035692775
 21
1118.118518368475
 31
0.0
  0
LINE
  5
EFBE
330
E971
100
AcDbEntity
  8
D-STR-DIM
370
    -2
100
AcDbLine
 10
2600.000035692775
 20
1318.117172996149
 30
0.0
 11
2710.000035692775
 21
1318.117172996149
 31
0.0
  0
LINE
  5
EFBF
330
E971
100
AcDbEntity
  8
D-STR-DIM
370
    -2
100
AcDbLine
 10
2690.000035692776
 20
1143.118518368475
 30
0.0
 11
2690.000035692776
 21
1293.117172996149
 31
0.0
  0
INSERT
  5
EFC0
330
E971
100
AcDbEntity
  8
D-STR-DIM
370
    -2
100
AcDbBlockReference
  2
_OPEN30
 10
2690.000035692776
 20
1118.118518368475
 30
0.0
 41
25.0
 42
25.0
 43
25.0
 50
270.0
  0
INSERT
  5
EFC1
330
E971
100
AcDbEntity
  8
D-STR-DIM
370
    -2
100
AcDbBlockReference
  2
_OPEN30
 10
2690.000035692776
 20
1318.117172996149
 30
0.0
 41
25.0
 42
25.0
 43
25.0
 50
90.0
  0
MTEXT
  5
EFC2
330
E971
100
AcDbEntity
  8
D-STR-DIM
100
AcDbMText
 10
2665.000035692775
 20
1218.117845682313
 30
0.0
 40
30.0
 41
0.0
 71
     5
 72
     1
  1
200
 11
0.0000000000000001
 21
1.0
 31
0.0
 73
     1
 44
1.0
  0
POINT
  5
EFC3
330
E971
100
AcDbEntity
  8
DEFPOINTS
 62
     0
100
AcDbPoint
 10
2590.000035692776
 20
1118.118518368475
 30
0.0
  0
POINT
  5
EFC4
330
E971
100
AcDbEntity
  8
DEFPOINTS
 62
     0
100
AcDbPoint
 10
2590.000035692776
 20
1318.117172996149
 30
0.0
  0
POINT
  5
EFC5
330
E971
100
AcDbEntity
  8
DEFPOINTS
 62
     0
100
AcDbPoint
 10
2690.000035692776
 20
1318.117172996149
 30
0.0
  0
ENDBLK
  5
E97C
330
E971
100
AcDbEntity
  8
0
100
AcDbBlockEnd
  0
BLOCK
  5
E987
330
E97D
100
AcDbEntity
  8
0
100
AcDbBlockBegin
  2
*D18
 70
     1
 10
0.0
 20
0.0
 30
0.0
  3
*D18
  1

  0
LINE
  5
EFCF
330
E97D
100
AcDbEntity
  8
D-STR-DIM
370
    -2
100
AcDbLine
 10
2600.000035692775
 20
968.1185183684757
 30
0.0
 11
2710.000035692775
 21
968.1185183684757
 31
0.0
  0
LINE
  5
EFD0
330
E97D
100
AcDbEntity
  8
D-STR-DIM
370
    -2
100
AcDbLine
 10
2600.000035692775
 20
868.1185183684737
 30
0.0
 11
2710.000035692775
 21
868.1185183684737
 31
0.0
  0
LINE
  5
EFD1
330
E97D
100
AcDbEntity
  8
D-STR-DIM
370
    -2
100
AcDbLine
 10
2690.000035692776
 20
943.1185183684757
 30
0.0
 11
2690.000035692776
 21
893.1185183684737
 31
0.0
  0
INSERT
  5
EFD2
330
E97D
100
AcDbEntity
  8
D-STR-DIM
370
    -2
100
AcDbBlockReference
  2
_OPEN30
 10
2690.000035692776
 20
968.1185183684757
 30
0.0
 41
25.0
 42
25.0
 43
25.0
 50
90.0
  0
INSERT
  5
EFD3
330
E97D
100
AcDbEntity
  8
D-STR-DIM
370
    -2
100
AcDbBlockReference
  2
_OPEN30
 10
2690.000035692776
 20
868.1185183684737
 30
0.0
 41
25.0
 42
25.0
 43
25.0
 50
270.0
  0
MTEXT
  5
EFD4
330
E97D
100
AcDbEntity
  8
D-STR-DIM
100
AcDbMText
 10
2665.000035692775
 20
918.1185183684752
 30
0.0
 40
30.0
 41
0.0
 71
     5
 72
     1
  1
100
 11
0.0000000000000001
 21
1.0
 31
0.0
 73
     1
 44
1.0
  0
POINT
  5
EFD5
330
E97D
100
AcDbEntity
  8
DEFPOINTS
 62
     0
100
AcDbPoint
 10
2590.000035692776
 20
968.1185183684757
 30
0.0
  0
POINT
  5
EFD6
330
E97D
100
AcDbEntity
  8
DEFPOINTS
 62
     0
100
AcDbPoint
 10
2590.000035692776
 20
868.1185183684737
 30
0.0
  0
POINT
  5
EFD7
330
E97D
100
AcDbEntity
  8
DEFPOINTS
 62
     0
100
AcDbPoint
 10
2690.000035692776
 20
868.1185183684737
 30
0.0
  0
ENDBLK
  5
E988
330
E97D
100
AcDbEntity
  8
0
100
AcDbBlockEnd
  0
ENDSEC
  0
SECTION
  2
ENTITIES
  0
DIMENSION
  5
E6CC
330
1F
100
AcDbEntity
  8
D-STR-DIM
 48
10.0
100
AcDbDimension
  2
*D6
 10
569.9999686579513
 20
1378.118418368474
 30
0.0
 11
659.9999533601422
 21
1403.118418368474
 31
0.0
 70
    32
 71
     5
 42
179.9999694043817
  3
S10
100
AcDbAlignedDimension
 13
749.999938062333
 23
1318.117172996149
 33
0.0
 14
569.9999686579513
 24
1318.117172996149
 34
0.0
100
AcDbRotatedDimension
  0
DIMENSION
  5
E6CD
330
1F
100
AcDbEntity
  8
D-STR-DIM
 48
10.0
100
AcDbDimension
  2
*D7
 10
550.0001044075425
 20
1378.118418368474
 30
0.0
 11
560.1647185830961
 21
1422.958124337645
 31
0.0
 70
   160
 71
     5
 42
19.99986425040879
  3
S10
100
AcDbAlignedDimension
 13
569.9999686579513
 23
1318.117172996149
 33
0.0
 14
550.0001044075425
 24
1318.117172996149
 34
0.0
 50
180.0
100
AcDbRotatedDimension
1001
ACAD
1000
DSTYLE
1002
{
1070
   279
1070
     2
1002
}
  0
DIMENSION
  5
E6CE
330
1F
100
AcDbEntity
  8
D-STR-DIM
 48
10.0
100
AcDbDimension
  2
*D8
 10
400.0000067771006
 20
1478.118418368474
 30
0.0
 11
650.0000212349378
 21
1503.118418368474
 31
0.0
 70
    32
 71
     5
 42
500.0000289156742
  3
S10
100
AcDbAlignedDimension
 13
900.0000356927749
 23
1318.117172996149
 33
0.0
 14
400.0000067771006
 24
1318.117172996149
 34
0.0
100
AcDbRotatedDimension
  0
LINE
  5
E6D0
330
1F
100
AcDbEntity
  8
D-STR
 62
     0
 48
10.0
100
AcDbLine
 10
399.9999643072251
 20
968.1185183684737
 30
0.0
 11
900.0000356927749
 21
968.1185183684737
 31
0.0
  0
LINE
  5
E6D1
330
1F
100
AcDbEntity
  8
D-STR
 62
     0
 48
10.0
100
AcDbLine
 10
399.9999643072251
 20
868.1185183684757
 30
0.0
 11
900.0000356927749
 21
868.1185183684737
 31
0.0
  0
LINE
  5
E6D2
330
1F
100
AcDbEntity
  8
D-STR
 62
     0
 48
10.0
100
AcDbLine
 10
399.9999643072251
 20
1118.118518368475
 30
0.0
 11
900.0000356927749
 21
1118.118518368475
 31
0.0
  0
LEADER
  5
E6D4
330
1F
100
AcDbEntity
  8
D-STR-DIM
 48
10.0
100
AcDbLeader
  3
S10
 76
     3
 10
645.2492299299656
 20
1171.669511116702
 30
0.0
 10
341.3246247181859
 20
1171.669511116702
 30
0.0
 10
98.65180405492992
 20
1171.669511116702
 30
0.0
211
-1.0
221
0.0
231
0.0
210
0.0
220
0.0
230
-1.0
  0
LINE
  5
E6D5
330
1F
100
AcDbEntity
  8
D-STR
100
AcDbLine
 10
597.149636234938
 20
1318.117172996149
 30
0.0
 11
750.0000162349379
 21
1318.117172996149
 31
0.0
  0
LINE
  5
E6D7
330
1F
100
AcDbEntity
  8
D-STR-STR1
  6
ByBlock
 62
     6
100
AcDbLine
 10
707.4996862349371
 20
1018.117372996148
 30
0.0
 11
587.4996662349376
 21
1018.117372996148
 31
0.0
  0
LINE
  5
E6D8
330
1F
100
AcDbEntity
  8
D-STR-STR1
  6
ByBlock
 62
     6
100
AcDbLine
 10
707.4996862349371
 20
1008.117272996149
 30
0.0
 11
587.4996662349376
 21
1008.117272996149
 31
0.0
  0
LINE
  5
E6D9
330
1F
100
AcDbEntity
  8
D-STR
100
AcDbLine
 10
750.0000162349379
 20
1068.117272996149
 30
0.0
 11
544.9999562349375
 21
1068.117272996149
 31
0.0
  0
LINE
  5
E6E5
330
1F
100
AcDbEntity
  8
D-STR
100
AcDbLine
 10
567.2985562349376
 20
1291.102372996149
 30
0.0
 11
544.9999562349375
 21
1068.117272996149
 31
0.0
  0
MTEXT
  5
E6E6
330
1F
100
AcDbEntity
  8
D-STR-DIM
 48
10.0
100
AcDbMText
 10
240.4558794390641
 20
1189.169511116702
 30
0.0
 40
25.0
 41
0.0
 71
     5
 72
     1
  1
歩車道境界ブロック
 73
     1
 44
1.0
  0
MTEXT
  5
E6E7
330
1F
100
AcDbEntity
  8
D-STR-DIM
 48
10.0
100
AcDbMText
 10
223.2166920214976
 20
951.0765598423276
 30
0.0
 40
25.0
 41
0.0
 71
     5
 72
     1
  1
後打コンクリート
 73
     1
 44
1.0
  0
LEADER
  5
E6E8
330
1F
100
AcDbEntity
  8
D-STR-DIM
 48
10.0
100
AcDbLeader
  3
S10
 76
     3
 10
456.6147239207521
 20
1048.866659044893
 30
0.0
 10
341.3246247181859
 20
933.5765598423277
 30
0.0
 10
98.65180405492992
 20
933.5765598423277
 30
0.0
211
-1.0
221
0.0
231
0.0
210
0.0
220
0.0
230
-1.0
  0
LINE
  5
E6E9
330
1F
100
AcDbEntity
  8
D-STR
 62
     0
 48
10.0
100
AcDbLine
 10
399.9999643072251
 20
868.1185183684757
 30
0.0
 11
399.9999643072251
 21
1118.118518368475
 31
0.0
  0
LEADER
  5
E6EA
330
1F
100
AcDbEntity
  8
D-STR-DIM
 48
10.0
100
AcDbLeader
  3
S10
 76
     3
 10
456.6147239207521
 20
914.1846468084931
 30
0.0
 10
341.3246247181859
 20
798.8945476059271
 30
0.0
 10
165.8948422242274
 20
798.8945476059271
 30
0.0
211
-1.0
221
0.0
231
0.0
210
0.0
220
0.0
230
-1.0
  0
MTEXT
  5
E6EB
330
1F
100
AcDbEntity
  8
D-STR-DIM
 48
10.0
100
AcDbMText
 10
251.4915276078854
 20
783.5011789316231
 30
0.0
 40
25.0
 41
0.0
 71
     5
 72
     1
  1
RC-40
 73
     1
 44
1.0
  0
MTEXT
  5
E6EC
330
1F
100
AcDbEntity
  8
D-STR-DIM
 48
10.0
100
AcDbMText
 10
223.2166920214976
 20
918.1831911680237
 30
0.0
 40
25.0
 41
0.0
 71
     5
 72
     1
  1
18-8-25BB
 73
     1
 44
1.0
  0
MTEXT
  5
E6ED
330
1F
100
AcDbEntity
  8
D-STR-DIM
 48
10.0
100
AcDbMText
 10
251.4915276078854
 20
816.394547605927
 30
0.0
 40
25.0
 41
0.0
 71
     5
 72
     1
  1
基礎砕石
 73
     1
 44
1.0
  0
MTEXT
  5
E6EE
330
1F
100
AcDbEntity
  8
D-STR-DIM
 48
10.0
100
AcDbMText
 10
223.2166920214976
 20
1156.276142442399
 30
0.0
 40
25.0
 41
0.0
 71
     5
 72
     1
  1
サンＫクリア工法
 73
     1
 44
1.0
  0
LINE
  5
E6EF
330
1F
100
AcDbEntity
  8
D-STR-STR1
  6
ByBlock
 62
     6
100
AcDbLine
 10
571.5000662349366
 20
1049.118502368473
 30
0.0
 11
572.1000562349372
 21
1048.118512368473
 31
0.0
  0
LINE
  5
E6F0
330
1F
100
AcDbEntity
  8
D-STR-STR1
  6
ByBlock
 62
     6
100
AcDbLine
 10
572.1000562349372
 20
1048.118512368473
 30
0.0
 11
582.9000562349365
 21
1048.118512368473
 31
0.0
  0
LINE
  5
E6F1
330
1F
100
AcDbEntity
  8
D-STR-STR1
  6
ByBlock
 62
     6
100
AcDbLine
 10
582.9000562349365
 20
1048.118512368473
 30
0.0
 11
583.5000562349368
 21
1049.118502368473
 31
0.0
  0
LINE
  5
E6F2
330
1F
100
AcDbEntity
  8
D-STR-STR1
  6
ByBlock
 62
     6
100
AcDbLine
 10
571.5000662349366
 20
1049.118502368473
 30
0.0
 11
583.5000562349368
 21
1049.118502368473
 31
0.0
  0
LINE
  5
E6F3
330
1F
100
AcDbEntity
  8
D-STR-STR1
  6
ByBlock
 62
     6
100
AcDbLine
 10
571.5000662349366
 20
1068.117272996149
 30
0.0
 11
571.5000662349366
 21
1049.118502368473
 31
0.0
  0
LINE
  5
E6F4
330
1F
100
AcDbEntity
  8
D-STR-STR1
  6
ByBlock
 62
     6
100
AcDbLine
 10
583.5000562349368
 20
1068.117272996149
 30
0.0
 11
583.5000562349368
 21
1049.118502368473
 31
0.0
  0
LINE
  5
E6F5
330
1F
100
AcDbEntity
  8
D-STR-STR1
  6
ByBlock
 62
     6
100
AcDbLine
 10
582.500046234939
 20
1068.117272996149
 30
0.0
 11
582.5000462349371
 21
1049.118502368473
 31
0.0
  0
LINE
  5
E6F6
330
1F
100
AcDbEntity
  8
D-STR-STR1
  6
ByBlock
 62
     6
100
AcDbLine
 10
572.5000662349348
 20
1068.117272996149
 30
0.0
 11
572.5000662349366
 21
1049.118502368473
 31
0.0
  0
LINE
  5
E6F7
330
1F
100
AcDbEntity
  8
D-STR-STR1
  6
ByBlock
 62
     6
100
AcDbLine
 10
582.5000462349371
 20
997.1185223684733
 30
0.0
 11
582.5000462349371
 21
969.1185123684736
 31
0.0
  0
LINE
  5
E6F8
330
1F
100
AcDbEntity
  8
D-STR-STR1
  6
ByBlock
 62
     6
100
AcDbLine
 10
583.5000562349368
 20
997.1185223684733
 30
0.0
 11
583.5000562349368
 21
969.1185123684736
 31
0.0
  0
LINE
  5
E6F9
330
1F
100
AcDbEntity
  8
D-STR-STR1
  6
ByBlock
 62
     6
100
AcDbLine
 10
572.5000662349366
 20
997.1185223684733
 30
0.0
 11
572.5000662349366
 21
969.1185123684736
 31
0.0
  0
LINE
  5
E6FA
330
1F
100
AcDbEntity
  8
D-STR-STR1
  6
ByBlock
 62
     6
100
AcDbLine
 10
571.5000662349366
 20
997.1185223684733
 30
0.0
 11
571.5000662349366
 21
969.1185123684736
 31
0.0
  0
LINE
  5
E6FB
330
1F
100
AcDbEntity
  8
D-STR-STR1
 62
     4
100
AcDbLine
 10
569.8000462349364
 20
978.1185293684739
 30
0.0
 11
585.2000662349373
 21
978.1185293684739
 31
0.0
  0
ARC
  5
E6FC
330
1F
100
AcDbEntity
  8
D-STR-STR1
 62
     4
100
AcDbCircle
 10
585.2000662349373
 20
974.9735383684747
 30
0.0
 40
3.144991399999999
100
AcDbArc
 50
43.00286999999051
 51
136.9972839999616
  0
LINE
  5
E6FD
330
1F
100
AcDbEntity
  8
D-STR-STR1
 62
     4
100
AcDbLine
 10
587.5000362349374
 20
977.1185193684742
 30
0.0
 11
587.5000362349374
 21
968.1185143684743
 31
0.0
  0
LINE
  5
E6FE
330
1F
100
AcDbEntity
  8
D-STR-STR1
 62
     4
100
AcDbLine
 10
582.9000562349365
 20
977.1185263684747
 30
0.0
 11
582.9000562349365
 21
968.1185143684743
 31
0.0
  0
ARC
  5
E6FF
330
1F
100
AcDbEntity
  8
D-STR-STR1
  6
ByBlock
 62
     6
100
AcDbCircle
 10
577.5000562349369
 20
986.6185383684751
 30
0.0
 40
18.50002
100
AcDbArc
 50
251.0753999999773
 51
288.9246100000221
  0
LINE
  5
E700
330
1F
100
AcDbEntity
  8
D-STR-STR1
 62
     4
100
AcDbLine
 10
572.1000562349372
 20
977.1185263684747
 30
0.0
 11
572.1000562349372
 21
968.1185143684743
 31
0.0
  0
ARC
  5
E701
330
1F
100
AcDbEntity
  8
D-STR-STR1
 62
     4
100
AcDbCircle
 10
569.8000462349364
 20
974.9735383684747
 30
0.0
 40
3.144991399999999
100
AcDbArc
 50
43.00271999997882
 51
136.9971319999035
  0
ARC
  5
E702
330
1F
100
AcDbEntity
  8
D-STR-STR1
 62
     4
100
AcDbCircle
 10
577.5000562349369
 20
963.0384643684738
 30
0.0
 40
15.08005599999999
100
AcDbArc
 50
69.01712999997489
 51
110.9828800000544
  0
LINE
  5
E703
330
1F
100
AcDbEntity
  8
D-STR-STR1
 62
     4
100
AcDbLine
 10
567.5000762349363
 20
977.1185503684737
 30
0.0
 11
567.5000762349363
 21
968.1185143684743
 31
0.0
  0
LINE
  5
E704
330
1F
100
AcDbEntity
  8
D-STR-STR1
  6
ByBlock
 62
     6
100
AcDbLine
 10
572.1000562349372
 20
1028.118522368473
 30
0.0
 11
573.5000462349371
 21
1028.118522368473
 31
0.0
  0
LINE
  5
E705
330
1F
100
AcDbEntity
  8
D-STR-STR1
  6
ByBlock
 62
     6
100
AcDbLine
 10
583.5000562349368
 20
997.118532368473
 30
0.0
 11
571.5000662349366
 21
997.118532368473
 31
0.0
  0
LINE
  5
E706
330
1F
100
AcDbEntity
  8
D-STR-STR1
  6
ByBlock
 62
     6
100
AcDbLine
 10
572.1000562349372
 20
998.1185223684732
 30
0.0
 11
571.5000662349366
 21
997.118532368473
 31
0.0
  0
LINE
  5
E707
330
1F
100
AcDbEntity
  8
D-STR-STR1
  6
ByBlock
 62
     6
100
AcDbLine
 10
572.1000562349372
 20
1003.118522368473
 30
0.0
 11
572.1000562349372
 21
998.1185223684732
 31
0.0
  0
LINE
  5
E708
330
1F
100
AcDbEntity
  8
D-STR-STR1
  6
ByBlock
 62
     6
100
AcDbLine
 10
572.1000562349372
 20
1003.118522368473
 30
0.0
 11
582.9000562349365
 21
1003.118522368473
 31
0.0
  0
LINE
  5
E709
330
1F
100
AcDbEntity
  8
D-STR-STR1
  6
ByBlock
 62
     6
100
AcDbLine
 10
573.5000462349371
 20
1028.118522368473
 30
0.0
 11
573.5000462349371
 21
1003.118522368473
 31
0.0
  0
LINE
  5
E70A
330
1F
100
AcDbEntity
  8
D-STR-STR1
  6
ByBlock
 62
     6
100
AcDbLine
 10
581.5000662349366
 20
1028.118522368473
 30
0.0
 11
582.9000562349365
 21
1028.118522368473
 31
0.0
  0
LINE
  5
E70B
330
1F
100
AcDbEntity
  8
D-STR-STR1
  6
ByBlock
 62
     6
100
AcDbLine
 10
581.5000662349366
 20
1028.118522368473
 30
0.0
 11
581.5000662349366
 21
1003.118522368473
 31
0.0
  0
LINE
  5
E70C
330
1F
100
AcDbEntity
  8
D-STR-STR1
  6
ByBlock
 62
     6
100
AcDbLine
 10
582.9000562349365
 20
1003.118522368473
 30
0.0
 11
582.9000562349365
 21
998.1185223684732
 31
0.0
  0
LINE
  5
E70D
330
1F
100
AcDbEntity
  8
D-STR-STR1
  6
ByBlock
 62
     6
100
AcDbLine
 10
583.5000562349368
 20
997.118532368473
 30
0.0
 11
582.9000562349365
 21
998.1185223684732
 31
0.0
  0
LINE
  5
E70E
330
1F
100
AcDbEntity
  8
D-STR-STR1
  6
ByBlock
 62
     6
100
AcDbLine
 10
582.9000562349365
 20
998.1185223684732
 30
0.0
 11
572.1000562349372
 21
998.1185223684732
 31
0.0
  0
LINE
  5
E70F
330
1F
100
AcDbEntity
  8
D-STR-STR1
  6
ByBlock
 62
     6
100
AcDbLine
 10
572.1000562349372
 20
1048.118512368473
 30
0.0
 11
572.1000562349372
 21
1028.118522368473
 31
0.0
  0
LINE
  5
E710
330
1F
100
AcDbEntity
  8
D-STR-STR1
  6
ByBlock
 62
     6
100
AcDbLine
 10
582.9000562349365
 20
1048.118512368473
 30
0.0
 11
582.9000562349365
 21
1028.118522368473
 31
0.0
  0
LINE
  5
E711
330
1F
100
AcDbEntity
  8
D-STR-STR1
 62
     4
100
AcDbLine
 10
567.4997862349382
 20
1085.700572996149
 30
0.0
 11
567.4997862349382
 21
1084.033972996149
 31
0.0
  0
LINE
  5
E712
330
1F
100
AcDbEntity
  8
D-STR-STR1
 62
     4
100
AcDbLine
 10
568.9997662349387
 20
1087.367172996149
 30
0.0
 11
567.4997862349382
 21
1085.700572996149
 31
0.0
  0
LINE
  5
E713
330
1F
100
AcDbEntity
  8
D-STR-STR1
 62
     4
100
AcDbLine
 10
567.4997862349382
 20
1098.950572996149
 30
0.0
 11
567.4997862349382
 21
1097.283872996149
 31
0.0
  0
LINE
  5
E714
330
1F
100
AcDbEntity
  8
D-STR-STR1
 62
     4
100
AcDbLine
 10
568.9997662349387
 20
1095.617172996149
 30
0.0
 11
568.9997662349387
 21
1087.367172996149
 31
0.0
  0
LINE
  5
E715
330
1F
100
AcDbEntity
  8
D-STR-STR1
 62
     4
100
AcDbLine
 10
568.9997662349387
 20
1100.617272996148
 30
0.0
 11
567.4997862349382
 21
1098.950572996149
 31
0.0
  0
LINE
  5
E716
330
1F
100
AcDbEntity
  8
D-STR-STR1
 62
     4
100
AcDbLine
 10
567.4997862349382
 20
1097.283872996149
 30
0.0
 11
568.9997662349387
 21
1095.617172996149
 31
0.0
  0
LINE
  5
E717
330
1F
100
AcDbEntity
  8
D-STR-STR1
 62
     4
100
AcDbLine
 10
567.4997862349382
 20
1112.20047299615
 30
0.0
 11
567.4997862349382
 21
1110.533872996149
 31
0.0
  0
LINE
  5
E718
330
1F
100
AcDbEntity
  8
D-STR-STR1
 62
     4
100
AcDbLine
 10
568.9997662349387
 20
1108.867272996149
 30
0.0
 11
568.9997662349387
 21
1100.617272996148
 31
0.0
  0
LINE
  5
E719
330
1F
100
AcDbEntity
  8
D-STR-STR1
 62
     4
100
AcDbLine
 10
568.9997662349387
 20
1113.867272996148
 30
0.0
 11
567.4997862349382
 21
1112.20047299615
 31
0.0
  0
LINE
  5
E71A
330
1F
100
AcDbEntity
  8
D-STR-STR1
 62
     4
100
AcDbLine
 10
567.4997862349382
 20
1110.533872996149
 30
0.0
 11
568.9997662349387
 21
1108.867272996149
 31
0.0
  0
LINE
  5
E71B
330
1F
100
AcDbEntity
  8
D-STR-STR1
 62
     4
100
AcDbLine
 10
567.4997862349382
 20
1125.450572996149
 30
0.0
 11
567.4997862349382
 21
1123.783872996149
 31
0.0
  0
LINE
  5
E71C
330
1F
100
AcDbEntity
  8
D-STR-STR1
 62
     4
100
AcDbLine
 10
568.9997662349387
 20
1122.117172996149
 30
0.0
 11
568.9997662349387
 21
1113.867272996148
 31
0.0
  0
LINE
  5
E71D
330
1F
100
AcDbEntity
  8
D-STR-STR1
 62
     4
100
AcDbLine
 10
568.9997662349387
 20
1127.117172996149
 30
0.0
 11
567.4997862349382
 21
1125.450572996149
 31
0.0
  0
LINE
  5
E71E
330
1F
100
AcDbEntity
  8
D-STR-STR1
 62
     4
100
AcDbLine
 10
567.4997862349382
 20
1123.783872996149
 30
0.0
 11
568.9997662349387
 21
1122.117172996149
 31
0.0
  0
LINE
  5
E71F
330
1F
100
AcDbEntity
  8
D-STR-STR1
 62
     4
100
AcDbLine
 10
568.9997662349387
 20
1127.117172996149
 30
0.0
 11
568.9997662349387
 21
1128.117172996149
 31
0.0
  0
LINE
  5
E720
330
1F
100
AcDbEntity
  8
D-STR-STR1
 62
     4
100
AcDbLine
 10
587.4997862349382
 20
1092.32547299615
 30
0.0
 11
587.4997862349382
 21
1090.658872996149
 31
0.0
  0
LINE
  5
E721
330
1F
100
AcDbEntity
  8
D-STR-STR1
 62
     4
100
AcDbLine
 10
585.9997462349392
 20
1093.992272996149
 30
0.0
 11
587.4997862349382
 21
1092.32547299615
 31
0.0
  0
LINE
  5
E722
330
1F
100
AcDbEntity
  8
D-STR-STR1
 62
     4
100
AcDbLine
 10
587.4997862349382
 20
1090.658872996149
 30
0.0
 11
585.9997462349392
 21
1088.992272996149
 31
0.0
  0
LINE
  5
E723
330
1F
100
AcDbEntity
  8
D-STR-STR1
 62
     4
100
AcDbLine
 10
587.4997862349382
 20
1105.575572996149
 30
0.0
 11
587.4997862349382
 21
1103.908872996149
 31
0.0
  0
LINE
  5
E724
330
1F
100
AcDbEntity
  8
D-STR-STR1
 62
     4
100
AcDbLine
 10
585.9997462349392
 20
1102.242272996149
 30
0.0
 11
585.9997462349392
 21
1093.992272996149
 31
0.0
  0
LINE
  5
E725
330
1F
100
AcDbEntity
  8
D-STR-STR1
 62
     4
100
AcDbLine
 10
585.9997462349392
 20
1107.242172996149
 30
0.0
 11
587.4997862349382
 21
1105.575572996149
 31
0.0
  0
LINE
  5
E726
330
1F
100
AcDbEntity
  8
D-STR-STR1
 62
     4
100
AcDbLine
 10
587.4997862349382
 20
1103.908872996149
 30
0.0
 11
585.9997462349392
 21
1102.242272996149
 31
0.0
  0
LINE
  5
E727
330
1F
100
AcDbEntity
  8
D-STR-STR1
 62
     4
100
AcDbLine
 10
587.4997862349382
 20
1118.825572996149
 30
0.0
 11
587.4997862349382
 21
1117.158872996149
 31
0.0
  0
LINE
  5
E728
330
1F
100
AcDbEntity
  8
D-STR-STR1
 62
     4
100
AcDbLine
 10
585.9997462349392
 20
1115.492172996149
 30
0.0
 11
585.9997462349392
 21
1107.242172996149
 31
0.0
  0
LINE
  5
E729
330
1F
100
AcDbEntity
  8
D-STR-STR1
 62
     4
100
AcDbLine
 10
585.9997462349392
 20
1120.492172996149
 30
0.0
 11
587.4997862349382
 21
1118.825572996149
 31
0.0
  0
LINE
  5
E72A
330
1F
100
AcDbEntity
  8
D-STR-STR1
 62
     4
100
AcDbLine
 10
587.4997862349382
 20
1117.158872996149
 30
0.0
 11
585.9997462349392
 21
1115.492172996149
 31
0.0
  0
LINE
  5
E72B
330
1F
100
AcDbEntity
  8
D-STR-STR1
 62
     4
100
AcDbLine
 10
585.9997462349392
 20
1120.492172996149
 30
0.0
 11
585.9997462349392
 21
1128.117172996149
 31
0.0
  0
LINE
  5
E72C
330
1F
100
AcDbEntity
  8
D-STR-STR1
 62
     4
100
AcDbLine
 10
568.9997662349387
 20
1128.117172996149
 30
0.0
 11
585.9997462349392
 21
1128.117172996149
 31
0.0
  0
LINE
  5
E72D
330
1F
100
AcDbEntity
  8
D-STR-STR1
 62
     4
100
AcDbLine
 10
567.4997862349382
 20
1084.14407299615
 30
0.0
 11
587.4997862349382
 21
1104.14407299615
 31
0.0
  0
LINE
  5
E72E
330
1F
100
AcDbEntity
  8
D-STR-STR1
 62
     4
100
AcDbLine
 10
568.9997662349387
 20
1095.54357299615
 30
0.0
 11
585.9997462349392
 21
1112.54357299615
 31
0.0
  0
LINE
  5
E72F
330
1F
100
AcDbEntity
  8
D-STR-STR1
 62
     4
100
AcDbLine
 10
568.9997662349387
 20
1105.44317299615
 30
0.0
 11
585.9997462349392
 21
1122.443072996149
 31
0.0
  0
LINE
  5
E730
330
1F
100
AcDbEntity
  8
D-STR-STR1
 62
     4
100
AcDbLine
 10
568.9997662349387
 20
1115.342572996149
 30
0.0
 11
581.7743462349381
 21
1128.117172996149
 31
0.0
  0
LINE
  5
E731
330
1F
100
AcDbEntity
  8
D-STR-STR1
 62
     4
100
AcDbLine
 10
567.5195762349385
 20
1123.76187299615
 30
0.0
 11
571.8748962349391
 21
1128.117172996149
 31
0.0
  0
LINE
  5
E732
330
1F
100
AcDbEntity
  8
D-STR-STR1
 62
     4
100
AcDbLine
 10
567.4997862349382
 20
1072.450572996149
 30
0.0
 11
567.4997862349382
 21
1070.783872996149
 31
0.0
  0
LINE
  5
E733
330
1F
100
AcDbEntity
  8
D-STR-STR1
 62
     4
100
AcDbLine
 10
568.9997662349387
 20
1069.117272996149
 30
0.0
 11
568.9997662349387
 21
1068.117272996149
 31
0.0
  0
LINE
  5
E734
330
1F
100
AcDbEntity
  8
D-STR-STR1
 62
     4
100
AcDbLine
 10
568.9997662349387
 20
1082.367172996149
 30
0.0
 11
568.9997662349387
 21
1074.117272996149
 31
0.0
  0
LINE
  5
E735
330
1F
100
AcDbEntity
  8
D-STR-STR1
 62
     4
100
AcDbLine
 10
568.9997662349387
 20
1074.117272996149
 30
0.0
 11
567.4997862349382
 21
1072.450572996149
 31
0.0
  0
LINE
  5
E736
330
1F
100
AcDbEntity
  8
D-STR-STR1
 62
     4
100
AcDbLine
 10
567.4997862349382
 20
1070.783872996149
 30
0.0
 11
568.9997662349387
 21
1069.117272996149
 31
0.0
  0
LINE
  5
E737
330
1F
100
AcDbEntity
  8
D-STR-STR1
 62
     4
100
AcDbLine
 10
587.4997862349382
 20
1079.075572996149
 30
0.0
 11
587.4997862349382
 21
1077.408872996149
 31
0.0
  0
LINE
  5
E738
330
1F
100
AcDbEntity
  8
D-STR-STR1
 62
     4
100
AcDbLine
 10
585.9997462349392
 20
1080.742272996149
 30
0.0
 11
587.4997862349382
 21
1079.075572996149
 31
0.0
  0
LINE
  5
E739
330
1F
100
AcDbEntity
  8
D-STR-STR1
 62
     4
100
AcDbLine
 10
587.4997862349382
 20
1077.408872996149
 30
0.0
 11
585.9997462349392
 21
1075.742272996148
 31
0.0
  0
LINE
  5
E73A
330
1F
100
AcDbEntity
  8
D-STR-STR1
 62
     4
100
AcDbLine
 10
585.9997462349392
 20
1075.742272996148
 30
0.0
 11
585.9997462349392
 21
1068.117272996149
 31
0.0
  0
LINE
  5
E73B
330
1F
100
AcDbEntity
  8
D-STR-STR1
 62
     4
100
AcDbLine
 10
581.1714562349379
 20
1068.117272996149
 30
0.0
 11
585.9997462349392
 21
1072.945572996148
 31
0.0
  0
LINE
  5
E73C
330
1F
100
AcDbEntity
  8
D-STR-STR1
 62
     4
100
AcDbLine
 10
571.2719462349387
 20
1068.117272996149
 30
0.0
 11
585.9997462349392
 21
1082.84497299615
 31
0.0
  0
ARC
  5
E740
330
1F
100
AcDbEntity
  8
D-STR-STR1
  6
ByBlock
 62
     6
100
AcDbCircle
 10
587.4996662349376
 20
1023.117372996148
 30
0.0
 40
14.99999899999999
100
AcDbArc
 50
180.0
 51
270.0
  0
ARC
  5
E741
330
1F
100
AcDbEntity
  8
D-STR-STR1
  6
ByBlock
 62
     6
100
AcDbCircle
 10
587.4996662349376
 20
1023.117372996148
 30
0.0
 40
4.9999995
100
AcDbArc
 50
180.0
 51
270.0
  0
LINE
  5
E742
330
1F
100
AcDbEntity
  8
D-STR-STR1
  6
ByBlock
 62
     6
100
AcDbLine
 10
572.4997362349377
 20
1068.117272996149
 30
0.0
 11
572.4997362349377
 21
1023.117372996148
 31
0.0
  0
LINE
  5
E744
330
1F
100
AcDbEntity
  8
D-STR-STR1
  6
ByBlock
 62
     6
100
AcDbLine
 10
582.4997762349385
 20
1068.117272996149
 30
0.0
 11
582.4997762349385
 21
1023.117372996148
 31
0.0
  0
LINE
  5
E745
330
1F
100
AcDbEntity
  8
D-STR-STR1
 62
     4
100
AcDbLine
 10
567.4997862349382
 20
1084.033972996149
 30
0.0
 11
568.9997662349387
 21
1082.367172996149
 31
0.0
  0
LINE
  5
E746
330
1F
100
AcDbEntity
  8
D-STR-STR1
 62
     4
100
AcDbLine
 10
585.9997462349392
 20
1088.992272996149
 30
0.0
 11
585.9997462349392
 21
1080.742272996149
 31
0.0
  0
LINE
  5
E747
330
1F
100
AcDbEntity
  8
D-STR-STR1
 62
     4
100
AcDbLine
 10
568.9997662349387
 20
1075.744572996149
 30
0.0
 11
586.5907562349393
 21
1093.335572996149
 31
0.0
  0
DIMENSION
  5
E748
330
1F
100
AcDbEntity
  8
D-STR-DIM
 48
10.0
100
AcDbDimension
  2
*D9
 10
550.0001044075425
 20
1378.118418368474
 30
0.0
 11
475.0000555923215
 21
1403.118418368474
 31
0.0
 70
    32
 71
     5
 42
150.0000976304418
  3
S10
100
AcDbAlignedDimension
 13
400.0000067771006
 23
1318.117172996149
 33
0.0
 14
550.0001044075425
 24
1318.117172996149
 34
0.0
 50
180.0
100
AcDbRotatedDimension
  0
ARC
  5
E749
330
1F
100
AcDbEntity
  8
D-STR
100
AcDbCircle
 10
597.149636234938
 20
1288.11727299615
 30
0.0
 40
29.99999799999999
100
AcDbArc
 50
90.0
 51
174.2893899999831
  0
LINE
  5
E74B
330
1F
100
AcDbEntity
  8
D-STR
100
AcDbLine
 10
2445.000096234938
 20
1068.11727299615
 30
0.0
 11
2214.999956234934
 21
1068.11727299615
 31
0.0
  0
LINE
  5
E74C
330
1F
100
AcDbEntity
  8
D-STR
100
AcDbLine
 10
2237.298486234934
 20
1291.102372996149
 30
0.0
 11
2214.999956234934
 21
1068.11727299615
 31
0.0
  0
LEADER
  5
E755
330
1F
100
AcDbEntity
  8
D-STR-DIM
 48
10.0
100
AcDbLeader
  3
S10
 76
     3
 10
2315.249229929964
 20
1171.669511116702
 30
0.0
 10
2011.324624718187
 20
1171.669511116702
 30
0.0
 10
1768.651804054931
 20
1171.669511116702
 30
0.0
211
-1.0
221
0.0
231
0.0
210
0.0
220
0.0
230
-1.0
  0
DIMENSION
  5
E758
330
1F
100
AcDbEntity
  8
D-STR-DIM
 48
10.0
100
AcDbDimension
  2
*D10
 10
2070.000006777101
 20
1478.118418368474
 30
0.0
 11
2330.000021234938
 21
1503.118418368474
 31
0.0
 70
    32
 71
     5
 42
520.0000289156742
  3
S10
100
AcDbAlignedDimension
 13
2590.000035692776
 23
1318.117172996149
 33
0.0
 14
2070.000006777101
 24
1318.117172996149
 34
0.0
100
AcDbRotatedDimension
  0
DIMENSION
  5
E759
330
1F
100
AcDbEntity
  8
D-STR-DIM
 48
10.0
100
AcDbDimension
  2
*D11
 10
2220.000104407541
 20
1378.118418368474
 30
0.0
 11
2232.34994047879
 21
1421.267528557931
 31
0.0
 70
   160
 71
     5
 42
19.99986425041061
  3
S10
100
AcDbAlignedDimension
 13
2239.999968657952
 23
1318.117172996149
 33
0.0
 14
2220.000104407541
 24
1318.117172996149
 34
0.0
 50
180.0
100
AcDbRotatedDimension
1001
ACAD
1000
DSTYLE
1002
{
1070
   279
1070
     2
1002
}
  0
LINE
  5
E75A
330
1F
100
AcDbEntity
  8
D-STR
 62
     0
 48
10.0
100
AcDbLine
 10
2069.999964307224
 20
868.1185183684757
 30
0.0
 11
2590.000035692776
 21
868.1185183684737
 31
0.0
  0
LINE
  5
E75B
330
1F
100
AcDbEntity
  8
D-STR
 62
     0
 48
10.0
100
AcDbLine
 10
2069.999964307224
 20
968.1185183684757
 30
0.0
 11
2590.000035692776
 21
968.1185183684757
 31
0.0
  0
LINE
  5
E75C
330
1F
100
AcDbEntity
  8
D-STR
 62
     0
 48
10.0
100
AcDbLine
 10
2069.999964307224
 20
1118.118518368475
 30
0.0
 11
2590.000035692776
 21
1118.118518368475
 31
0.0
  0
DIMENSION
  5
E77B
330
1F
100
AcDbEntity
  8
D-STR-DIM
 48
10.0
100
AcDbDimension
  2
*D12
 10
1000.000035692774
 20
1318.117172996149
 30
0.0
 11
975.0000356927746
 21
1218.117845682312
 31
0.0
 70
    32
 71
     5
 42
199.9986546276741
  3
S10
100
AcDbAlignedDimension
 13
900.0000356927749
 23
1118.118518368475
 33
0.0
 14
900.0000356927749
 24
1318.117172996149
 34
0.0
 50
90.0
100
AcDbRotatedDimension
  0
LINE
  5
E77C
330
1F
100
AcDbEntity
  8
D-STR
100
AcDbLine
 10
750.0000162349379
 20
1068.117272996149
 30
0.0
 11
750.0000162349379
 21
1318.117172996149
 31
0.0
  0
MTEXT
  5
E77D
330
1F
100
AcDbEntity
  8
D-STR-DIM
 48
10.0
100
AcDbMText
 10
1013.74494426719
 20
820.3927337085442
 30
0.0
 40
25.0
 41
0.0
 71
     5
 72
     1
  1
敷高調整治具
 73
     1
 44
1.0
  0
LEADER
  5
E77E
330
1F
100
AcDbEntity
  8
D-STR-DIM
 48
10.0
100
AcDbLeader
  3
S10
 76
     3
 10
715.5530784424036
 20
989.9297433603424
 30
0.0
 10
902.5900880942018
 20
802.8927337085443
 30
0.0
 10
1115.369021436751
 20
802.8927337085443
 30
0.0
  0
LINE
  5
E77F
330
1F
100
AcDbEntity
  8
D-STR
 62
     0
 48
10.0
100
AcDbLine
 10
900.0000356927749
 20
868.1185183684737
 30
0.0
 11
900.0000356927749
 21
1118.118518368475
 31
0.0
  0
DIMENSION
  5
E780
330
1F
100
AcDbEntity
  8
D-STR-DIM
 48
10.0
100
AcDbDimension
  2
*D13
 10
1000.000035692774
 20
868.1185183684737
 30
0.0
 11
975.0000356927746
 21
918.1185183684739
 31
0.0
 70
    32
 71
     5
 42
100.0
  3
S10
100
AcDbAlignedDimension
 13
900.0000356927749
 23
968.1185183684737
 33
0.0
 14
900.0000356927749
 24
868.1185183684737
 34
0.0
 50
90.0
100
AcDbRotatedDimension
  0
LINE
  5
E781
330
1F
100
AcDbEntity
  8
D-STR-STR1
  6
ByBlock
 62
     6
100
AcDbLine
 10
722.8999062349366
 20
1048.118512368473
 30
0.0
 11
712.0999062349373
 21
1048.118512368473
 31
0.0
  0
LINE
  5
E782
330
1F
100
AcDbEntity
  8
D-STR-STR1
  6
ByBlock
 62
     6
100
AcDbLine
 10
712.0999062349373
 20
1048.118512368473
 30
0.0
 11
711.499906234937
 21
1049.118502368473
 31
0.0
  0
LINE
  5
E783
330
1F
100
AcDbEntity
  8
D-STR-STR1
  6
ByBlock
 62
     6
100
AcDbLine
 10
723.4998962349372
 20
1049.118502368473
 30
0.0
 11
722.8999062349366
 21
1048.118512368473
 31
0.0
  0
LINE
  5
E784
330
1F
100
AcDbEntity
  8
D-STR-STR1
  6
ByBlock
 62
     6
100
AcDbLine
 10
723.4998962349372
 20
1049.118502368473
 30
0.0
 11
711.499906234937
 21
1049.118502368473
 31
0.0
  0
LINE
  5
E785
330
1F
100
AcDbEntity
  8
D-STR-STR1
  6
ByBlock
 62
     6
100
AcDbLine
 10
723.4998962349372
 20
1068.117272996149
 30
0.0
 11
723.4998962349372
 21
1049.118502368473
 31
0.0
  0
LINE
  5
E786
330
1F
100
AcDbEntity
  8
D-STR-STR1
  6
ByBlock
 62
     6
100
AcDbLine
 10
711.499906234937
 20
1068.117272996149
 30
0.0
 11
711.499906234937
 21
1049.118502368473
 31
0.0
  0
LINE
  5
E787
330
1F
100
AcDbEntity
  8
D-STR-STR1
  6
ByBlock
 62
     6
100
AcDbLine
 10
722.4998962349391
 20
1068.117272996149
 30
0.0
 11
722.4998962349372
 21
1049.118502368473
 31
0.0
  0
LINE
  5
E788
330
1F
100
AcDbEntity
  8
D-STR-STR1
  6
ByBlock
 62
     6
100
AcDbLine
 10
712.4999162349349
 20
1068.117272996149
 30
0.0
 11
712.4999162349368
 21
1049.118502368473
 31
0.0
  0
LINE
  5
E789
330
1F
100
AcDbEntity
  8
D-STR-STR1
  6
ByBlock
 62
     6
100
AcDbLine
 10
723.4998962349372
 20
997.1185223684733
 30
0.0
 11
723.4998962349372
 21
969.1185123684736
 31
0.0
  0
LINE
  5
E78A
330
1F
100
AcDbEntity
  8
D-STR-STR1
  6
ByBlock
 62
     6
100
AcDbLine
 10
711.499906234937
 20
997.1185223684733
 30
0.0
 11
711.499906234937
 21
969.1185123684736
 31
0.0
  0
LINE
  5
E78B
330
1F
100
AcDbEntity
  8
D-STR-STR1
  6
ByBlock
 62
     6
100
AcDbLine
 10
722.4998962349372
 20
997.1185223684733
 30
0.0
 11
722.4998962349372
 21
969.1185123684736
 31
0.0
  0
LINE
  5
E78C
330
1F
100
AcDbEntity
  8
D-STR-STR1
  6
ByBlock
 62
     6
100
AcDbLine
 10
712.4999162349368
 20
997.1185223684733
 30
0.0
 11
712.4999162349368
 21
969.1185123684736
 31
0.0
  0
LINE
  5
E78D
330
1F
100
AcDbEntity
  8
D-STR-STR1
 62
     4
100
AcDbLine
 10
725.1999162349375
 20
978.1185293684739
 30
0.0
 11
709.7998962349366
 21
978.1185293684739
 31
0.0
  0
ARC
  5
E78E
330
1F
100
AcDbEntity
  8
D-STR-STR1
 62
     4
100
AcDbCircle
 10
725.1999162349375
 20
974.9735383684747
 30
0.0
 40
3.144991399999999
100
AcDbArc
 50
43.00286800009651
 51
136.9972800000212
  0
LINE
  5
E78F
330
1F
100
AcDbEntity
  8
D-STR-STR1
 62
     4
100
AcDbLine
 10
727.4998862349375
 20
977.1185503684737
 30
0.0
 11
727.4998862349375
 21
968.1185143684743
 31
0.0
  0
LINE
  5
E790
330
1F
100
AcDbEntity
  8
D-STR-STR1
 62
     4
100
AcDbLine
 10
707.4999262349365
 20
977.1185193684742
 30
0.0
 11
707.4999262349365
 21
968.1185143684743
 31
0.0
  0
ARC
  5
E791
330
1F
100
AcDbEntity
  8
D-STR-STR1
 62
     4
100
AcDbCircle
 10
709.7998962349366
 20
974.9735383684747
 30
0.0
 40
3.144991399999999
100
AcDbArc
 50
43.00271600003836
 51
136.9971300000095
  0
ARC
  5
E792
330
1F
100
AcDbEntity
  8
D-STR-STR1
  6
ByBlock
 62
     6
100
AcDbCircle
 10
717.499906234937
 20
986.6185383684751
 30
0.0
 40
18.50002
100
AcDbArc
 50
251.0753899999778
 51
288.9246000000225
  0
LINE
  5
E793
330
1F
100
AcDbEntity
  8
D-STR-STR1
 62
     4
100
AcDbLine
 10
722.8999062349366
 20
977.1185263684747
 30
0.0
 11
722.8999062349366
 21
968.1185143684743
 31
0.0
  0
LINE
  5
E794
330
1F
100
AcDbEntity
  8
D-STR-STR1
 62
     4
100
AcDbLine
 10
712.0999062349373
 20
977.1185263684747
 30
0.0
 11
712.0999062349373
 21
968.1185143684743
 31
0.0
  0
ARC
  5
E795
330
1F
100
AcDbEntity
  8
D-STR-STR1
 62
     4
100
AcDbCircle
 10
717.499906234937
 20
963.0384643684738
 30
0.0
 40
15.08005599999999
100
AcDbArc
 50
69.01711999994555
 51
110.9828700000251
  0
LINE
  5
E796
330
1F
100
AcDbEntity
  8
D-STR-STR1
  6
ByBlock
 62
     6
100
AcDbLine
 10
722.8999062349366
 20
1028.118522368473
 30
0.0
 11
721.4999162349368
 21
1028.118522368473
 31
0.0
  0
LINE
  5
E797
330
1F
100
AcDbEntity
  8
D-STR-STR1
  6
ByBlock
 62
     6
100
AcDbLine
 10
721.4999162349368
 20
1028.118522368473
 30
0.0
 11
721.4999162349368
 21
1003.118522368473
 31
0.0
  0
LINE
  5
E798
330
1F
100
AcDbEntity
  8
D-STR-STR1
  6
ByBlock
 62
     6
100
AcDbLine
 10
722.8999062349366
 20
1003.118522368473
 30
0.0
 11
712.0999062349373
 21
1003.118522368473
 31
0.0
  0
LINE
  5
E799
330
1F
100
AcDbEntity
  8
D-STR-STR1
  6
ByBlock
 62
     6
100
AcDbLine
 10
722.8999062349366
 20
1003.118522368473
 30
0.0
 11
722.8999062349366
 21
998.1185223684732
 31
0.0
  0
LINE
  5
E79A
330
1F
100
AcDbEntity
  8
D-STR-STR1
  6
ByBlock
 62
     6
100
AcDbLine
 10
722.8999062349366
 20
998.1185223684732
 30
0.0
 11
723.4998962349372
 21
997.118532368473
 31
0.0
  0
LINE
  5
E79B
330
1F
100
AcDbEntity
  8
D-STR-STR1
  6
ByBlock
 62
     6
100
AcDbLine
 10
712.0999062349373
 20
998.1185223684732
 30
0.0
 11
722.8999062349366
 21
998.1185223684732
 31
0.0
  0
LINE
  5
E79C
330
1F
100
AcDbEntity
  8
D-STR-STR1
  6
ByBlock
 62
     6
100
AcDbLine
 10
712.0999062349373
 20
1003.118522368473
 30
0.0
 11
712.0999062349373
 21
998.1185223684732
 31
0.0
  0
LINE
  5
E79D
330
1F
100
AcDbEntity
  8
D-STR-STR1
  6
ByBlock
 62
     6
100
AcDbLine
 10
713.4998962349373
 20
1028.118522368473
 30
0.0
 11
713.4998962349373
 21
1003.118522368473
 31
0.0
  0
LINE
  5
E79E
330
1F
100
AcDbEntity
  8
D-STR-STR1
  6
ByBlock
 62
     6
100
AcDbLine
 10
713.4998962349373
 20
1028.118522368473
 30
0.0
 11
712.0999062349373
 21
1028.118522368473
 31
0.0
  0
LINE
  5
E79F
330
1F
100
AcDbEntity
  8
D-STR-STR1
  6
ByBlock
 62
     6
100
AcDbLine
 10
711.499906234937
 20
997.118532368473
 30
0.0
 11
712.0999062349373
 21
998.1185223684732
 31
0.0
  0
LINE
  5
E7A0
330
1F
100
AcDbEntity
  8
D-STR-STR1
  6
ByBlock
 62
     6
100
AcDbLine
 10
711.499906234937
 20
997.118532368473
 30
0.0
 11
723.4998962349372
 21
997.118532368473
 31
0.0
  0
LINE
  5
E7A1
330
1F
100
AcDbEntity
  8
D-STR-STR1
  6
ByBlock
 62
     6
100
AcDbLine
 10
722.8999062349366
 20
1048.118512368473
 30
0.0
 11
722.8999062349366
 21
1028.118522368473
 31
0.0
  0
LINE
  5
E7A2
330
1F
100
AcDbEntity
  8
D-STR-STR1
  6
ByBlock
 62
     6
100
AcDbLine
 10
712.0999062349373
 20
1048.118512368473
 30
0.0
 11
712.0999062349373
 21
1028.118522368473
 31
0.0
  0
LINE
  5
E7A3
330
1F
100
AcDbEntity
  8
D-STR-STR1
 62
     4
100
AcDbLine
 10
707.4997562349389
 20
1085.700572996149
 30
0.0
 11
707.4997562349389
 21
1084.033972996149
 31
0.0
  0
LINE
  5
E7A4
330
1F
100
AcDbEntity
  8
D-STR-STR1
 62
     4
100
AcDbLine
 10
708.9997362349377
 20
1087.367172996149
 30
0.0
 11
707.4997562349389
 21
1085.700572996149
 31
0.0
  0
LINE
  5
E7A5
330
1F
100
AcDbEntity
  8
D-STR-STR1
 62
     4
100
AcDbLine
 10
707.4997562349389
 20
1098.950572996149
 30
0.0
 11
707.4997562349389
 21
1097.283872996149
 31
0.0
  0
LINE
  5
E7A6
330
1F
100
AcDbEntity
  8
D-STR-STR1
 62
     4
100
AcDbLine
 10
708.9997362349377
 20
1095.617172996149
 30
0.0
 11
708.9997362349377
 21
1087.367172996149
 31
0.0
  0
LINE
  5
E7A7
330
1F
100
AcDbEntity
  8
D-STR-STR1
 62
     4
100
AcDbLine
 10
708.9997362349377
 20
1100.617272996148
 30
0.0
 11
707.4997562349389
 21
1098.950572996149
 31
0.0
  0
LINE
  5
E7A8
330
1F
100
AcDbEntity
  8
D-STR-STR1
 62
     4
100
AcDbLine
 10
707.4997562349389
 20
1097.283872996149
 30
0.0
 11
708.9997362349377
 21
1095.617172996149
 31
0.0
  0
LINE
  5
E7A9
330
1F
100
AcDbEntity
  8
D-STR-STR1
 62
     4
100
AcDbLine
 10
707.4997562349389
 20
1112.20047299615
 30
0.0
 11
707.4997562349389
 21
1110.533872996149
 31
0.0
  0
LINE
  5
E7AA
330
1F
100
AcDbEntity
  8
D-STR-STR1
 62
     4
100
AcDbLine
 10
708.9997362349377
 20
1108.867272996149
 30
0.0
 11
708.9997362349377
 21
1100.617272996148
 31
0.0
  0
LINE
  5
E7AB
330
1F
100
AcDbEntity
  8
D-STR-STR1
 62
     4
100
AcDbLine
 10
708.9997362349377
 20
1113.867272996148
 30
0.0
 11
707.4997562349389
 21
1112.20047299615
 31
0.0
  0
LINE
  5
E7AC
330
1F
100
AcDbEntity
  8
D-STR-STR1
 62
     4
100
AcDbLine
 10
707.4997562349389
 20
1110.533872996149
 30
0.0
 11
708.9997362349377
 21
1108.867272996149
 31
0.0
  0
LINE
  5
E7AD
330
1F
100
AcDbEntity
  8
D-STR-STR1
 62
     4
100
AcDbLine
 10
707.4997562349389
 20
1125.450572996149
 30
0.0
 11
707.4997562349389
 21
1123.783872996149
 31
0.0
  0
LINE
  5
E7AE
330
1F
100
AcDbEntity
  8
D-STR-STR1
 62
     4
100
AcDbLine
 10
708.9997362349377
 20
1122.117172996149
 30
0.0
 11
708.9997362349377
 21
1113.867272996148
 31
0.0
  0
LINE
  5
E7AF
330
1F
100
AcDbEntity
  8
D-STR-STR1
 62
     4
100
AcDbLine
 10
708.9997362349377
 20
1127.117172996149
 30
0.0
 11
707.4997562349389
 21
1125.450572996149
 31
0.0
  0
LINE
  5
E7B0
330
1F
100
AcDbEntity
  8
D-STR-STR1
 62
     4
100
AcDbLine
 10
707.4997562349389
 20
1123.783872996149
 30
0.0
 11
708.9997362349377
 21
1122.117172996149
 31
0.0
  0
LINE
  5
E7B1
330
1F
100
AcDbEntity
  8
D-STR-STR1
 62
     4
100
AcDbLine
 10
708.9997362349377
 20
1127.117172996149
 30
0.0
 11
708.9997362349377
 21
1128.117172996149
 31
0.0
  0
LINE
  5
E7B2
330
1F
100
AcDbEntity
  8
D-STR-STR1
 62
     4
100
AcDbLine
 10
727.499756234939
 20
1092.32547299615
 30
0.0
 11
727.499756234939
 21
1090.658872996149
 31
0.0
  0
LINE
  5
E7B3
330
1F
100
AcDbEntity
  8
D-STR-STR1
 62
     4
100
AcDbLine
 10
725.9997162349382
 20
1093.992272996149
 30
0.0
 11
727.499756234939
 21
1092.32547299615
 31
0.0
  0
LINE
  5
E7B4
330
1F
100
AcDbEntity
  8
D-STR-STR1
 62
     4
100
AcDbLine
 10
727.499756234939
 20
1090.658872996149
 30
0.0
 11
725.9997162349382
 21
1088.992272996149
 31
0.0
  0
LINE
  5
E7B5
330
1F
100
AcDbEntity
  8
D-STR-STR1
 62
     4
100
AcDbLine
 10
727.499756234939
 20
1105.575572996149
 30
0.0
 11
727.499756234939
 21
1103.908872996149
 31
0.0
  0
LINE
  5
E7B6
330
1F
100
AcDbEntity
  8
D-STR-STR1
 62
     4
100
AcDbLine
 10
725.9997162349382
 20
1102.242272996149
 30
0.0
 11
725.9997162349382
 21
1093.992272996149
 31
0.0
  0
LINE
  5
E7B7
330
1F
100
AcDbEntity
  8
D-STR-STR1
 62
     4
100
AcDbLine
 10
725.9997162349382
 20
1107.242172996149
 30
0.0
 11
727.499756234939
 21
1105.575572996149
 31
0.0
  0
LINE
  5
E7B8
330
1F
100
AcDbEntity
  8
D-STR-STR1
 62
     4
100
AcDbLine
 10
727.499756234939
 20
1103.908872996149
 30
0.0
 11
725.9997162349382
 21
1102.242272996149
 31
0.0
  0
LINE
  5
E7B9
330
1F
100
AcDbEntity
  8
D-STR-STR1
 62
     4
100
AcDbLine
 10
727.499756234939
 20
1118.825572996149
 30
0.0
 11
727.499756234939
 21
1117.158872996149
 31
0.0
  0
LINE
  5
E7BA
330
1F
100
AcDbEntity
  8
D-STR-STR1
 62
     4
100
AcDbLine
 10
725.9997162349382
 20
1115.492172996149
 30
0.0
 11
725.9997162349382
 21
1107.242172996149
 31
0.0
  0
LINE
  5
E7BB
330
1F
100
AcDbEntity
  8
D-STR-STR1
 62
     4
100
AcDbLine
 10
725.9997162349382
 20
1120.492172996149
 30
0.0
 11
727.499756234939
 21
1118.825572996149
 31
0.0
  0
LINE
  5
E7BC
330
1F
100
AcDbEntity
  8
D-STR-STR1
 62
     4
100
AcDbLine
 10
727.499756234939
 20
1117.158872996149
 30
0.0
 11
725.9997162349382
 21
1115.492172996149
 31
0.0
  0
LINE
  5
E7BD
330
1F
100
AcDbEntity
  8
D-STR-STR1
 62
     4
100
AcDbLine
 10
725.9997162349382
 20
1120.492172996149
 30
0.0
 11
725.9997162349382
 21
1128.117172996149
 31
0.0
  0
LINE
  5
E7BE
330
1F
100
AcDbEntity
  8
D-STR-STR1
 62
     4
100
AcDbLine
 10
708.9997362349377
 20
1128.117172996149
 30
0.0
 11
725.9997162349382
 21
1128.117172996149
 31
0.0
  0
LINE
  5
E7BF
330
1F
100
AcDbEntity
  8
D-STR-STR1
 62
     4
100
AcDbLine
 10
707.4997562349389
 20
1084.14407299615
 30
0.0
 11
727.499756234939
 21
1104.14407299615
 31
0.0
  0
LINE
  5
E7C0
330
1F
100
AcDbEntity
  8
D-STR-STR1
 62
     4
100
AcDbLine
 10
708.9997362349377
 20
1095.54357299615
 30
0.0
 11
725.9997162349382
 21
1112.54357299615
 31
0.0
  0
LINE
  5
E7C1
330
1F
100
AcDbEntity
  8
D-STR-STR1
 62
     4
100
AcDbLine
 10
708.9997362349377
 20
1105.44317299615
 30
0.0
 11
725.9997162349382
 21
1122.443072996149
 31
0.0
  0
LINE
  5
E7C2
330
1F
100
AcDbEntity
  8
D-STR-STR1
 62
     4
100
AcDbLine
 10
708.9997362349377
 20
1115.342572996149
 30
0.0
 11
721.7743062349373
 21
1128.117172996149
 31
0.0
  0
LINE
  5
E7C3
330
1F
100
AcDbEntity
  8
D-STR-STR1
 62
     4
100
AcDbLine
 10
707.5195462349374
 20
1123.76187299615
 30
0.0
 11
711.8748562349383
 21
1128.117172996149
 31
0.0
  0
LINE
  5
E7C4
330
1F
100
AcDbEntity
  8
D-STR-STR1
 62
     4
100
AcDbLine
 10
707.4997562349389
 20
1072.450572996149
 30
0.0
 11
707.4997562349389
 21
1070.783872996149
 31
0.0
  0
LINE
  5
E7C5
330
1F
100
AcDbEntity
  8
D-STR-STR1
 62
     4
100
AcDbLine
 10
708.9997362349377
 20
1069.117272996149
 30
0.0
 11
708.9997362349377
 21
1068.117272996149
 31
0.0
  0
LINE
  5
E7C6
330
1F
100
AcDbEntity
  8
D-STR-STR1
 62
     4
100
AcDbLine
 10
708.9997362349377
 20
1082.367172996149
 30
0.0
 11
708.9997362349377
 21
1074.117272996149
 31
0.0
  0
LINE
  5
E7C7
330
1F
100
AcDbEntity
  8
D-STR-STR1
 62
     4
100
AcDbLine
 10
708.9997362349377
 20
1074.117272996149
 30
0.0
 11
707.4997562349389
 21
1072.450572996149
 31
0.0
  0
LINE
  5
E7C8
330
1F
100
AcDbEntity
  8
D-STR-STR1
 62
     4
100
AcDbLine
 10
707.4997562349389
 20
1070.783872996149
 30
0.0
 11
708.9997362349377
 21
1069.117272996149
 31
0.0
  0
LINE
  5
E7C9
330
1F
100
AcDbEntity
  8
D-STR-STR1
 62
     4
100
AcDbLine
 10
727.499756234939
 20
1079.075572996149
 30
0.0
 11
727.499756234939
 21
1077.408872996149
 31
0.0
  0
LINE
  5
E7CA
330
1F
100
AcDbEntity
  8
D-STR-STR1
 62
     4
100
AcDbLine
 10
725.9997162349382
 20
1080.742272996149
 30
0.0
 11
727.499756234939
 21
1079.075572996149
 31
0.0
  0
LINE
  5
E7CB
330
1F
100
AcDbEntity
  8
D-STR-STR1
 62
     4
100
AcDbLine
 10
727.499756234939
 20
1077.408872996149
 30
0.0
 11
725.9997162349382
 21
1075.742272996148
 31
0.0
  0
LINE
  5
E7CC
330
1F
100
AcDbEntity
  8
D-STR-STR1
 62
     4
100
AcDbLine
 10
725.9997162349382
 20
1075.742272996148
 30
0.0
 11
725.9997162349382
 21
1068.117272996149
 31
0.0
  0
LINE
  5
E7CD
330
1F
100
AcDbEntity
  8
D-STR-STR1
 62
     4
100
AcDbLine
 10
721.1714262349387
 20
1068.117272996149
 30
0.0
 11
725.9997162349382
 21
1072.945572996148
 31
0.0
  0
LINE
  5
E7CE
330
1F
100
AcDbEntity
  8
D-STR-STR1
 62
     4
100
AcDbLine
 10
711.2719062349379
 20
1068.117272996149
 30
0.0
 11
725.9997162349382
 21
1082.84497299615
 31
0.0
  0
ARC
  5
E7D0
330
1F
100
AcDbEntity
  8
D-STR-STR1
  6
ByBlock
 62
     6
100
AcDbCircle
 10
707.4996862349371
 20
1023.117372996148
 30
0.0
 40
14.99999899999999
100
AcDbArc
 50
270.0
 51
0.0
  0
ARC
  5
E7D1
330
1F
100
AcDbEntity
  8
D-STR-STR1
  6
ByBlock
 62
     6
100
AcDbCircle
 10
707.4996862349371
 20
1023.117372996148
 30
0.0
 40
4.9999995
100
AcDbArc
 50
270.0
 51
0.0
  0
LINE
  5
E7D2
330
1F
100
AcDbEntity
  8
D-STR-STR1
  6
ByBlock
 62
     6
100
AcDbLine
 10
712.4997062349384
 20
1068.117272996149
 30
0.0
 11
712.4997062349384
 21
1023.117372996148
 31
0.0
  0
LINE
  5
E7D4
330
1F
100
AcDbEntity
  8
D-STR-STR1
  6
ByBlock
 62
     6
100
AcDbLine
 10
722.4997362349377
 20
1068.117272996149
 30
0.0
 11
722.4997362349377
 21
1023.117372996148
 31
0.0
  0
LINE
  5
E7D5
330
1F
100
AcDbEntity
  8
D-STR-STR1
 62
     4
100
AcDbLine
 10
707.4997562349389
 20
1084.033972996149
 30
0.0
 11
708.9997362349377
 21
1082.367172996149
 31
0.0
  0
LINE
  5
E7D6
330
1F
100
AcDbEntity
  8
D-STR-STR1
 62
     4
100
AcDbLine
 10
725.9997162349382
 20
1088.992272996149
 30
0.0
 11
725.9997162349382
 21
1080.742272996149
 31
0.0
  0
LINE
  5
E7D7
330
1F
100
AcDbEntity
  8
D-STR-STR1
 62
     4
100
AcDbLine
 10
708.9997362349377
 20
1075.744572996149
 30
0.0
 11
726.5907262349383
 21
1093.335572996149
 31
0.0
  0
DIMENSION
  5
E7D8
330
1F
100
AcDbEntity
  8
D-STR-DIM
 48
10.0
100
AcDbDimension
  2
*D14
 10
1000.000035692774
 20
968.1185183684737
 30
0.0
 11
975.0000356927747
 21
1043.118518368475
 31
0.0
 70
    32
 71
     5
 42
150.0000000000018
  3
S10
100
AcDbAlignedDimension
 13
900.0000356927749
 23
1118.118518368475
 33
0.0
 14
900.0000356927749
 24
968.1185183684737
 34
0.0
 50
90.0
100
AcDbRotatedDimension
  0
DIMENSION
  5
E7D9
330
1F
100
AcDbEntity
  8
D-STR-DIM
 48
10.0
100
AcDbDimension
  2
*D15
 10
749.999938062333
 20
1378.118418368474
 30
0.0
 11
824.9999868775539
 21
1403.118418368474
 31
0.0
 70
    32
 71
     5
 42
150.0000976304418
  3
S10
100
AcDbAlignedDimension
 13
900.0000356927749
 23
1318.117172996149
 33
0.0
 14
749.999938062333
 24
1318.117172996149
 34
0.0
100
AcDbRotatedDimension
  0
MTEXT
  5
E7DA
330
1F
100
AcDbEntity
  8
D-STR-DIM
 48
10.0
100
AcDbMText
 10
1893.216692021496
 20
951.0765598423276
 30
0.0
 40
25.0
 41
0.0
 71
     5
 72
     1
  1
後打コンクリート
 73
     1
 44
1.0
  0
LEADER
  5
E7DB
330
1F
100
AcDbEntity
  8
D-STR-DIM
 48
10.0
100
AcDbLeader
  3
S10
 76
     3
 10
2126.614723920751
 20
1048.866659044895
 30
0.0
 10
2011.324624718187
 20
933.5765598423277
 30
0.0
 10
1768.651804054931
 20
933.5765598423277
 30
0.0
211
-1.0
221
0.0
231
0.0
210
0.0
220
0.0
230
-1.0
  0
LINE
  5
E7DC
330
1F
100
AcDbEntity
  8
D-STR
 62
     0
 48
10.0
100
AcDbLine
 10
2069.999964307224
 20
868.1185183684757
 30
0.0
 11
2069.999964307224
 21
1118.118518368475
 31
0.0
  0
LEADER
  5
E7DD
330
1F
100
AcDbEntity
  8
D-STR-DIM
 48
10.0
100
AcDbLeader
  3
S10
 76
     3
 10
2126.614723920751
 20
914.1846468084949
 30
0.0
 10
2011.324624718187
 20
798.8945476059271
 30
0.0
 10
1835.894842224226
 20
798.8945476059271
 30
0.0
211
-1.0
221
0.0
231
0.0
210
0.0
220
0.0
230
-1.0
  0
MTEXT
  5
E7DE
330
1F
100
AcDbEntity
  8
D-STR-DIM
 48
10.0
100
AcDbMText
 10
1893.216692021496
 20
918.1831911680237
 30
0.0
 40
25.0
 41
0.0
 71
     5
 72
     1
  1
18-8-25BB
 73
     1
 44
1.0
  0
MTEXT
  5
E7DF
330
1F
100
AcDbEntity
  8
D-STR-DIM
 48
10.0
100
AcDbMText
 10
1921.491527607884
 20
783.5011789316231
 30
0.0
 40
25.0
 41
0.0
 71
     5
 72
     1
  1
RC-40
 73
     1
 44
1.0
  0
MTEXT
  5
E7E0
330
1F
100
AcDbEntity
  8
D-STR-DIM
 48
10.0
100
AcDbMText
 10
1921.491527607884
 20
816.394547605927
 30
0.0
 40
25.0
 41
0.0
 71
     5
 72
     1
  1
基礎砕石
 73
     1
 44
1.0
  0
MTEXT
  5
E7E1
330
1F
100
AcDbEntity
  8
D-STR-DIM
 48
10.0
100
AcDbMText
 10
1910.455879439063
 20
1189.169511116702
 30
0.0
 40
25.0
 41
0.0
 71
     5
 72
     1
  1
歩車道境界ブロック
 73
     1
 44
1.0
  0
MTEXT
  5
E7E2
330
1F
100
AcDbEntity
  8
D-STR-DIM
 48
10.0
100
AcDbMText
 10
1893.216692021496
 20
1156.276142442399
 30
0.0
 40
25.0
 41
0.0
 71
     5
 72
     1
  1
サンＫクリア工法
 73
     1
 44
1.0
  0
DIMENSION
  5
E7E3
330
1F
100
AcDbEntity
  8
D-STR-DIM
 48
10.0
100
AcDbDimension
  2
*D16
 10
2220.000104407541
 20
1378.118418368474
 30
0.0
 11
2145.000055592321
 21
1403.118418368474
 31
0.0
 70
    32
 71
     5
 42
150.0000976304399
  3
S10
100
AcDbAlignedDimension
 13
2070.000006777101
 23
1318.117172996149
 33
0.0
 14
2220.000104407541
 24
1318.117172996149
 34
0.0
 50
180.0
100
AcDbRotatedDimension
  0
LINE
  5
E7F7
330
1F
100
AcDbEntity
  8
D-STR
100
AcDbLine
 10
2422.701436234938
 20
1291.102372996149
 30
0.0
 11
2445.000096234938
 21
1068.11727299615
 31
0.0
  0
DIMENSION
  5
E7F8
330
1F
100
AcDbEntity
  8
D-STR-DIM
 48
10.0
100
AcDbDimension
  2
*D17
 10
2690.000035692776
 20
1318.117172996149
 30
0.0
 11
2665.000035692775
 21
1218.117845682313
 31
0.0
 70
    32
 71
     5
 42
199.9986546276741
  3
S10
100
AcDbAlignedDimension
 13
2590.000035692776
 23
1118.118518368475
 33
0.0
 14
2590.000035692776
 24
1318.117172996149
 34
0.0
 50
90.0
100
AcDbRotatedDimension
  0
LEADER
  5
E7F9
330
1F
100
AcDbEntity
  8
D-STR-DIM
 48
10.0
100
AcDbLeader
  3
S10
 76
     3
 10
2399.738155734799
 20
985.5694499262863
 30
0.0
 10
2586.775165386601
 20
798.5324402744882
 30
0.0
 10
2799.554098729148
 20
798.5324402744882
 30
0.0
  0
MTEXT
  5
E7FA
330
1F
100
AcDbEntity
  8
D-STR-DIM
 48
10.0
100
AcDbMText
 10
2697.930021559588
 20
816.0324402744882
 30
0.0
 40
25.0
 41
0.0
 71
     5
 72
     1
  1
敷高調整治具
 73
     1
 44
1.0
  0
DIMENSION
  5
E7FB
330
1F
100
AcDbEntity
  8
D-STR-DIM
 48
10.0
100
AcDbDimension
  2
*D18
 10
2690.000035692776
 20
868.1185183684737
 30
0.0
 11
2665.000035692775
 21
918.1185183684752
 31
0.0
 70
    32
 71
     5
 42
100.0000000000018
  3
S10
100
AcDbAlignedDimension
 13
2590.000035692776
 23
968.1185183684757
 33
0.0
 14
2590.000035692776
 24
868.1185183684737
 34
0.0
 50
90.0
100
AcDbRotatedDimension
  0
LINE
  5
E7FC
330
1F
100
AcDbEntity
  8
D-STR
 62
     0
 48
10.0
100
AcDbLine
 10
2590.000035692776
 20
868.1185183684737
 30
0.0
 11
2590.000035692776
 21
1118.118518368475
 31
0.0
  0
LINE
  5
E7FD
330
1F
100
AcDbEntity
  8
D-STR-STR1
100
AcDbLine
 10
2250.019796234935
 20
1123.76187299615
 30
0.0
 11
2254.375116234938
 21
1128.117172996149
 31
0.0
  0
LINE
  5
E7FE
330
1F
100
AcDbEntity
  8
D-STR-STR1
100
AcDbLine
 10
2251.499986234937
 20
1115.342572996149
 30
0.0
 11
2264.274566234935
 21
1128.117172996149
 31
0.0
  0
LINE
  5
E7FF
330
1F
100
AcDbEntity
  8
D-STR-STR1
100
AcDbLine
 10
2251.499986234937
 20
1105.44317299615
 30
0.0
 11
2268.499966234938
 21
1122.443072996149
 31
0.0
  0
LINE
  5
E800
330
1F
100
AcDbEntity
  8
D-STR-STR1
100
AcDbLine
 10
2251.499986234937
 20
1095.54357299615
 30
0.0
 11
2268.499966234938
 21
1112.54357299615
 31
0.0
  0
LINE
  5
E801
330
1F
100
AcDbEntity
  8
D-STR-STR1
100
AcDbLine
 10
2251.499986234937
 20
1128.117172996149
 30
0.0
 11
2268.499966234938
 21
1128.117172996149
 31
0.0
  0
LINE
  5
E802
330
1F
100
AcDbEntity
  8
D-STR-STR1
100
AcDbLine
 10
2268.499966234938
 20
1120.492172996149
 30
0.0
 11
2268.499966234938
 21
1128.117172996149
 31
0.0
  0
LINE
  5
E803
330
1F
100
AcDbEntity
  8
D-STR-STR1
100
AcDbLine
 10
2270.000006234937
 20
1117.158872996149
 30
0.0
 11
2268.499966234938
 21
1115.492172996149
 31
0.0
  0
LINE
  5
E804
330
1F
100
AcDbEntity
  8
D-STR-STR1
100
AcDbLine
 10
2268.499966234938
 20
1120.492172996149
 30
0.0
 11
2270.000006234937
 21
1118.825572996149
 31
0.0
  0
LINE
  5
E805
330
1F
100
AcDbEntity
  8
D-STR-STR1
100
AcDbLine
 10
2268.499966234938
 20
1115.492172996149
 30
0.0
 11
2268.499966234938
 21
1107.242172996149
 31
0.0
  0
LINE
  5
E806
330
1F
100
AcDbEntity
  8
D-STR-STR1
100
AcDbLine
 10
2270.000006234937
 20
1118.825572996149
 30
0.0
 11
2270.000006234937
 21
1117.158872996149
 31
0.0
  0
LINE
  5
E807
330
1F
100
AcDbEntity
  8
D-STR-STR1
100
AcDbLine
 10
2270.000006234937
 20
1103.908872996149
 30
0.0
 11
2268.499966234938
 21
1102.24227299615
 31
0.0
  0
LINE
  5
E808
330
1F
100
AcDbEntity
  8
D-STR-STR1
100
AcDbLine
 10
2268.499966234938
 20
1107.242172996149
 30
0.0
 11
2270.000006234937
 21
1105.575572996149
 31
0.0
  0
LINE
  5
E809
330
1F
100
AcDbEntity
  8
D-STR-STR1
100
AcDbLine
 10
2268.499966234938
 20
1102.24227299615
 30
0.0
 11
2268.499966234938
 21
1093.99227299615
 31
0.0
  0
LINE
  5
E80A
330
1F
100
AcDbEntity
  8
D-STR-STR1
100
AcDbLine
 10
2270.000006234937
 20
1105.575572996149
 30
0.0
 11
2270.000006234937
 21
1103.908872996149
 31
0.0
  0
LINE
  5
E80B
330
1F
100
AcDbEntity
  8
D-STR-STR1
100
AcDbLine
 10
2268.499966234938
 20
1093.99227299615
 30
0.0
 11
2270.000006234937
 21
1092.32547299615
 31
0.0
  0
LINE
  5
E80C
330
1F
100
AcDbEntity
  8
D-STR-STR1
100
AcDbLine
 10
2270.000006234937
 20
1092.32547299615
 30
0.0
 11
2270.000006234937
 21
1090.658872996149
 31
0.0
  0
LINE
  5
E80D
330
1F
100
AcDbEntity
  8
D-STR-STR1
100
AcDbLine
 10
2251.499986234937
 20
1127.117172996149
 30
0.0
 11
2251.499986234937
 21
1128.117172996149
 31
0.0
  0
LINE
  5
E80E
330
1F
100
AcDbEntity
  8
D-STR-STR1
100
AcDbLine
 10
2250.000006234937
 20
1123.783872996149
 30
0.0
 11
2251.499986234937
 21
1122.117172996149
 31
0.0
  0
LINE
  5
E80F
330
1F
100
AcDbEntity
  8
D-STR-STR1
100
AcDbLine
 10
2251.499986234937
 20
1127.117172996149
 30
0.0
 11
2250.000006234937
 21
1125.450572996149
 31
0.0
  0
LINE
  5
E810
330
1F
100
AcDbEntity
  8
D-STR-STR1
100
AcDbLine
 10
2251.499986234937
 20
1122.117172996149
 30
0.0
 11
2251.499986234937
 21
1113.86727299615
 31
0.0
  0
LINE
  5
E811
330
1F
100
AcDbEntity
  8
D-STR-STR1
100
AcDbLine
 10
2250.000006234937
 20
1125.450572996149
 30
0.0
 11
2250.000006234937
 21
1123.783872996149
 31
0.0
  0
LINE
  5
E812
330
1F
100
AcDbEntity
  8
D-STR-STR1
100
AcDbLine
 10
2250.000006234937
 20
1110.533872996149
 30
0.0
 11
2251.499986234937
 21
1108.86727299615
 31
0.0
  0
LINE
  5
E813
330
1F
100
AcDbEntity
  8
D-STR-STR1
100
AcDbLine
 10
2251.499986234937
 20
1113.86727299615
 30
0.0
 11
2250.000006234937
 21
1112.20047299615
 31
0.0
  0
LINE
  5
E814
330
1F
100
AcDbEntity
  8
D-STR-STR1
100
AcDbLine
 10
2251.499986234937
 20
1108.86727299615
 30
0.0
 11
2251.499986234937
 21
1100.61727299615
 31
0.0
  0
LINE
  5
E815
330
1F
100
AcDbEntity
  8
D-STR-STR1
100
AcDbLine
 10
2250.000006234937
 20
1112.20047299615
 30
0.0
 11
2250.000006234937
 21
1110.533872996149
 31
0.0
  0
LINE
  5
E816
330
1F
100
AcDbEntity
  8
D-STR-STR1
100
AcDbLine
 10
2250.000006234937
 20
1097.283872996149
 30
0.0
 11
2251.499986234937
 21
1095.617172996149
 31
0.0
  0
LINE
  5
E817
330
1F
100
AcDbEntity
  8
D-STR-STR1
100
AcDbLine
 10
2251.499986234937
 20
1100.61727299615
 30
0.0
 11
2250.000006234937
 21
1098.950572996149
 31
0.0
  0
LINE
  5
E818
330
1F
100
AcDbEntity
  8
D-STR-STR1
100
AcDbLine
 10
2250.000006234937
 20
1098.950572996149
 30
0.0
 11
2250.000006234937
 21
1097.283872996149
 31
0.0
  0
LINE
  5
E819
330
1F
100
AcDbEntity
  8
D-STR-STR1
100
AcDbLine
 10
2391.499956234935
 20
1115.342572996149
 30
0.0
 11
2404.274526234936
 21
1128.117172996149
 31
0.0
  0
LINE
  5
E81A
330
1F
100
AcDbEntity
  8
D-STR-STR1
100
AcDbLine
 10
2391.499956234935
 20
1105.44317299615
 30
0.0
 11
2408.499936234935
 21
1122.443072996149
 31
0.0
  0
LINE
  5
E81B
330
1F
100
AcDbEntity
  8
D-STR-STR1
100
AcDbLine
 10
2391.499956234935
 20
1095.54357299615
 30
0.0
 11
2408.499936234935
 21
1112.54357299615
 31
0.0
  0
LINE
  5
E81C
330
1F
100
AcDbEntity
  8
D-STR-STR1
100
AcDbLine
 10
2391.499956234935
 20
1128.117172996149
 30
0.0
 11
2408.499936234935
 21
1128.117172996149
 31
0.0
  0
LINE
  5
E81D
330
1F
100
AcDbEntity
  8
D-STR-STR1
100
AcDbLine
 10
2390.019766234936
 20
1123.76187299615
 30
0.0
 11
2394.375076234939
 21
1128.117172996149
 31
0.0
  0
LINE
  5
E81E
330
1F
100
AcDbEntity
  8
D-STR-STR1
100
AcDbLine
 10
2391.499956234935
 20
1127.117172996149
 30
0.0
 11
2391.499956234935
 21
1128.117172996149
 31
0.0
  0
LINE
  5
E81F
330
1F
100
AcDbEntity
  8
D-STR-STR1
100
AcDbLine
 10
2389.999976234934
 20
1123.783872996149
 30
0.0
 11
2391.499956234935
 21
1122.117172996149
 31
0.0
  0
LINE
  5
E820
330
1F
100
AcDbEntity
  8
D-STR-STR1
100
AcDbLine
 10
2391.499956234935
 20
1127.117172996149
 30
0.0
 11
2389.999976234934
 21
1125.450572996149
 31
0.0
  0
LINE
  5
E821
330
1F
100
AcDbEntity
  8
D-STR-STR1
100
AcDbLine
 10
2391.499956234935
 20
1122.117172996149
 30
0.0
 11
2391.499956234935
 21
1113.86727299615
 31
0.0
  0
LINE
  5
E822
330
1F
100
AcDbEntity
  8
D-STR-STR1
100
AcDbLine
 10
2389.999976234934
 20
1125.450572996149
 30
0.0
 11
2389.999976234934
 21
1123.783872996149
 31
0.0
  0
LINE
  5
E823
330
1F
100
AcDbEntity
  8
D-STR-STR1
100
AcDbLine
 10
2389.999976234934
 20
1110.533872996149
 30
0.0
 11
2391.499956234935
 21
1108.86727299615
 31
0.0
  0
LINE
  5
E824
330
1F
100
AcDbEntity
  8
D-STR-STR1
100
AcDbLine
 10
2391.499956234935
 20
1113.86727299615
 30
0.0
 11
2389.999976234934
 21
1112.20047299615
 31
0.0
  0
LINE
  5
E825
330
1F
100
AcDbEntity
  8
D-STR-STR1
100
AcDbLine
 10
2391.499956234935
 20
1108.86727299615
 30
0.0
 11
2391.499956234935
 21
1100.61727299615
 31
0.0
  0
LINE
  5
E826
330
1F
100
AcDbEntity
  8
D-STR-STR1
100
AcDbLine
 10
2389.999976234934
 20
1112.20047299615
 30
0.0
 11
2389.999976234934
 21
1110.533872996149
 31
0.0
  0
LINE
  5
E827
330
1F
100
AcDbEntity
  8
D-STR-STR1
100
AcDbLine
 10
2389.999976234934
 20
1097.283872996149
 30
0.0
 11
2391.499956234935
 21
1095.617172996149
 31
0.0
  0
LINE
  5
E828
330
1F
100
AcDbEntity
  8
D-STR-STR1
100
AcDbLine
 10
2391.499956234935
 20
1100.61727299615
 30
0.0
 11
2389.999976234934
 21
1098.950572996149
 31
0.0
  0
LINE
  5
E829
330
1F
100
AcDbEntity
  8
D-STR-STR1
100
AcDbLine
 10
2389.999976234934
 20
1098.950572996149
 30
0.0
 11
2389.999976234934
 21
1097.283872996149
 31
0.0
  0
LINE
  5
E82A
330
1F
100
AcDbEntity
  8
D-STR-STR1
100
AcDbLine
 10
2408.499936234935
 20
1120.492172996149
 30
0.0
 11
2408.499936234935
 21
1128.117172996149
 31
0.0
  0
LINE
  5
E82B
330
1F
100
AcDbEntity
  8
D-STR-STR1
100
AcDbLine
 10
2409.999976234934
 20
1117.158872996149
 30
0.0
 11
2408.499936234935
 21
1115.492172996149
 31
0.0
  0
LINE
  5
E82C
330
1F
100
AcDbEntity
  8
D-STR-STR1
100
AcDbLine
 10
2408.499936234935
 20
1120.492172996149
 30
0.0
 11
2409.999976234934
 21
1118.825572996149
 31
0.0
  0
LINE
  5
E82D
330
1F
100
AcDbEntity
  8
D-STR-STR1
100
AcDbLine
 10
2408.499936234935
 20
1115.492172996149
 30
0.0
 11
2408.499936234935
 21
1107.242172996149
 31
0.0
  0
LINE
  5
E82E
330
1F
100
AcDbEntity
  8
D-STR-STR1
100
AcDbLine
 10
2409.999976234934
 20
1118.825572996149
 30
0.0
 11
2409.999976234934
 21
1117.158872996149
 31
0.0
  0
LINE
  5
E82F
330
1F
100
AcDbEntity
  8
D-STR-STR1
100
AcDbLine
 10
2409.999976234934
 20
1103.908872996149
 30
0.0
 11
2408.499936234935
 21
1102.24227299615
 31
0.0
  0
LINE
  5
E830
330
1F
100
AcDbEntity
  8
D-STR-STR1
100
AcDbLine
 10
2408.499936234935
 20
1107.242172996149
 30
0.0
 11
2409.999976234934
 21
1105.575572996149
 31
0.0
  0
LINE
  5
E831
330
1F
100
AcDbEntity
  8
D-STR-STR1
100
AcDbLine
 10
2408.499936234935
 20
1102.24227299615
 30
0.0
 11
2408.499936234935
 21
1093.99227299615
 31
0.0
  0
LINE
  5
E832
330
1F
100
AcDbEntity
  8
D-STR-STR1
100
AcDbLine
 10
2409.999976234934
 20
1105.575572996149
 30
0.0
 11
2409.999976234934
 21
1103.908872996149
 31
0.0
  0
LINE
  5
E833
330
1F
100
AcDbEntity
  8
D-STR-STR1
100
AcDbLine
 10
2408.499936234935
 20
1093.99227299615
 30
0.0
 11
2409.999976234934
 21
1092.32547299615
 31
0.0
  0
LINE
  5
E834
330
1F
100
AcDbEntity
  8
D-STR-STR1
100
AcDbLine
 10
2409.999976234934
 20
1092.32547299615
 30
0.0
 11
2409.999976234934
 21
1090.658872996149
 31
0.0
  0
LINE
  5
E835
330
1F
100
AcDbEntity
  8
D-STR-STR1
 62
     6
100
AcDbLine
 10
2389.999906234936
 20
1008.11727299615
 30
0.0
 11
2269.999886234936
 21
1008.11727299615
 31
0.0
  0
LINE
  5
E836
330
1F
100
AcDbEntity
  8
D-STR-STR1
 62
     6
100
AcDbLine
 10
2389.999906234936
 20
1018.11737299615
 30
0.0
 11
2269.999886234936
 21
1018.11737299615
 31
0.0
  0
LINE
  5
E838
330
1F
100
AcDbEntity
  8
D-STR-STR1
100
AcDbLine
 10
2268.499966234938
 20
1088.99227299615
 30
0.0
 11
2268.499966234938
 21
1080.74227299615
 31
0.0
  0
LINE
  5
E839
330
1F
100
AcDbEntity
  8
D-STR-STR1
100
AcDbLine
 10
2250.000006234937
 20
1084.033972996149
 30
0.0
 11
2251.499986234937
 21
1082.367172996149
 31
0.0
  0
LINE
  5
E83A
330
1F
100
AcDbEntity
  8
D-STR-STR1
 62
     6
100
AcDbLine
 10
2264.999996234937
 20
1068.11727299615
 30
0.0
 11
2264.999996234937
 21
1023.11737299615
 31
0.0
  0
LINE
  5
E83C
330
1F
100
AcDbEntity
  8
D-STR-STR1
 62
     6
100
AcDbLine
 10
2254.999956234934
 20
1068.11727299615
 30
0.0
 11
2254.999956234934
 21
1023.11737299615
 31
0.0
  0
ARC
  5
E83D
330
1F
100
AcDbEntity
  8
D-STR-STR1
 62
     6
100
AcDbCircle
 10
2269.999886234936
 20
1023.11737299615
 30
0.0
 40
4.9999995
100
AcDbArc
 50
180.0
 51
270.0
  0
ARC
  5
E83E
330
1F
100
AcDbEntity
  8
D-STR-STR1
 62
     6
100
AcDbCircle
 10
2269.999886234936
 20
1023.11737299615
 30
0.0
 40
14.99999899999999
100
AcDbArc
 50
180.0
 51
270.0
  0
LINE
  5
E840
330
1F
100
AcDbEntity
  8
D-STR-STR1
100
AcDbLine
 10
2253.772166234937
 20
1068.11727299615
 30
0.0
 11
2268.499966234938
 21
1082.84497299615
 31
0.0
  0
LINE
  5
E841
330
1F
100
AcDbEntity
  8
D-STR-STR1
100
AcDbLine
 10
2263.671676234936
 20
1068.11727299615
 30
0.0
 11
2268.499966234938
 21
1072.94557299615
 31
0.0
  0
LINE
  5
E842
330
1F
100
AcDbEntity
  8
D-STR-STR1
100
AcDbLine
 10
2268.499966234938
 20
1075.74227299615
 30
0.0
 11
2268.499966234938
 21
1068.11727299615
 31
0.0
  0
LINE
  5
E843
330
1F
100
AcDbEntity
  8
D-STR-STR1
100
AcDbLine
 10
2270.000006234937
 20
1077.408872996149
 30
0.0
 11
2268.499966234938
 21
1075.74227299615
 31
0.0
  0
LINE
  5
E844
330
1F
100
AcDbEntity
  8
D-STR-STR1
100
AcDbLine
 10
2268.499966234938
 20
1080.74227299615
 30
0.0
 11
2270.000006234937
 21
1079.075572996149
 31
0.0
  0
LINE
  5
E845
330
1F
100
AcDbEntity
  8
D-STR-STR1
100
AcDbLine
 10
2270.000006234937
 20
1079.075572996149
 30
0.0
 11
2270.000006234937
 21
1077.408872996149
 31
0.0
  0
LINE
  5
E846
330
1F
100
AcDbEntity
  8
D-STR-STR1
100
AcDbLine
 10
2250.000006234937
 20
1070.783872996149
 30
0.0
 11
2251.499986234937
 21
1069.11727299615
 31
0.0
  0
LINE
  5
E847
330
1F
100
AcDbEntity
  8
D-STR-STR1
100
AcDbLine
 10
2251.499986234937
 20
1074.117272996151
 30
0.0
 11
2250.000006234937
 21
1072.450572996149
 31
0.0
  0
LINE
  5
E848
330
1F
100
AcDbEntity
  8
D-STR-STR1
100
AcDbLine
 10
2251.499986234937
 20
1082.367172996149
 30
0.0
 11
2251.499986234937
 21
1074.117272996151
 31
0.0
  0
LINE
  5
E849
330
1F
100
AcDbEntity
  8
D-STR-STR1
100
AcDbLine
 10
2251.499986234937
 20
1069.11727299615
 30
0.0
 11
2251.499986234937
 21
1068.11727299615
 31
0.0
  0
LINE
  5
E84A
330
1F
100
AcDbEntity
  8
D-STR-STR1
100
AcDbLine
 10
2250.000006234937
 20
1072.450572996149
 30
0.0
 11
2250.000006234937
 21
1070.783872996149
 31
0.0
  0
POINT
  5
E84B
330
1F
100
AcDbEntity
  8
D-STR-STR1
100
AcDbPoint
 10
2259.999976234934
 20
1068.11727299615
 30
0.0
  0
LINE
  5
E84C
330
1F
100
AcDbEntity
  8
D-STR-STR1
100
AcDbLine
 10
2251.499986234937
 20
1087.367172996149
 30
0.0
 11
2250.000006234937
 21
1085.700572996149
 31
0.0
  0
LINE
  5
E84D
330
1F
100
AcDbEntity
  8
D-STR-STR1
100
AcDbLine
 10
2250.000006234937
 20
1085.700572996149
 30
0.0
 11
2250.000006234937
 21
1084.033972996149
 31
0.0
  0
LINE
  5
E84E
330
1F
100
AcDbEntity
  8
D-STR-STR1
100
AcDbLine
 10
2408.499936234935
 20
1088.99227299615
 30
0.0
 11
2408.499936234935
 21
1080.74227299615
 31
0.0
  0
LINE
  5
E84F
330
1F
100
AcDbEntity
  8
D-STR-STR1
100
AcDbLine
 10
2389.999976234934
 20
1084.033972996149
 30
0.0
 11
2391.499956234935
 21
1082.367172996149
 31
0.0
  0
LINE
  5
E850
330
1F
100
AcDbEntity
  8
D-STR-STR1
 62
     6
100
AcDbLine
 10
2404.999956234934
 20
1068.11727299615
 30
0.0
 11
2404.999956234934
 21
1023.11737299615
 31
0.0
  0
LINE
  5
E852
330
1F
100
AcDbEntity
  8
D-STR-STR1
 62
     6
100
AcDbLine
 10
2394.999926234939
 20
1068.11727299615
 30
0.0
 11
2394.999926234939
 21
1023.11737299615
 31
0.0
  0
ARC
  5
E853
330
1F
100
AcDbEntity
  8
D-STR-STR1
 62
     6
100
AcDbCircle
 10
2389.999906234936
 20
1023.11737299615
 30
0.0
 40
14.99999899999999
100
AcDbArc
 50
270.0
 51
0.0
  0
ARC
  5
E854
330
1F
100
AcDbEntity
  8
D-STR-STR1
 62
     6
100
AcDbCircle
 10
2389.999906234936
 20
1023.11737299615
 30
0.0
 40
4.9999995
100
AcDbArc
 50
270.0
 51
0.0
  0
LINE
  5
E856
330
1F
100
AcDbEntity
  8
D-STR-STR1
100
AcDbLine
 10
2393.772126234938
 20
1068.11727299615
 30
0.0
 11
2408.499936234935
 21
1082.84497299615
 31
0.0
  0
LINE
  5
E857
330
1F
100
AcDbEntity
  8
D-STR-STR1
100
AcDbLine
 10
2389.999976234934
 20
1070.783872996149
 30
0.0
 11
2391.499956234935
 21
1069.11727299615
 31
0.0
  0
LINE
  5
E858
330
1F
100
AcDbEntity
  8
D-STR-STR1
100
AcDbLine
 10
2391.499956234935
 20
1074.117272996151
 30
0.0
 11
2389.999976234934
 21
1072.450572996149
 31
0.0
  0
LINE
  5
E859
330
1F
100
AcDbEntity
  8
D-STR-STR1
100
AcDbLine
 10
2391.499956234935
 20
1082.367172996149
 30
0.0
 11
2391.499956234935
 21
1074.117272996151
 31
0.0
  0
LINE
  5
E85A
330
1F
100
AcDbEntity
  8
D-STR-STR1
100
AcDbLine
 10
2391.499956234935
 20
1069.11727299615
 30
0.0
 11
2391.499956234935
 21
1068.11727299615
 31
0.0
  0
LINE
  5
E85B
330
1F
100
AcDbEntity
  8
D-STR-STR1
100
AcDbLine
 10
2389.999976234934
 20
1072.450572996149
 30
0.0
 11
2389.999976234934
 21
1070.783872996149
 31
0.0
  0
POINT
  5
E85C
330
1F
100
AcDbEntity
  8
D-STR-STR1
100
AcDbPoint
 10
2399.999946234939
 20
1068.11727299615
 30
0.0
  0
LINE
  5
E85D
330
1F
100
AcDbEntity
  8
D-STR-STR1
100
AcDbLine
 10
2403.671646234938
 20
1068.11727299615
 30
0.0
 11
2408.499936234935
 21
1072.94557299615
 31
0.0
  0
LINE
  5
E85E
330
1F
100
AcDbEntity
  8
D-STR-STR1
100
AcDbLine
 10
2408.499936234935
 20
1075.74227299615
 30
0.0
 11
2408.499936234935
 21
1068.11727299615
 31
0.0
  0
LINE
  5
E85F
330
1F
100
AcDbEntity
  8
D-STR-STR1
100
AcDbLine
 10
2409.999976234934
 20
1077.408872996149
 30
0.0
 11
2408.499936234935
 21
1075.74227299615
 31
0.0
  0
LINE
  5
E860
330
1F
100
AcDbEntity
  8
D-STR-STR1
100
AcDbLine
 10
2408.499936234935
 20
1080.74227299615
 30
0.0
 11
2409.999976234934
 21
1079.075572996149
 31
0.0
  0
LINE
  5
E861
330
1F
100
AcDbEntity
  8
D-STR-STR1
100
AcDbLine
 10
2409.999976234934
 20
1079.075572996149
 30
0.0
 11
2409.999976234934
 21
1077.408872996149
 31
0.0
  0
LINE
  5
E862
330
1F
100
AcDbEntity
  8
D-STR-STR1
100
AcDbLine
 10
2391.499956234935
 20
1087.367172996149
 30
0.0
 11
2389.999976234934
 21
1085.700572996149
 31
0.0
  0
LINE
  5
E863
330
1F
100
AcDbEntity
  8
D-STR-STR1
100
AcDbLine
 10
2389.999976234934
 20
1085.700572996149
 30
0.0
 11
2389.999976234934
 21
1084.033972996149
 31
0.0
  0
LINE
  5
E864
330
1F
100
AcDbEntity
  8
D-STR-STR1
100
AcDbLine
 10
2251.499986234937
 20
1075.744572996151
 30
0.0
 11
2269.090976234934
 21
1093.335572996149
 31
0.0
  0
LINE
  5
E865
330
1F
100
AcDbEntity
  8
D-STR-STR1
100
AcDbLine
 10
2250.000006234937
 20
1084.14407299615
 30
0.0
 11
2270.000006234937
 21
1104.14407299615
 31
0.0
  0
LINE
  5
E866
330
1F
100
AcDbEntity
  8
D-STR-STR1
100
AcDbLine
 10
2270.000006234937
 20
1090.658872996149
 30
0.0
 11
2268.499966234938
 21
1088.99227299615
 31
0.0
  0
LINE
  5
E867
330
1F
100
AcDbEntity
  8
D-STR-STR1
100
AcDbLine
 10
2251.499986234937
 20
1095.617172996149
 30
0.0
 11
2251.499986234937
 21
1087.367172996149
 31
0.0
  0
LINE
  5
E868
330
1F
100
AcDbEntity
  8
D-STR-STR1
100
AcDbLine
 10
2391.499956234935
 20
1075.744572996151
 30
0.0
 11
2409.090946234939
 21
1093.335572996149
 31
0.0
  0
LINE
  5
E869
330
1F
100
AcDbEntity
  8
D-STR-STR1
100
AcDbLine
 10
2389.999976234934
 20
1084.14407299615
 30
0.0
 11
2409.999976234934
 21
1104.14407299615
 31
0.0
  0
LINE
  5
E86A
330
1F
100
AcDbEntity
  8
D-STR-STR1
100
AcDbLine
 10
2391.499956234935
 20
1095.617172996149
 30
0.0
 11
2391.499956234935
 21
1087.367172996149
 31
0.0
  0
LINE
  5
E86B
330
1F
100
AcDbEntity
  8
D-STR-STR1
100
AcDbLine
 10
2409.999976234934
 20
1090.658872996149
 30
0.0
 11
2408.499936234935
 21
1088.99227299615
 31
0.0
  0
LINE
  5
E86C
330
1F
100
AcDbEntity
  8
D-STR-STR1
 62
     6
100
AcDbLine
 10
2256.000086234938
 20
1028.118522368475
 30
0.0
 11
2256.000086234938
 21
1003.118522368475
 31
0.0
  0
ARC
  5
E86D
330
1F
100
AcDbEntity
  8
D-STR-STR1
 62
     6
100
AcDbCircle
 10
2260.000096234938
 20
986.6185383684751
 30
0.0
 40
18.50002
100
AcDbArc
 50
251.0753999999773
 51
288.9246100000221
  0
ARC
  5
E86E
330
1F
100
AcDbEntity
  8
D-STR-STR1
100
AcDbCircle
 10
2252.300086234938
 20
974.9735383684747
 30
0.0
 40
3.144991399999999
100
AcDbArc
 50
43.00271999997882
 51
136.9971319999035
  0
LINE
  5
E86F
330
1F
100
AcDbEntity
  8
D-STR-STR1
100
AcDbLine
 10
2254.600096234937
 20
977.1185263684747
 30
0.0
 11
2254.600096234937
 21
968.1185143684743
 31
0.0
  0
LINE
  5
E870
330
1F
100
AcDbEntity
  8
D-STR-STR1
100
AcDbLine
 10
2250.000116234938
 20
977.1185503684755
 30
0.0
 11
2250.000116234938
 21
968.1185143684743
 31
0.0
  0
ARC
  5
E871
330
1F
100
AcDbEntity
  8
D-STR-STR1
100
AcDbCircle
 10
2267.700106234939
 20
974.9735383684747
 30
0.0
 40
3.144991399999999
100
AcDbArc
 50
43.00286999999051
 51
136.9972839999616
  0
LINE
  5
E872
330
1F
100
AcDbEntity
  8
D-STR-STR1
100
AcDbLine
 10
2265.40009623494
 20
977.1185263684747
 30
0.0
 11
2265.40009623494
 21
968.1185143684743
 31
0.0
  0
LINE
  5
E873
330
1F
100
AcDbEntity
  8
D-STR-STR1
100
AcDbLine
 10
2270.000076234939
 20
977.1185193684742
 30
0.0
 11
2270.000076234939
 21
968.1185143684743
 31
0.0
  0
LINE
  5
E874
330
1F
100
AcDbEntity
  8
D-STR-STR1
100
AcDbLine
 10
2252.300086234938
 20
978.1185293684739
 30
0.0
 11
2267.700106234939
 21
978.1185293684739
 31
0.0
  0
ARC
  5
E875
330
1F
100
AcDbEntity
  8
D-STR-STR1
100
AcDbCircle
 10
2260.000096234938
 20
963.0384643684738
 30
0.0
 40
15.08005599999999
100
AcDbArc
 50
69.01712999997489
 51
110.9828800000544
  0
LINE
  5
E876
330
1F
100
AcDbEntity
  8
D-STR-STR1
 62
     6
100
AcDbLine
 10
2254.000106234938
 20
1049.118502368473
 30
0.0
 11
2254.600096234937
 21
1048.118512368473
 31
0.0
  0
LINE
  5
E877
330
1F
100
AcDbEntity
  8
D-STR-STR1
 62
     6
100
AcDbLine
 10
2265.40009623494
 20
1048.118512368473
 30
0.0
 11
2266.000096234938
 21
1049.118502368473
 31
0.0
  0
LINE
  5
E878
330
1F
100
AcDbEntity
  8
D-STR-STR1
 62
     6
100
AcDbLine
 10
2254.000106234938
 20
1049.118502368473
 30
0.0
 11
2266.000096234938
 21
1049.118502368473
 31
0.0
  0
LINE
  5
E879
330
1F
100
AcDbEntity
  8
D-STR-STR1
 62
     6
100
AcDbLine
 10
2254.600096234937
 20
1048.118512368473
 30
0.0
 11
2265.40009623494
 21
1048.118512368473
 31
0.0
  0
LINE
  5
E87A
330
1F
100
AcDbEntity
  8
D-STR-STR1
 62
     6
100
AcDbLine
 10
2254.600096234937
 20
1028.118522368475
 30
0.0
 11
2256.000086234938
 21
1028.118522368475
 31
0.0
  0
LINE
  5
E87B
330
1F
100
AcDbEntity
  8
D-STR-STR1
 62
     6
100
AcDbLine
 10
2254.600096234937
 20
998.1185223684752
 30
0.0
 11
2254.000106234938
 21
997.1185323684748
 31
0.0
  0
LINE
  5
E87C
330
1F
100
AcDbEntity
  8
D-STR-STR1
 62
     6
100
AcDbLine
 10
2254.000106234938
 20
997.1185223684752
 30
0.0
 11
2254.000106234938
 21
969.1185123684736
 31
0.0
  0
LINE
  5
E87D
330
1F
100
AcDbEntity
  8
D-STR-STR1
 62
     6
100
AcDbLine
 10
2255.000106234938
 20
997.1185223684752
 30
0.0
 11
2255.000106234938
 21
969.1185123684736
 31
0.0
  0
LINE
  5
E87E
330
1F
100
AcDbEntity
  8
D-STR-STR1
 62
     6
100
AcDbLine
 10
2254.600096234937
 20
1003.118522368475
 30
0.0
 11
2254.600096234937
 21
998.1185223684752
 31
0.0
  0
LINE
  5
E87F
330
1F
100
AcDbEntity
  8
D-STR-STR1
 62
     6
100
AcDbLine
 10
2264.000106234938
 20
1028.118522368475
 30
0.0
 11
2265.40009623494
 21
1028.118522368475
 31
0.0
  0
LINE
  5
E880
330
1F
100
AcDbEntity
  8
D-STR-STR1
 62
     6
100
AcDbLine
 10
2264.000106234938
 20
1028.118522368475
 30
0.0
 11
2264.000106234938
 21
1003.118522368475
 31
0.0
  0
LINE
  5
E881
330
1F
100
AcDbEntity
  8
D-STR-STR1
 62
     6
100
AcDbLine
 10
2266.000096234938
 20
997.1185323684748
 30
0.0
 11
2265.40009623494
 21
998.1185223684752
 31
0.0
  0
LINE
  5
E882
330
1F
100
AcDbEntity
  8
D-STR-STR1
 62
     6
100
AcDbLine
 10
2265.000086234939
 20
997.1185223684752
 30
0.0
 11
2265.000086234939
 21
969.1185123684736
 31
0.0
  0
LINE
  5
E883
330
1F
100
AcDbEntity
  8
D-STR-STR1
 62
     6
100
AcDbLine
 10
2266.000096234938
 20
997.1185223684752
 30
0.0
 11
2266.000096234938
 21
969.1185123684736
 31
0.0
  0
LINE
  5
E884
330
1F
100
AcDbEntity
  8
D-STR-STR1
 62
     6
100
AcDbLine
 10
2265.40009623494
 20
1003.118522368475
 30
0.0
 11
2265.40009623494
 21
998.1185223684752
 31
0.0
  0
LINE
  5
E885
330
1F
100
AcDbEntity
  8
D-STR-STR1
 62
     6
100
AcDbLine
 10
2254.600096234937
 20
1003.118522368475
 30
0.0
 11
2265.40009623494
 21
1003.118522368475
 31
0.0
  0
LINE
  5
E886
330
1F
100
AcDbEntity
  8
D-STR-STR1
 62
     6
100
AcDbLine
 10
2266.000096234938
 20
997.1185323684748
 30
0.0
 11
2254.000106234938
 21
997.1185323684748
 31
0.0
  0
LINE
  5
E887
330
1F
100
AcDbEntity
  8
D-STR-STR1
 62
     6
100
AcDbLine
 10
2265.40009623494
 20
998.1185223684752
 30
0.0
 11
2254.600096234937
 21
998.1185223684752
 31
0.0
  0
LINE
  5
E888
330
1F
100
AcDbEntity
  8
D-STR-STR1
 62
     6
100
AcDbLine
 10
2254.600096234937
 20
1048.118512368473
 30
0.0
 11
2254.600096234937
 21
1028.118522368475
 31
0.0
  0
LINE
  5
E889
330
1F
100
AcDbEntity
  8
D-STR-STR1
 62
     6
100
AcDbLine
 10
2265.40009623494
 20
1048.118512368473
 30
0.0
 11
2265.40009623494
 21
1028.118522368475
 31
0.0
  0
LINE
  5
E88A
330
1F
100
AcDbEntity
  8
D-STR-STR1
 62
     6
100
AcDbLine
 10
2254.000106234938
 20
1068.117272996149
 30
0.0
 11
2254.000106234938
 21
1049.118502368473
 31
0.0
  0
LINE
  5
E88B
330
1F
100
AcDbEntity
  8
D-STR-STR1
 62
     6
100
AcDbLine
 10
2255.000106234934
 20
1068.11727299615
 30
0.0
 11
2255.000106234938
 21
1049.118502368473
 31
0.0
  0
LINE
  5
E88C
330
1F
100
AcDbEntity
  8
D-STR-STR1
 62
     6
100
AcDbLine
 10
2265.000086234942
 20
1068.117272996149
 30
0.0
 11
2265.000086234939
 21
1049.118502368473
 31
0.0
  0
LINE
  5
E88D
330
1F
100
AcDbEntity
  8
D-STR-STR1
 62
     6
100
AcDbLine
 10
2266.000096234938
 20
1068.117272996149
 30
0.0
 11
2266.000096234938
 21
1049.118502368473
 31
0.0
  0
ARC
  5
E88E
330
1F
100
AcDbEntity
  8
D-STR-STR1
 62
     6
100
AcDbCircle
 10
2399.999946234939
 20
986.6185383684751
 30
0.0
 40
18.50002
100
AcDbArc
 50
251.0753899999778
 51
288.9246000000225
  0
ARC
  5
E88F
330
1F
100
AcDbEntity
  8
D-STR-STR1
100
AcDbCircle
 10
2407.699956234939
 20
974.9735383684747
 30
0.0
 40
3.144991399999999
100
AcDbArc
 50
43.00286800009651
 51
136.9972800000212
  0
LINE
  5
E890
330
1F
100
AcDbEntity
  8
D-STR-STR1
100
AcDbLine
 10
2405.39994623494
 20
977.1185263684747
 30
0.0
 11
2405.39994623494
 21
968.1185143684743
 31
0.0
  0
LINE
  5
E891
330
1F
100
AcDbEntity
  8
D-STR-STR1
100
AcDbLine
 10
2409.999926234939
 20
977.1185503684755
 30
0.0
 11
2409.999926234939
 21
968.1185143684743
 31
0.0
  0
ARC
  5
E892
330
1F
100
AcDbEntity
  8
D-STR-STR1
100
AcDbCircle
 10
2392.299936234938
 20
974.9735383684747
 30
0.0
 40
3.144991399999999
100
AcDbArc
 50
43.00271600003836
 51
136.9971300000095
  0
LINE
  5
E893
330
1F
100
AcDbEntity
  8
D-STR-STR1
100
AcDbLine
 10
2394.599946234937
 20
977.1185263684747
 30
0.0
 11
2394.599946234937
 21
968.1185143684743
 31
0.0
  0
LINE
  5
E894
330
1F
100
AcDbEntity
  8
D-STR-STR1
100
AcDbLine
 10
2389.999966234938
 20
977.1185193684742
 30
0.0
 11
2389.999966234938
 21
968.1185143684743
 31
0.0
  0
LINE
  5
E895
330
1F
100
AcDbEntity
  8
D-STR-STR1
100
AcDbLine
 10
2407.699956234939
 20
978.1185293684739
 30
0.0
 11
2392.299936234938
 21
978.1185293684739
 31
0.0
  0
ARC
  5
E896
330
1F
100
AcDbEntity
  8
D-STR-STR1
100
AcDbCircle
 10
2399.999946234939
 20
963.0384643684738
 30
0.0
 40
15.08005599999999
100
AcDbArc
 50
69.01711999994555
 51
110.9828700000251
  0
LINE
  5
E897
330
1F
100
AcDbEntity
  8
D-STR-STR1
 62
     6
100
AcDbLine
 10
2405.999936234939
 20
1049.118502368473
 30
0.0
 11
2405.39994623494
 21
1048.118512368473
 31
0.0
  0
LINE
  5
E898
330
1F
100
AcDbEntity
  8
D-STR-STR1
 62
     6
100
AcDbLine
 10
2404.999936234943
 20
1068.11727299615
 30
0.0
 11
2404.999936234939
 21
1049.118502368473
 31
0.0
  0
LINE
  5
E899
330
1F
100
AcDbEntity
  8
D-STR-STR1
 62
     6
100
AcDbLine
 10
2405.999936234939
 20
1068.117272996149
 30
0.0
 11
2405.999936234939
 21
1049.118502368473
 31
0.0
  0
LINE
  5
E89A
330
1F
100
AcDbEntity
  8
D-STR-STR1
 62
     6
100
AcDbLine
 10
2394.599946234937
 20
1048.118512368473
 30
0.0
 11
2393.999946234938
 21
1049.118502368473
 31
0.0
  0
LINE
  5
E89B
330
1F
100
AcDbEntity
  8
D-STR-STR1
 62
     6
100
AcDbLine
 10
2393.999946234938
 20
1068.117272996149
 30
0.0
 11
2393.999946234938
 21
1049.118502368473
 31
0.0
  0
LINE
  5
E89C
330
1F
100
AcDbEntity
  8
D-STR-STR1
 62
     6
100
AcDbLine
 10
2394.999956234934
 20
1068.117272996149
 30
0.0
 11
2394.999956234938
 21
1049.118502368473
 31
0.0
  0
LINE
  5
E89D
330
1F
100
AcDbEntity
  8
D-STR-STR1
 62
     6
100
AcDbLine
 10
2405.999936234939
 20
1049.118502368473
 30
0.0
 11
2393.999946234938
 21
1049.118502368473
 31
0.0
  0
LINE
  5
E89E
330
1F
100
AcDbEntity
  8
D-STR-STR1
 62
     6
100
AcDbLine
 10
2405.39994623494
 20
1048.118512368473
 30
0.0
 11
2394.599946234937
 21
1048.118512368473
 31
0.0
  0
LINE
  5
E89F
330
1F
100
AcDbEntity
  8
D-STR-STR1
 62
     6
100
AcDbLine
 10
2405.39994623494
 20
1028.118522368475
 30
0.0
 11
2403.999956234939
 21
1028.118522368475
 31
0.0
  0
LINE
  5
E8A0
330
1F
100
AcDbEntity
  8
D-STR-STR1
 62
     6
100
AcDbLine
 10
2403.999956234939
 20
1028.118522368475
 30
0.0
 11
2403.999956234939
 21
1003.118522368475
 31
0.0
  0
LINE
  5
E8A1
330
1F
100
AcDbEntity
  8
D-STR-STR1
 62
     6
100
AcDbLine
 10
2405.39994623494
 20
998.1185223684752
 30
0.0
 11
2405.999936234939
 21
997.1185323684748
 31
0.0
  0
LINE
  5
E8A2
330
1F
100
AcDbEntity
  8
D-STR-STR1
 62
     6
100
AcDbLine
 10
2405.999936234939
 20
997.1185223684752
 30
0.0
 11
2405.999936234939
 21
969.1185123684736
 31
0.0
  0
LINE
  5
E8A3
330
1F
100
AcDbEntity
  8
D-STR-STR1
 62
     6
100
AcDbLine
 10
2404.999936234939
 20
997.1185223684752
 30
0.0
 11
2404.999936234939
 21
969.1185123684736
 31
0.0
  0
LINE
  5
E8A4
330
1F
100
AcDbEntity
  8
D-STR-STR1
 62
     6
100
AcDbLine
 10
2405.39994623494
 20
1003.118522368475
 30
0.0
 11
2405.39994623494
 21
998.1185223684752
 31
0.0
  0
LINE
  5
E8A5
330
1F
100
AcDbEntity
  8
D-STR-STR1
 62
     6
100
AcDbLine
 10
2395.999936234939
 20
1028.118522368475
 30
0.0
 11
2394.599946234937
 21
1028.118522368475
 31
0.0
  0
LINE
  5
E8A6
330
1F
100
AcDbEntity
  8
D-STR-STR1
 62
     6
100
AcDbLine
 10
2395.999936234939
 20
1028.118522368475
 30
0.0
 11
2395.999936234939
 21
1003.118522368475
 31
0.0
  0
LINE
  5
E8A7
330
1F
100
AcDbEntity
  8
D-STR-STR1
 62
     6
100
AcDbLine
 10
2393.999946234938
 20
997.1185323684748
 30
0.0
 11
2394.599946234937
 21
998.1185223684752
 31
0.0
  0
LINE
  5
E8A8
330
1F
100
AcDbEntity
  8
D-STR-STR1
 62
     6
100
AcDbLine
 10
2394.999956234938
 20
997.1185223684752
 30
0.0
 11
2394.999956234938
 21
969.1185123684736
 31
0.0
  0
LINE
  5
E8A9
330
1F
100
AcDbEntity
  8
D-STR-STR1
 62
     6
100
AcDbLine
 10
2393.999946234938
 20
997.1185223684752
 30
0.0
 11
2393.999946234938
 21
969.1185123684736
 31
0.0
  0
LINE
  5
E8AA
330
1F
100
AcDbEntity
  8
D-STR-STR1
 62
     6
100
AcDbLine
 10
2394.599946234937
 20
1003.118522368475
 30
0.0
 11
2394.599946234937
 21
998.1185223684752
 31
0.0
  0
LINE
  5
E8AB
330
1F
100
AcDbEntity
  8
D-STR-STR1
 62
     6
100
AcDbLine
 10
2405.39994623494
 20
1003.118522368475
 30
0.0
 11
2394.599946234937
 21
1003.118522368475
 31
0.0
  0
LINE
  5
E8AC
330
1F
100
AcDbEntity
  8
D-STR-STR1
 62
     6
100
AcDbLine
 10
2393.999946234938
 20
997.1185323684748
 30
0.0
 11
2405.999936234939
 21
997.1185323684748
 31
0.0
  0
LINE
  5
E8AD
330
1F
100
AcDbEntity
  8
D-STR-STR1
 62
     6
100
AcDbLine
 10
2394.599946234937
 20
998.1185223684752
 30
0.0
 11
2405.39994623494
 21
998.1185223684752
 31
0.0
  0
LINE
  5
E8AE
330
1F
100
AcDbEntity
  8
D-STR-STR1
 62
     6
100
AcDbLine
 10
2405.39994623494
 20
1048.118512368473
 30
0.0
 11
2405.39994623494
 21
1028.118522368475
 31
0.0
  0
LINE
  5
E8AF
330
1F
100
AcDbEntity
  8
D-STR-STR1
 62
     6
100
AcDbLine
 10
2394.599946234937
 20
1048.118512368473
 30
0.0
 11
2394.599946234937
 21
1028.118522368475
 31
0.0
  0
DIMENSION
  5
E8B0
330
1F
100
AcDbEntity
  8
D-STR-DIM
 48
10.0
100
AcDbDimension
  2
*D2
 10
2690.000035692776
 20
968.1185183684757
 30
0.0
 11
2665.000035692775
 21
1043.118518368476
 31
0.0
 70
    32
 71
     5
 42
150.0000000000001
  3
S10
100
AcDbAlignedDimension
 13
2590.000035692776
 23
1118.118518368475
 33
0.0
 14
2590.000035692776
 24
968.1185183684757
 34
0.0
 50
90.0
100
AcDbRotatedDimension
  0
DIMENSION
  5
E8B1
330
1F
100
AcDbEntity
  8
D-STR-DIM
 48
10.0
100
AcDbDimension
  2
*D3
 10
2439.999938062336
 20
1378.118418368474
 30
0.0
 11
2514.999986877556
 21
1403.118418368474
 31
0.0
 70
    32
 71
     5
 42
150.0000976304399
  3
S10
100
AcDbAlignedDimension
 13
2590.000035692776
 23
1318.117172996149
 33
0.0
 14
2439.999938062336
 24
1318.117172996149
 34
0.0
100
AcDbRotatedDimension
  0
DIMENSION
  5
E8B2
330
1F
100
AcDbEntity
  8
D-STR-DIM
 48
10.0
100
AcDbDimension
  2
*D4
 10
2439.999938062336
 20
1378.118418368474
 30
0.0
 11
2429.894314531066
 21
1421.302088347369
 31
0.0
 70
   160
 71
     5
 42
20.0
  3
S10
100
AcDbAlignedDimension
 13
2419.999938062336
 23
1318.117172996149
 33
0.0
 14
2439.999938062336
 24
1318.117172996149
 34
0.0
100
AcDbRotatedDimension
1001
ACAD
1000
DSTYLE
1002
{
1070
   279
1070
     2
1002
}
  0
ARC
  5
E8B3
330
1F
100
AcDbEntity
  8
D-STR
100
AcDbCircle
 10
2267.149506234936
 20
1288.11727299615
 30
0.0
 40
29.99999799999999
100
AcDbArc
 50
90.0
 51
174.2893800000142
  0
ARC
  5
E8B4
330
1F
100
AcDbEntity
  8
D-STR
100
AcDbCircle
 10
2392.850416234936
 20
1288.11727299615
 30
0.0
 40
29.99999799999999
100
AcDbArc
 50
5.710617000018405
 51
90.0
  0
LINE
  5
E8B5
330
1F
100
AcDbEntity
  8
D-STR
100
AcDbLine
 10
2392.850416234936
 20
1318.117172996149
 30
0.0
 11
2267.149506234936
 21
1318.117172996149
 31
0.0
  0
DIMENSION
  5
E8B6
330
1F
100
AcDbEntity
  8
D-STR-DIM
 48
10.0
100
AcDbDimension
  2
*D5
 10
2239.999968657952
 20
1378.118418368474
 30
0.0
 11
2329.999953360144
 21
1403.118418368474
 31
0.0
 70
    32
 71
     5
 42
179.9999694043835
  3
S10
100
AcDbAlignedDimension
 13
2419.999938062336
 23
1318.117172996149
 33
0.0
 14
2239.999968657952
 24
1318.117172996149
 34
0.0
100
AcDbRotatedDimension
  0
LINE
  5
EAC9
330
1F
100
AcDbEntity
  8
D-STR-DIM
100
AcDbLine
 10
0.0
 20
0.0
 30
0.0
 11
1300.0
 21
0.0
 31
0.0
  0
LINE
  5
EACA
330
1F
100
AcDbEntity
  8
D-STR-DIM
100
AcDbLine
 10
0.0
 20
160.0
 30
0.0
 11
1300.0
 21
160.0
 31
0.0
  0
LINE
  5
EACB
330
1F
100
AcDbEntity
  8
D-STR-DIM
100
AcDbLine
 10
0.0
 20
80.0
 30
0.0
 11
1300.0
 21
80.0
 31
0.0
  0
LINE
  5
EACC
330
1F
100
AcDbEntity
  8
D-STR-DIM
100
AcDbLine
 10
0.0
 20
240.0
 30
0.0
 11
1300.0
 21
240.0
 31
0.0
  0
LINE
  5
EACD
330
1F
100
AcDbEntity
  8
D-STR-DIM
100
AcDbLine
 10
0.0
 20
320.0
 30
0.0
 11
1300.0
 21
320.0
 31
0.0
  0
LINE
  5
EACE
330
1F
100
AcDbEntity
  8
D-STR-DIM
100
AcDbLine
 10
0.0
 20
400.0
 30
0.0
 11
1300.0
 21
400.0
 31
0.0
  0
LINE
  5
EACF
330
1F
100
AcDbEntity
  8
D-STR-DIM
100
AcDbLine
 10
0.0
 20
500.0
 30
0.0
 11
1300.0
 21
500.0
 31
0.0
  0
LINE
  5
EAD0
330
1F
100
AcDbEntity
  8
D-STR-DIM
100
AcDbLine
 10
1000.0
 20
500.0
 30
0.0
 11
1000.0
 21
0.0
 31
0.0
  0
LINE
  5
EAD1
330
1F
100
AcDbEntity
  8
D-STR-DIM
100
AcDbLine
 10
0.0
 20
500.0
 30
0.0
 11
0.0
 21
0.0
 31
0.0
  0
LINE
  5
EAD2
330
1F
100
AcDbEntity
  8
D-STR-DIM
100
AcDbLine
 10
300.0
 20
500.0
 30
0.0
 11
300.0
 21
0.0
 31
0.0
  0
LINE
  5
EAD3
330
1F
100
AcDbEntity
  8
D-STR-DIM
100
AcDbLine
 10
600.0
 20
500.0
 30
0.0
 11
600.0
 21
0.0
 31
0.0
  0
LINE
  5
EAD4
330
1F
100
AcDbEntity
  8
D-STR-DIM
100
AcDbLine
 10
700.0
 20
500.0
 30
0.0
 11
700.0
 21
0.0
 31
0.0
  0
MTEXT
  5
EAD5
330
1F
100
AcDbEntity
  8
D-STR-DIM
100
AcDbMText
 10
450.0
 20
280.0
 30
0.0
 40
30.0
 41
0.0
 71
     5
 72
     1
  1
18-8-25BB
 73
     1
 44
1.0
  0
MTEXT
  5
EAD6
330
1F
100
AcDbEntity
  8
D-STR-DIM
100
AcDbMText
 10
450.0
 20
200.0
 30
0.0
 40
30.0
 41
0.0
 71
     5
 72
     1
  1
RC-40
 73
     1
 44
1.0
  0
MTEXT
  5
EAD7
330
1F
100
AcDbEntity
  8
D-STR-DIM
100
AcDbMText
 10
450.0
 20
360.0
 30
0.0
 40
30.0
 41
0.0
 71
     5
 72
     1
  1
片面B
 73
     1
 44
1.0
  0
MTEXT
  5
EAD8
330
1F
100
AcDbEntity
  8
D-STR-DIM
100
AcDbMText
 10
150.0
 20
200.0
 30
0.0
 40
30.0
 41
0.0
 71
     5
 72
     1
  1
基礎砕石
 73
     1
 44
1.0
  0
MTEXT
  5
EAD9
330
1F
100
AcDbEntity
  8
D-STR-DIM
100
AcDbMText
 10
150.0
 20
280.0
 30
0.0
 40
30.0
 41
0.0
 71
     5
 72
     1
  1
後打ちコンクリート
 73
     1
 44
1.0
  0
MTEXT
  5
EADA
330
1F
100
AcDbEntity
  8
D-STR-DIM
100
AcDbMText
 10
150.0
 20
120.0
 30
0.0
 40
30.0
 41
0.0
 71
     5
 72
     1
  1
型　枠
 73
     1
 44
1.0
  0
MTEXT
  5
EADB
330
1F
100
AcDbEntity
  8
D-STR-DIM
100
AcDbMText
 10
150.0
 20
360.0
 30
0.0
 40
30.0
 41
0.0
 71
     5
 72
     1
  1
歩車道境界ブロック
 73
     1
 44
1.0
  0
MTEXT
  5
EADC
330
1F
100
AcDbEntity
  8
D-STR-DIM
100
AcDbMText
 10
850.0
 20
280.0
 30
0.0
 40
30.0
 41
0.0
 71
     5
 72
     1
  1
0.65
 73
     1
 44
1.0
  0
MTEXT
  5
EADD
330
1F
100
AcDbEntity
  8
D-STR-DIM
100
AcDbMText
 10
850.0
 20
120.0
 30
0.0
 40
30.0
 41
0.0
 71
     5
 72
     1
  1
3.00
 73
     1
 44
1.0
  0
MTEXT
  5
EADE
330
1F
100
AcDbEntity
  8
D-STR-DIM
100
AcDbMText
 10
650.0
 20
120.0
 30
0.0
 40
30.0
 41
0.0
 71
     5
 72
     1
  1
m2
 73
     1
 44
1.0
  0
MTEXT
  5
EADF
330
1F
100
AcDbEntity
  8
D-STR-DIM
100
AcDbMText
 10
650.0
 20
280.0
 30
0.0
 40
30.0
 41
0.0
 71
     5
 72
     1
  1
m3
 73
     1
 44
1.0
  0
MTEXT
  5
EAE0
330
1F
100
AcDbEntity
  8
D-STR-DIM
100
AcDbMText
 10
650.0
 20
200.0
 30
0.0
 40
30.0
 41
0.0
 71
     5
 72
     1
  1
m2
 73
     1
 44
1.0
  0
MTEXT
  5
EAE1
330
1F
100
AcDbEntity
  8
D-STR-DIM
100
AcDbMText
 10
650.0
 20
360.0
 30
0.0
 40
30.0
 41
0.0
 71
     5
 72
     1
  1
本
 73
     1
 44
1.0
  0
MTEXT
  5
EAE2
330
1F
100
AcDbEntity
  8
D-STR-DIM
100
AcDbMText
 10
850.0
 20
200.0
 30
0.0
 40
30.0
 41
0.0
 71
     5
 72
     1
  1
5.00
 73
     1
 44
1.0
  0
MTEXT
  5
EAE3
330
1F
100
AcDbEntity
  8
D-STR-DIM
100
AcDbMText
 10
850.0
 20
360.0
 30
0.0
 40
30.0
 41
0.0
 71
     5
 72
     1
  1
4.10
 73
     1
 44
1.0
  0
MTEXT
  5
EAE4
330
1F
100
AcDbEntity
  8
D-STR-DIM
100
AcDbMText
 10
150.0
 20
450.0
 30
0.0
 40
30.0
 41
0.0
 71
     5
 72
     1
  1
名　称
 73
     1
 44
1.0
  0
MTEXT
  5
EAE5
330
1F
100
AcDbEntity
  8
D-STR-DIM
100
AcDbMText
 10
69.09755571309506
 20
533.5399951010986
 30
0.0
 40
30.0
 41
0.0
 71
     5
 72
     1
  1
材料表
 73
     1
 44
1.0
  0
MTEXT
  5
EAE6
330
1F
100
AcDbEntity
  8
D-STR-DIM
100
AcDbMText
 10
450.0
 20
450.0
 30
0.0
 40
30.0
 41
0.0
 71
     5
 72
     1
  1
規　格
 73
     1
 44
1.0
  0
MTEXT
  5
EAE7
330
1F
100
AcDbEntity
  8
D-STR-DIM
100
AcDbMText
 10
850.0
 20
450.0
 30
0.0
 40
30.0
 41
0.0
 71
     5
 72
     1
  1
数　量
 73
     1
 44
1.0
  0
MTEXT
  5
EAE8
330
1F
100
AcDbEntity
  8
D-STR-DIM
100
AcDbMText
 10
650.0
 20
450.0
 30
0.0
 40
30.0
 41
0.0
 71
     5
 72
     1
  1
単位
 73
     1
 44
1.0
  0
MTEXT
  5
EAE9
330
1F
100
AcDbEntity
  8
D-STR-DIM
100
AcDbMText
 10
1150.0
 20
450.0
 30
0.0
 40
30.0
 41
0.0
 71
     5
 72
     1
  1
摘　要
 73
     1
 44
1.0
  0
MTEXT
  5
EAEA
330
1F
100
AcDbEntity
  8
D-STR-DIM
100
AcDbMText
 10
1208.889910226746
 20
533.5399951010986
 30
0.0
 40
30.0
 41
0.0
 71
     5
 72
     1
  1
10m当り
 73
     1
 44
1.0
  0
LINE
  5
EAEB
330
1F
100
AcDbEntity
  8
D-STR-DIM
100
AcDbLine
 10
2980.0
 20
500.0
 30
0.0
 11
2980.0
 21
0.0
 31
0.0
  0
LINE
  5
EAEC
330
1F
100
AcDbEntity
  8
D-STR-DIM
100
AcDbLine
 10
2680.0
 20
500.0
 30
0.0
 11
2680.0
 21
0.0
 31
0.0
  0
LINE
  5
EAED
330
1F
100
AcDbEntity
  8
D-STR-DIM
100
AcDbLine
 10
1300.0
 20
500.0
 30
0.0
 11
1300.0
 21
0.0
 31
0.0
  0
LINE
  5
EAEE
330
1F
100
AcDbEntity
  8
D-STR-DIM
100
AcDbLine
 10
1680.0
 20
500.0
 30
0.0
 11
1680.0
 21
0.0
 31
0.0
  0
LINE
  5
EAEF
330
1F
100
AcDbEntity
  8
D-STR-DIM
100
AcDbLine
 10
2380.0
 20
500.0
 30
0.0
 11
2380.0
 21
0.0
 31
0.0
  0
LINE
  5
EAF0
330
1F
100
AcDbEntity
  8
D-STR-DIM
100
AcDbLine
 10
2280.0
 20
500.0
 30
0.0
 11
2280.0
 21
0.0
 31
0.0
  0
LINE
  5
EAF1
330
1F
100
AcDbEntity
  8
D-STR-DIM
100
AcDbLine
 10
1980.0
 20
500.0
 30
0.0
 11
1980.0
 21
0.0
 31
0.0
  0
LINE
  5
EAF2
330
1F
100
AcDbEntity
  8
D-STR-DIM
100
AcDbLine
 10
1680.0
 20
400.0
 30
0.0
 11
2980.0
 21
400.0
 31
0.0
  0
LINE
  5
EAF3
330
1F
100
AcDbEntity
  8
D-STR-DIM
100
AcDbLine
 10
1680.0
 20
320.0
 30
0.0
 11
2980.0
 21
320.0
 31
0.0
  0
LINE
  5
EAF4
330
1F
100
AcDbEntity
  8
D-STR-DIM
100
AcDbLine
 10
1680.0
 20
240.0
 30
0.0
 11
2980.0
 21
240.0
 31
0.0
  0
LINE
  5
EAF5
330
1F
100
AcDbEntity
  8
D-STR-DIM
100
AcDbLine
 10
1680.0
 20
80.0
 30
0.0
 11
2980.0
 21
80.0
 31
0.0
  0
LINE
  5
EAF6
330
1F
100
AcDbEntity
  8
D-STR-DIM
100
AcDbLine
 10
1680.0
 20
160.0
 30
0.0
 11
2980.0
 21
160.0
 31
0.0
  0
LINE
  5
EAF7
330
1F
100
AcDbEntity
  8
D-STR-DIM
100
AcDbLine
 10
1680.0
 20
0.0
 30
0.0
 11
2980.0
 21
0.0
 31
0.0
  0
MTEXT
  5
EAFE
330
1F
100
AcDbEntity
  8
D-STR-DIM
100
AcDbMText
 10
2330.0
 20
120.0
 30
0.0
 40
30.0
 41
0.0
 71
     5
 72
     1
  1
m2
 73
     1
 44
1.0
  0
MTEXT
  5
EB00
330
1F
100
AcDbEntity
  8
D-STR-DIM
100
AcDbMText
 10
2330.0
 20
280.0
 30
0.0
 40
30.0
 41
0.0
 71
     5
 72
     1
  1
m3
 73
     1
 44
1.0
  0
MTEXT
  5
EB01
330
1F
100
AcDbEntity
  8
D-STR-DIM
100
AcDbMText
 10
2330.0
 20
200.0
 30
0.0
 40
30.0
 41
0.0
 71
     5
 72
     1
  1
m2
 73
     1
 44
1.0
  0
MTEXT
  5
EB02
330
1F
100
AcDbEntity
  8
D-STR-DIM
100
AcDbMText
 10
2330.0
 20
360.0
 30
0.0
 40
30.0
 41
0.0
 71
     5
 72
     1
  1
本
 73
     1
 44
1.0
  0
MTEXT
  5
EB03
330
1F
100
AcDbEntity
  8
D-STR-DIM
100
AcDbMText
 10
2530.0
 20
120.0
 30
0.0
 40
30.0
 41
0.0
 71
     5
 72
     1
  1
3.00
 73
     1
 44
1.0
  0
MTEXT
  5
EB04
330
1F
100
AcDbEntity
  8
D-STR-DIM
100
AcDbMText
 10
2530.0
 20
280.0
 30
0.0
 40
30.0
 41
0.0
 71
     5
 72
     1
  1
0.67
 73
     1
 44
1.0
  0
MTEXT
  5
EB05
330
1F
100
AcDbEntity
  8
D-STR-DIM
100
AcDbMText
 10
2530.0
 20
200.0
 30
0.0
 40
30.0
 41
0.0
 71
     5
 72
     1
  1
5.20
 73
     1
 44
1.0
  0
MTEXT
  5
EB06
330
1F
100
AcDbEntity
  8
D-STR-DIM
100
AcDbMText
 10
2530.0
 20
360.0
 30
0.0
 40
30.0
 41
0.0
 71
     5
 72
     1
  1
4.10
 73
     1
 44
1.0
  0
MTEXT
  5
EB07
330
1F
100
AcDbEntity
  8
D-STR-DIM
100
AcDbMText
 10
2830.0
 20
450.0
 30
0.0
 40
30.0
 41
0.0
 71
     5
 72
     1
  1
摘　要
 73
     1
 44
1.0
  0
MTEXT
  5
EB08
330
1F
100
AcDbEntity
  8
D-STR-DIM
100
AcDbMText
 10
2888.889910226746
 20
533.5399951010986
 30
0.0
 40
30.0
 41
0.0
 71
     5
 72
     1
  1
10m当り
 73
     1
 44
1.0
  0
LINE
  5
EB09
330
1F
100
AcDbEntity
  8
D-STR-DIM
100
AcDbLine
 10
1680.0
 20
500.0
 30
0.0
 11
2980.0
 21
500.0
 31
0.0
  0
MTEXT
  5
EB0A
330
1F
100
AcDbEntity
  8
D-STR-DIM
100
AcDbMText
 10
1830.0
 20
450.0
 30
0.0
 40
30.0
 41
0.0
 71
     5
 72
     1
  1
名　称
 73
     1
 44
1.0
  0
MTEXT
  5
EB0B
330
1F
100
AcDbEntity
  8
D-STR-DIM
100
AcDbMText
 10
1749.097555713095
 20
533.5399951010986
 30
0.0
 40
30.0
 41
0.0
 71
     5
 72
     1
  1
材料表
 73
     1
 44
1.0
  0
MTEXT
  5
EB0C
330
1F
100
AcDbEntity
  8
D-STR-DIM
100
AcDbMText
 10
2130.0
 20
450.0
 30
0.0
 40
30.0
 41
0.0
 71
     5
 72
     1
  1
規　格
 73
     1
 44
1.0
  0
MTEXT
  5
EB0D
330
1F
100
AcDbEntity
  8
D-STR-DIM
100
AcDbMText
 10
2330.0
 20
450.0
 30
0.0
 40
30.0
 41
0.0
 71
     5
 72
     1
  1
単位
 73
     1
 44
1.0
  0
MTEXT
  5
EB0E
330
1F
100
AcDbEntity
  8
D-STR-DIM
100
AcDbMText
 10
2530.0
 20
450.0
 30
0.0
 40
30.0
 41
0.0
 71
     5
 72
     1
  1
数　量
 73
     1
 44
1.0
  0
MTEXT
  5
EB0F
330
1F
100
AcDbEntity
  8
D-STR-TXT
370
    -3
100
AcDbMText
 10
649.9999349999998
 20
1990.304878810835
 30
0.0
 40
50.0
 41
0.0
 71
     5
 72
     1
  1
{\L片面歩車道境界ブロックB}
 73
     1
 44
1.0
  0
MTEXT
  5
EB10
330
1F
100
AcDbEntity
  8
D-STR-TXT
370
    -3
100
AcDbMText
 10
746.953135686439
 20
1917.223535268818
 30
0.0
 40
50.0
 41
0.0
 71
     5
 72
     1
  1
S=1/10
 73
     1
 44
1.0
  0
MTEXT
  5
EB11
330
1F
100
AcDbEntity
  8
D-STR-TXT
370
    -3
100
AcDbMText
 10
2426.953095686438
 20
1917.223535268818
 30
0.0
 40
50.0
 41
0.0
 71
     5
 72
     1
  1
S=1/10
 73
     1
 44
1.0
  0
MTEXT
  5
EB12
330
1F
100
AcDbEntity
  8
D-STR-TXT
370
    -3
100
AcDbMText
 10
2329.999894999999
 20
1990.304878810835
 30
0.0
 40
50.0
 41
0.0
 71
     5
 72
     1
  1
{\L両面歩車道境界ブロックB}
 73
     1
 44
1.0
  0
MTEXT
  5
EB15
330
1F
100
AcDbEntity
  8
D-STR-DIM
100
AcDbMText
 10
1830.0
 20
360.0
 30
0.0
 40
30.0
 41
0.0
 71
     5
 72
     1
  1
歩車道境界ブロック
 73
     1
 44
1.0
  0
MTEXT
  5
EB16
330
1F
100
AcDbEntity
  8
D-STR-DIM
100
AcDbMText
 10
1830.0
 20
280.0
 30
0.0
 40
30.0
 41
0.0
 71
     5
 72
     1
  1
後打ちコンクリート
 73
     1
 44
1.0
  0
MTEXT
  5
EB17
330
1F
100
AcDbEntity
  8
D-STR-DIM
100
AcDbMText
 10
2130.0
 20
280.0
 30
0.0
 40
30.0
 41
0.0
 71
     5
 72
     1
  1
18-8-25BB
 73
     1
 44
1.0
  0
MTEXT
  5
EB18
330
1F
100
AcDbEntity
  8
D-STR-DIM
100
AcDbMText
 10
2130.0
 20
360.0
 30
0.0
 40
30.0
 41
0.0
 71
     5
 72
     1
  1
両面B
 73
     1
 44
1.0
  0
MTEXT
  5
EB19
330
1F
100
AcDbEntity
  8
D-STR-DIM
100
AcDbMText
 10
2130.0
 20
200.0
 30
0.0
 40
30.0
 41
0.0
 71
     5
 72
     1
  1
RC-40
 73
     1
 44
1.0
  0
MTEXT
  5
EB1A
330
1F
100
AcDbEntity
  8
D-STR-DIM
100
AcDbMText
 10
1830.0
 20
120.0
 30
0.0
 40
30.0
 41
0.0
 71
     5
 72
     1
  1
型　枠
 73
     1
 44
1.0
  0
MTEXT
  5
EB1B
330
1F
100
AcDbEntity
  8
D-STR-DIM
100
AcDbMText
 10
1830.0
 20
200.0
 30
0.0
 40
30.0
 41
0.0
 71
     5
 72
     1
  1
基礎砕石
 73
     1
 44
1.0
  0
MTEXT
  5
EB1D
330
1F
100
AcDbEntity
  8
D-STR-DIM
100
AcDbMText
 10
1150.0
 20
360.0
 30
0.0
 40
30.0
 41
0.0
 71
     5
 72
     1
  1
L=2.440m
 73
     1
 44
1.0
  0
MTEXT
  5
EB1E
330
1F
100
AcDbEntity
  8
D-STR-DIM
100
AcDbMText
 10
2830.0
 20
360.0
 30
0.0
 40
30.0
 41
0.0
 71
     5
 72
     1
  1
L=2.440m
 73
     1
 44
1.0
  0
ENDSEC
  0
SECTION
  2
OBJECTS
  0
DICTIONARY
  5
C
330
0
100
AcDbDictionary
281
     1
  3
ACAD_GROUP
350
D
  3
ACAD_LAYOUT
350
1A
  3
ACAD_MLINESTYLE
350
17
  3
ACAD_PLOTSETTINGS
350
19
  3
ACAD_PLOTSTYLENAME
350
E
  3
AcadDim
350
23B1
  3
AcDbVariableDictionary
350
B0
  3
AEC_PROPERTY_SET_DEFS
350
67
  3
ASE_INDEX_DICTIONARY
350
EF32
  0
DICTIONARY
  5
D
102
{ACAD_REACTORS
330
C
102
}
330
C
100
AcDbDictionary
281
     1
  0
DICTIONARY
  5
1A
102
{ACAD_REACTORS
330
C
102
}
330
C
100
AcDbDictionary
281
     1
  3
Model
350
22
  3
ﾚｲｱｳﾄ1
350
1E
  3
ﾚｲｱｳﾄ2
350
26
  0
DICTIONARY
  5
17
102
{ACAD_REACTORS
330
C
102
}
330
C
100
AcDbDictionary
281
     1
  3
Standard
350
18
  0
DICTIONARY
  5
19
102
{ACAD_REACTORS
330
C
102
}
330
C
100
AcDbDictionary
281
     1
  0
ACDBDICTIONARYWDFLT
  5
E
102
{ACAD_REACTORS
330
C
102
}
330
C
100
AcDbDictionary
281
     1
  3
Normal
350
F
100
AcDbDictionaryWithDefault
340
F
  0
XRECORD
  5
23B1
102
{ACAD_REACTORS
330
C
102
}
330
C
100
AcDbXrecord
280
     1
 90
   990106
  3
OPEN30
 60
     0
 61
     0
 62
     4
 63
     4
 64
     1
 65
     0
 66
     0
 67
     3
 68
     1
 69
     0
 70
     0
 71
     0
 72
     0
 40
0.0
170
     2
340
0
  0
DICTIONARY
  5
B0
102
{ACAD_REACTORS
330
C
102
}
330
C
100
AcDbDictionary
281
     1
  3
DIMASSOC
350
B2
  3
HIDETEXT
350
B1
  0
DICTIONARY
  5
67
102
{ACAD_REACTORS
330
C
102
}
330
C
100
AcDbDictionary
281
     1
  0
DICTIONARY
  5
EF32
102
{ACAD_REACTORS
330
C
102
}
330
C
100
AcDbDictionary
281
     1
  3
ASEBlockHierarchyIndexRecord
350
EF34
1001
DCO15
1040
1594526125.641
  0
LAYOUT
  5
22
102
{ACAD_REACTORS
330
1A
102
}
330
1A
100
AcDbPlotSettings
  1

  2
DocuPrint C2220
  4
A3
  6

 40
4.900083065032958
 41
4.857729434967041
 42
4.900054931640625
 43
4.90008544921875
 44
297.0106506347656
 45
419.9889831542968
 46
-4.889999999999999
 47
-4.879999999999999
 48
11363.01166058428
 49
5248.56212101729
140
19763.01166058428
141
11188.56212101729
142
1.0
143
20.0
 70
 11940
 72
     1
 73
     1
 74
     4
  7
monochrome.ctb
 75
     0
147
0.05
148
-11363.01166058428
149
-5248.56212101729
100
AcDbLayout
  1
Model
 70
     1
 71
     0
 10
0.0
 20
0.0
 11
12.0
 21
9.0
 12
0.0
 22
0.0
 32
0.0
 14
0.0
 24
0.0
 34
0.0
 15
0.0
 25
0.0
 35
0.0
146
0.0
 13
0.0
 23
0.0
 33
0.0
 16
1.0
 26
0.0
 36
0.0
 17
0.0
 27
1.0
 37
0.0
 76
     0
330
1F
  0
LAYOUT
  5
1E
102
{ACAD_REACTORS
330
1A
102
}
330
1A
100
AcDbPlotSettings
  1

  2
NEC PC-PR2000/4R No.2
  4

  6

 40
0.0
 41
0.0
 42
0.0
 43
0.0
 44
0.0
 45
0.0
 46
0.0
 47
0.0
 48
0.0
 49
0.0
140
0.0
141
0.0
142
1.0
143
1.0
 70
   688
 72
     0
 73
     0
 74
     5
  7
monochrome.ctb
 75
    16
147
1.0
148
0.0
149
0.0
100
AcDbLayout
  1
ﾚｲｱｳﾄ1
 70
     1
 71
     1
 10
0.0
 20
0.0
 11
420.0
 21
297.0
 12
0.0
 22
0.0
 32
0.0
 14
1.000000000000000E+20
 24
1.000000000000000E+20
 34
1.000000000000000E+20
 15
-1.000000000000000E+20
 25
-1.000000000000000E+20
 35
-1.000000000000000E+20
146
0.0
 13
0.0
 23
0.0
 33
0.0
 16
1.0
 26
0.0
 36
0.0
 17
0.0
 27
1.0
 37
0.0
 76
     0
330
1B
  0
LAYOUT
  5
26
102
{ACAD_REACTORS
330
1A
102
}
330
1A
100
AcDbPlotSettings
  1

  2
NEC PC-PR2000/4R No.2
  4

  6

 40
0.0
 41
0.0
 42
0.0
 43
0.0
 44
0.0
 45
0.0
 46
0.0
 47
0.0
 48
0.0
 49
0.0
140
0.0
141
0.0
142
1.0
143
1.0
 70
   688
 72
     0
 73
     0
 74
     5
  7
monochrome.ctb
 75
    16
147
1.0
148
0.0
149
0.0
100
AcDbLayout
  1
ﾚｲｱｳﾄ2
 70
     1
 71
     2
 10
0.0
 20
0.0
 11
12.0
 21
9.0
 12
0.0
 22
0.0
 32
0.0
 14
0.0
 24
0.0
 34
0.0
 15
0.0
 25
0.0
 35
0.0
146
0.0
 13
0.0
 23
0.0
 33
0.0
 16
1.0
 26
0.0
 36
0.0
 17
0.0
 27
1.0
 37
0.0
 76
     0
330
23
  0
MLINESTYLE
  5
18
102
{ACAD_REACTORS
330
17
102
}
330
17
100
AcDbMlineStyle
  2
STANDARD
 70
     0
  3

 62
   256
 51
90.0
 52
90.0
 71
     2
 49
0.5
 62
   256
  6
BYLAYER
 49
-0.5
 62
   256
  6
BYLAYER
  0
ACDBPLACEHOLDER
  5
F
102
{ACAD_REACTORS
330
E
102
}
330
E
  0
DICTIONARYVAR
  5
B2
102
{ACAD_REACTORS
330
B0
102
}
330
B0
100
DictionaryVariables
280
     0
  1
2
  0
DICTIONARYVAR
  5
B1
102
{ACAD_REACTORS
330
B0
102
}
330
B0
100
DictionaryVariables
280
     0
  1
1
  0
XRECORD
  5
EF34
102
{ACAD_REACTORS
330
EF32
102
}
330
EF32
100
AcDbXrecord
280
     1
330
0
330
0
330
0
330
0
330
0
330
0
330
0
330
0
330
0
330
0
330
0
330
0
330
0
330
0
330
0
330
0
330
0
330
0
330
0
330
0
330
0
330
0
330
0
330
0
330
0
330
0
330
0
330
0
330
0
330
0
330
0
330
0
330
0
330
0
  0
ENDSEC
  0
EOF
